osu file format v9

[General]
AudioFilename: Lover (BS Style).mp3
AudioLeadIn: 0
PreviewTime: 44719
Countdown: 0
SampleSet: Soft
StackLeniency: 0.7
Mode: 0
LetterboxInBreaks: 1

[Editor]
DistanceSpacing: 0.8
BeatDivisor: 4
GridSize: 8

[Metadata]
Title:Lover (BS Style)
Artist:ND Lee
Creator:aesopl19193
Version:Hard
Source:DJMAX
Tags:

[Difficulty]
HPDrainRate:5
CircleSize:4
OverallDifficulty:6
ApproachRate:6
SliderMultiplier:1.8
SliderTickRate:1

[Events]
//Background and Video events
Video,-400,"[BGA]_DJ_Max_Black_Square_-_Lover.avi"
0,0,"lover.jpg"
//Break Periods
//Storyboard Layer 0 (Background)
//Storyboard Layer 1 (Fail)
//Storyboard Layer 2 (Pass)
//Storyboard Layer 3 (Foreground)
//Storyboard Sound Samples
//Background Colour Transformations
3,100,0,0,0

[TimingPoints]
5015,413.793103448276,4,2,0,71,1,0
42980,-100,4,1,0,48,0,0
44512,-100,4,2,0,71,0,0
48049,-100,4,2,0,71,0,1
70704,-100,4,2,0,71,0,0

[Colours]
Combo1 : 52,162,203
Combo2 : 159,122,85
Combo3 : 173,158,71
Combo4 : 168,77,150

[HitObjects]
384,104,18256,1,4
304,144,18463,1,0
336,224,18670,1,0
184,304,19083,1,0
184,216,19290,1,0
96,208,19497,1,0
152,40,19911,6,0,B|272:40|272:144,1,180
448,176,20739,2,0,B|448:320|336:320,1,180,0|2
184,288,21566,5,0
96,256,21773,1,0
160,192,21980,1,0
72,160,22187,1,0
136,96,22394,2,0,B|184:8|304:32,1,180,0|2
464,64,23221,5,0
384,104,23428,1,0
432,176,23635,1,0
352,216,23842,1,0
400,288,24049,1,0
320,320,24256,2,0,B|224:320|216:320,1,90,0|2
136,320,24670,1,0
96,240,24877,1,4
32,72,25290,5,8
64,152,25497,1,0
152,120,25704,1,0
240,88,25911,1,0
320,120,26118,1,8
408,152,26325,1,0
408,240,26532,6,0,B|408:352|280:352,1,180,0|8
208,352,27152,2,0,B|96:352|96:208,1,180
96,144,27773,1,8
152,72,27980,5,0
256,72,28187,2,0,B|352:72,1,90
344,160,28601,2,0,B|248:160,1,90,2|0
160,160,29014,1,0
96,224,29221,1,0
56,304,29428,6,0,B|160:304,1,90
144,216,29842,2,0,B|40:216,1,90,2|0
56,128,30256,2,0,B|192:128,1,90
240,128,30670,1,0
328,128,30877,1,0
368,144,30980,1,0
400,168,31083,1,8
392,312,31497,6,0,B|328:264|264:264|264:264,1,135,4|0
240,280,31911,2,0,B|152:280|96:216,1,135,12|0
80,136,32532,1,0
168,136,32739,1,8
216,136,32842,1,0
264,136,32946,1,0
352,144,33152,6,0,B|424:200|336:304|328:304,1,180,4|8
240,320,33773,2,0,B|136:320,1,90
64,304,34187,2,0,B|64:208,1,90,4|8
64,168,34497,1,4
168,80,34808,2,0,B|264:80,1,90,4|0
328,128,35221,6,0,B|328:224,3,90,12|0|0|0
240,216,36049,1,8
152,216,36256,1,0
152,304,36463,6,0,B|272:304,2,90,4|0|8
112,224,37083,1,0
88,184,37187,1,0
64,144,37290,1,0
24,64,37497,6,0,B|176:64,1,135,4|4
296,64,38118,1,4
384,216,38532,1,4
448,336,38842,1,4
312,336,39152,1,0
224,336,39359,2,0,B|120:336,1,90,8|0
112,248,39773,5,4
72,72,40187,2,0,B|176:72|176:72|168:72,4,90,8|0|0|0|4
256,72,41428,6,0,B|312:72|376:72,1,90
344,160,41842,2,0,B|248:160,1,90,8|0
160,160,42256,2,0,B|40:160,1,90
72,248,42670,2,0,B|184:248,1,90,8|0
256,304,43083,5,4
440,192,43497,1,4
256,72,43911,1,4
80,192,44325,1,4
256,192,44739,5,0
256,192,45152,5,0
256,192,45359,1,0
256,192,45566,2,0,B|384:192,1,90
344,280,45980,5,0
344,280,46187,1,0
344,280,46394,2,0,B|224:280,1,90
160,280,46808,5,0
160,280,47015,1,0
160,280,47221,2,0,B|160:176|160:176,1,90
160,96,47635,2,0,B|264:96,1,90
344,96,48049,6,0,B|344:208,1,90
344,280,48463,1,8
344,280,48877,1,0
344,280,49083,1,0
344,280,49290,1,8
128,200,49704,6,0,B|128:96,1,90
216,88,50118,1,8
288,144,50325,1,0
288,144,50428,1,0
288,144,50532,1,0
360,88,50739,5,0
432,144,50946,1,8
360,200,51152,1,0
288,248,51359,2,0,B|168:248,1,90
200,160,51773,1,8
200,72,51980,1,0
112,72,52187,2,0,B|40:72|40:144,2,90,0|0|8
112,160,52808,1,0
112,248,53015,6,0,B|192:248|192:176,2,90,0|0|8
112,336,53635,1,0
200,336,53842,2,0,B|200:272|264:272,1,90
320,336,54256,2,0,B|376:336|376:272,1,90,8|0
376,192,54670,6,0,B|376:88,1,90
288,104,55083,1,8
200,104,55290,1,0
200,104,55394,1,0
200,104,55497,1,0
112,104,55704,1,0
112,104,55911,1,8
112,104,56118,1,0
112,192,56325,6,0,B|216:192,1,90
296,192,56739,1,8
344,192,56842,1,0
384,208,56946,1,0
408,248,57049,1,0
408,296,57152,1,0
320,296,57359,2,0,B|208:296|208:296|208:304,2,90,0|8|0
320,208,57980,6,0,B|448:176|392:72,1,180,0|8
320,32,58601,2,0,B|288:16|216:32,1,90,0|0
152,48,59015,1,0
80,104,59221,1,8
72,288,59635,6,0,B|168:344|248:288,1,180,0|8
336,288,60256,2,0,B|416:360,2,90
400,216,60877,2,0,B|448:160,2,45,8|0|0
344,144,61290,5,0
264,96,61497,1,0
192,152,61704,1,8
104,128,61911,1,0
104,216,62118,1,0
64,296,62325,1,0
152,296,62532,1,8
232,256,62739,2,0,B|328:272,1,90
328,184,63152,6,0,B|432:184|432:56,1,180
384,64,63670,1,0
336,64,63773,1,0
248,64,63980,2,0,B|144:64,2,90,0|8|0
240,152,64601,6,0,B|144:224|240:328,1,180,0|8
280,232,65221,1,0
312,312,65428,2,0,B|408:240|312:136,1,180,0|8
280,232,66049,1,0
240,152,66256,6,0,B|144:224|240:328,1,180,0|8
280,232,66877,1,0
368,232,67083,2,0,B|472:152|360:80,1,180,0|8
280,56,67704,1,0
192,56,67911,5,0
104,56,68118,2,0,B|104:160,1,90,0|8
104,240,68532,1,0
104,240,68739,1,0
104,240,68946,1,0
32,296,69152,1,8
56,336,69256,1,0
96,352,69359,1,0
136,344,69463,1,0
176,320,69566,5,0
264,320,69773,1,0
304,240,69980,1,0
288,152,70187,1,0
216,104,70394,1,8
192,144,70497,1,0
152,120,70601,1,8
128,160,70704,1,4
256,192,71221,12,8,72463
160,112,72877,5,0
344,112,73290,1,2
344,296,73704,1,0
168,296,74118,1,8
256,192,74532,12,8,75773
144,128,76187,5,0
216,184,76394,1,0
280,120,76601,1,2
392,256,77015,1,0
320,208,77221,1,0
248,264,77428,1,8
72,304,77842,6,0,B|24:200|64:72|160:16|272:0|384:16|424:64,1,540,0|8
360,128,79290,1,0
440,96,79497,6,0,B|488:200|448:328|352:384|240:400|128:384|88:336,1,540,0|8
40,192,81152,5,0
152,264,81463,1,0
152,128,81773,1,0
272,192,82083,1,0
136,192,82394,1,0
264,320,82808,5,0
352,312,83015,1,0
432,272,83221,1,8
456,184,83428,1,0
384,128,83635,1,2
352,160,83739,1,0
312,136,83842,1,8
280,168,83946,1,4
