osu file format v9

[General]
AudioFilename: Lover (BS Style).mp3
AudioLeadIn: 0
PreviewTime: 44719
Countdown: 0
SampleSet: Soft
StackLeniency: 0.7
Mode: 0
LetterboxInBreaks: 1

[Editor]
DistanceSpacing: 1
BeatDivisor: 4
GridSize: 8

[Metadata]
Title:Lover (BS Style)
Artist:ND Lee
Creator:aesopl19193
Version:Easy
Source:DJMAX
Tags:

[Difficulty]
HPDrainRate:3
CircleSize:4
OverallDifficulty:4
ApproachRate:4
SliderMultiplier:1
SliderTickRate:1

[Events]
//Background and Video events
Video,-400,"[BGA]_DJ_Max_Black_Square_-_Lover.avi"
0,0,"lover.jpg"
//Break Periods
2,44939,46729
//Storyboard Layer 0 (Background)
//Storyboard Layer 1 (Fail)
//Storyboard Layer 2 (Pass)
//Storyboard Layer 3 (Foreground)
//Storyboard Sound Samples
//Background Colour Transformations
3,100,0,0,0

[TimingPoints]
5015,413.793103448276,4,2,0,71,1,0
44719,-100,4,2,0,71,0,0
48049,-100,4,2,0,71,0,1
70704,-100,4,2,0,71,0,0

[Colours]
Combo1 : 52,162,203
Combo2 : 159,122,85
Combo3 : 173,158,71
Combo4 : 168,77,150

[HitObjects]
384,104,18256,1,4
256,256,19083,1,8
64,216,19911,6,0,B|64:72|192:72,1,200,0|8
192,272,21566,5,0
272,88,22394,1,8
440,192,23221,6,0,B|440:320|312:320,1,200,0|8
128,272,24877,5,4
216,96,25704,2,0,B|272:72|312:112,1,100,0|8
376,184,26532,5,0
224,312,27359,2,0,B|176:336|120:288,1,100,0|8
64,224,28187,5,0
136,152,28601,1,2
208,224,29014,1,0
280,152,29428,1,8
208,88,29842,6,0,B|104:88,1,100,0|2
32,152,30670,2,0,B|32:256,1,100,0|8
104,320,31497,5,4
360,152,33152,6,0,B|384:272|304:328|288:328,1,200
192,152,34808,5,4
160,304,36463,6,0,B|280:304,2,100
280,144,38118,5,4
72,256,39773,5,4
72,160,40187,2,0,B|176:160|176:160|168:160,2,100,8|0|8
72,56,41428,1,4
272,56,42256,1,4
120,184,43083,5,4
160,272,43497,1,4
256,304,43911,1,4
352,312,44325,1,4
448,304,44739,5,0
360,128,48049,6,0,B|360:240,1,100,4|2
256,232,48877,1,0
64,232,49704,6,0,B|64:128,1,100,0|8
168,136,50532,1,0
368,136,51359,5,0
448,200,51773,1,2
368,256,52187,1,0
168,240,53015,6,0,B|136:184|184:136,2,100,0|8|0
360,192,54670,5,0
200,112,55497,1,8
104,288,56325,5,0
208,288,56739,1,0
312,288,57152,1,8
400,184,57980,6,0,B|416:64|264:56,1,200,4|8
120,176,59635,6,0,B|144:288|280:280,1,200,0|8
408,136,61290,5,0
296,304,62118,1,2
192,136,62946,5,0
88,304,63773,1,8
288,304,64601,6,0,B|416:304|416:160,1,200,0|8
224,104,66256,6,0,B|96:104|96:240,1,200,0|8
288,288,67911,5,0
360,216,68325,1,2
440,152,68739,2,0,B|480:192,2,50,0|0|8
368,88,69566,6,0,B|280:88,3,50,0|0|2|0
272,88,70394,2,0,B|224:88,3,25,2|0|8|4
256,192,71221,12,0,73704
256,192,74532,12,0,77015
80,152,77842,6,0,B|96:56|240:8|344:56|344:56|344:56,1,300,0|8
360,144,79497,6,0,B|320:240|224:280|104:232|104:232,1,300,0|8
120,128,81152,5,0
320,128,81980,1,0
320,328,82808,6,0,B|376:328,3,50,0|0|2|0
424,328,83635,2,0,B|456:328,3,25,0|0|8|0
