osu file format v6

[General]
AudioFilename: SEDUCTION(Vocal Remix).mp3
AudioLeadIn: 0
PreviewTime: 51760
Countdown: 1
SampleSet: Soft
StackLeniency: 0.7
Mode: 0
LetterboxInBreaks: 1

[Editor]
Bookmarks: 31549,32812
DistanceSpacing: 0.800000011920929
BeatDivisor: 1
GridSize: 8

[Metadata]
Title:Seduction (Vocal Remix)
Artist:NC feat. NRG Factory
Creator:ouranhshc
Version:Normal
Source:Dance Dance Revolution
Tags:Ultimate Bemani

[Difficulty]
HPDrainRate:6
CircleSize:4
OverallDifficulty:6
SliderMultiplier:1.1
SliderTickRate:2

[Events]
//Background and Video events
0,0,"SEDUCTION%28Vocal%20Remix%29-bg.png"
//Break Periods
2,11572,20427
//Storyboard Layer 0 (Background)
//Storyboard Layer 1 (Fail)
//Storyboard Layer 2 (Pass)
//Storyboard Layer 3 (Foreground)
//Storyboard Sound Samples
//Background Colour Transformations
3,100,128,0,255

[TimingPoints]
4,315.789473684211,4,2,0,100,1,0
51793,-100,4,2,0,100,0,1
71339,-100,4,2,0,100,0,0

[Colours]
Combo1 : 255,147,255
Combo2 : 128,128,192
Combo3 : 128,255,255
Combo4 : 255,150,100

[HitObjects]
256,40,1267,2,0,B|139:41|104:192,1,220,0|0
256,344,2530,2,0,B|372:342|408:192,1,220
232,192,3793,6,0,B|8:192,1,220,0|0
280,192,5056,2,0,B|504:192,1,220
256,32,6319,6,0,B|256:252,2,220
112,128,8214,1,8
256,32,8846,6,0,B|256:252,2,220
400,128,10740,1,8
256,208,11372,5,4
256,64,21477,5,0
256,152,21793,1,0
184,104,22109,1,0
184,192,22425,1,0
104,152,22740,1,0
104,240,23056,1,0
24,200,23372,2,0,B|24:312,1,110,0|8
104,240,24003,6,0,B|216:296|328:240,1,220,0|4
384,80,25267,2,0,B|272:24|160:80,1,220,0|4
256,216,26530,5,0
256,128,26846,1,0
336,168,27161,1,0
336,80,27477,1,0
408,128,27793,1,0
408,40,28109,1,0
488,80,28425,1,0
488,168,28740,1,0
488,256,29056,6,0,B|376:256,7,110
256,256,31582,5,4
368,128,32214,1,8
304,64,32530,1,8
208,64,32846,1,8
144,128,33161,1,8
400,192,34109,5,4
264,80,34740,1,8
200,144,35056,1,8
200,240,35372,1,8
264,304,35688,1,8
256,40,36635,5,4
144,176,37267,1,8
208,240,37582,1,8
304,240,37898,1,8
368,176,38214,1,8
104,192,39161,5,4
240,80,39793,1,8
304,144,40109,1,8
304,240,40425,1,8
240,304,40740,1,8
480,192,41688,6,0,B|368:192,1,110,0|8
424,120,42319,2,0,B|312:120,1,110,0|8
368,48,42951,2,0,B|256:48,1,110,0|8
168,48,43582,2,0,B|278:48,1,110,0|4
224,120,44214,6,0,B|112:120,1,110,0|8
168,192,44846,2,0,B|56:192,1,110,0|8
104,264,45477,2,0,B|216:264,1,110,0|8
256,344,46109,1,0
256,344,46425,1,4
328,296,46740,6,0,B|280:224|192:272,1,110,0|8
176,320,47372,1,0
88,320,47688,1,8
132,244,48004,2,0,B|132:132,1,110,0|8
88,56,48635,1,0
176,56,48951,1,4
264,56,49267,6,0,B|376:56,3,110,0|4|0|4
320,120,50530,2,0,B|320:232,4,110
432,120,52109,6,0,B|448:264|296:304,1,220
328,208,53056,1,8
256,264,53372,2,0,B|240:125|360:95,1,220
312,24,54319,1,8
232,64,54635,2,0,B|152:144|160:280,1,220
200,344,55582,1,8
112,344,55898,2,0,B|88:312|72:240|104:128,1,220
64,64,56846,6,4,B|176:32|288:64,2,220
104,232,58740,1,0
176,280,59056,1,0
256,320,59372,1,4
336,280,59688,1,0
408,232,60004,1,4
344,168,60319,1,0
264,128,60635,1,4
256,216,60951,2,0,B|272:80|112:64,1,220
48,64,61898,6,4,B|48:288,2,220
224,32,63793,2,0,B|336:32,1,110,0|8
280,104,64425,2,0,B|168:104,1,110,0|8
224,176,65056,2,0,B|336:176,1,110,0|8
280,248,65688,2,0,B|168:280|48:248,1,220
216,328,66951,6,4,B|440:328,2,220
256,160,68846,2,0,B|256:272,1,110
256,160,69477,2,0,B|336:240,1,110,4|0
256,160,70109,2,0,B|368:160,1,110,4|0
256,160,70740,2,4,B|336:80,1,110
256,208,71372,12,0,74530
