osu file format v13

[General]
AudioFilename: THE IDOLM@STER - Town.mp3
AudioLeadIn: 1500
PreviewTime: 11335
Countdown: 0
SampleSet: Soft
StackLeniency: 0.7
Mode: 0
LetterboxInBreaks: 0
WidescreenStoryboard: 0

[Editor]
Bookmarks: 1735,11335,16135,25735,35335,40135
DistanceSpacing: 1.2
BeatDivisor: 4
GridSize: 4
TimelineZoom: 2.899999

[Metadata]
Title:Town
TitleUnicode:Town
Artist:NBGI
ArtistUnicode:NBGI
Creator:CodeS
Version:Te-Te-Te
Source:THE iDOLM@STER
Tags:project_railgun idolmaster im@s 765pro BEST OF 765+876=!! BGM Collection
BeatmapID:438437
BeatmapSetID:182948

[Difficulty]
HPDrainRate:6
CircleSize:4
OverallDifficulty:6
ApproachRate:7
SliderMultiplier:0.949999999999999
SliderTickRate:1

[Events]
//Background and Video events
0,0,"bg.jpg",0,0
//Break Periods
//Storyboard Layer 0 (Background)
//Storyboard Layer 1 (Fail)
//Storyboard Layer 2 (Pass)
//Storyboard Layer 3 (Foreground)
//Storyboard Sound Samples
//Background Colour Transformations
3,100,163,162,255

[TimingPoints]
535,300,4,2,0,45,1,0
6535,-100,4,2,0,55,0,0
7135,-100,4,2,0,57,0,0
7435,-100,4,2,0,45,0,0
7585,-100,4,2,0,57,0,0
11335,-76.9230769230769,4,2,0,60,0,1
20935,-76.9230769230769,4,2,0,55,0,0
25735,-100,4,2,0,55,0,0
30535,-100,4,2,0,57,0,0
31435,-100,4,2,0,45,0,0
31585,-76.9230769230769,4,2,0,60,0,0
35335,-76.9230769230769,4,2,0,60,0,1
44935,-76.9230769230769,4,2,0,60,0,0
49735,-100,4,2,0,50,0,0
50335,-100,4,2,0,45,0,0
50935,-100,4,2,0,40,0,0
51535,-100,4,2,0,35,0,0
52135,-100,4,2,0,30,0,0
52735,-100,4,2,0,25,0,0
53335,-100,4,2,0,20,0,0
53935,-100,4,2,0,15,0,0
54535,-100,4,2,0,10,0,0

[Colours]
Combo1 : 91,172,210
Combo2 : 210,96,139
Combo3 : 238,164,64
Combo4 : 228,232,83
Combo5 : 147,217,70

[HitObjects]
40,112,535,6,0,B|85:107|142:152,1,94.9999999999999,0|0,1:0|1:0,0:0:0:0:
200,220,1134,1,0,1:0:0:0:
200,220,1285,1,0,1:0:0:0:
200,220,1435,1,0,1:0:0:0:
200,220,1585,1,0,1:0:0:0:
200,220,1735,6,0,B|246:237|294:221,1,94.9999999999999,4|0,0:0|0:0,2:0:0:0:
384,200,2335,2,0,B|432:188|452:128,1,94.9999999999999,0|0,1:0|0:0,2:0:0:0:
448,92,2785,1,0,0:0:0:0:
364,44,3085,5,0,0:0:0:0:
328,44,3235,2,0,B|300:48|300:48|268:40|268:40|228:44,1,94.9999999999999,0|0,0:0|1:0,0:0:0:0:
152,84,3835,1,0,0:0:0:0:
152,84,3985,1,0,0:0:0:0:
152,84,4135,5,2,0:0:0:0:
248,200,4585,1,2,0:0:0:0:
92,224,5035,1,2,0:0:0:0:
176,160,5335,1,2,0:0:0:0:
288,296,5785,1,2,0:0:0:0:
420,184,6235,1,2,0:0:0:0:
368,264,6535,6,0,B|304:348|192:304,1,190,2|0,0:0|1:0,0:0:0:0:
120,244,7435,1,0,1:0:0:0:
120,244,7585,1,0,1:0:0:0:
100,132,7885,5,2,0:0:0:0:
112,92,8035,1,2,0:0:0:0:
140,60,8185,1,2,0:0:0:0:
180,40,8335,2,0,B|228:24|277:39,1,95,2|2,2:0|2:0,0:0:0:0:
312,56,8785,1,2,0:0:0:0:
348,80,8935,2,0,B|396:104|440:80,1,95,0|0,1:0|0:0,0:0:0:0:
312,56,9535,5,0,1:0:0:0:
224,84,9835,1,0,0:0:0:0:
224,84,9985,1,0,0:0:0:0:
188,172,10285,5,0,0:0:0:0:
188,172,10435,1,6,0:0:0:0:
188,172,10585,1,6,0:0:0:0:
48,200,10885,2,0,L|-14:194,2,47.5,6|6|6,0:0|0:0|0:0,0:0:0:0:
48,200,11335,6,0,P|56:270|93:318,1,123.499994346619,6|2,2:0|2:0,0:0:0:0:
208,300,11935,2,0,B|268:328|336:304,1,123.499994346619,2|8,1:0|0:0,3:0:0:0:
372,284,12385,1,2,0:0:0:0:
292,188,12685,1,2,0:0:0:0:
388,112,12985,1,2,0:0:0:0:
388,112,13135,2,0,B|444:84|508:112,1,123.499994346619,2|8,1:0|0:0,0:0:0:0:
448,216,13735,5,2,0:0:0:0:
380,320,14035,1,2,0:0:0:0:
284,236,14335,2,0,B|220:208|156:236,1,123.499994346619,2|8,1:0|0:0,0:0:0:0:
120,252,14785,1,2,0:0:0:0:
36,164,15085,1,2,0:0:0:0:
132,88,15385,1,2,0:0:0:0:
132,88,15535,2,0,B|196:112|252:64,1,123.499994346619,2|8,1:0|0:0,0:0:0:0:
360,164,16135,6,0,B|300:136|228:168,1,123.499994346619,4|8,0:0|0:0,0:0:0:0:
120,188,16735,2,0,B|48:288,1,123.499994346619,2|8,1:0|0:0,0:0:0:0:
72,332,17185,1,2,0:0:0:0:
184,284,17485,1,2,0:0:0:0:
296,332,17785,1,2,0:0:0:0:
296,332,17935,2,0,B|360:344|420:312,1,123.499994346619,2|8,1:0|0:0,0:0:0:0:
472,204,18535,6,0,B|412:184|333:214,1,123.499994346619,6|8,0:0|0:0,0:0:0:0:
248,276,19135,2,0,B|184:275|124:216,1,123.499994346619,2|8,1:0|0:0,0:0:0:0:
104,192,19585,1,2,0:0:0:0:
192,108,19885,1,2,0:0:0:0:
292,180,20185,1,2,0:0:0:0:
340,196,20335,2,0,B|408:204|448:148,1,123.499994346619,2|8,1:0|0:0,0:0:0:0:
348,72,20935,5,6,0:0:0:0:
244,140,21235,1,0,0:0:0:0:
244,140,21535,2,0,B|178:160|175:239,1,123.499994346619,0|0,1:0|0:0,0:0:0:0:
180,284,21985,1,2,0:0:0:0:
284,352,22285,1,2,0:0:0:0:
400,308,22585,1,2,0:0:0:0:
440,280,22735,2,0,P|477:225|473:151,1,123.499994346619,0|0,1:0|0:0,0:0:0:0:
468,120,23185,1,0,0:0:0:0:
428,88,23335,6,0,P|368:60|296:64,1,123.499994346619,6|0,0:0|0:0,0:0:0:0:
264,72,23785,1,0,0:0:0:0:
220,92,23935,2,0,P|172:138|153:208,1,123.499994346619,6|0,0:0|0:0,0:0:0:0:
140,240,24385,1,0,0:0:0:0:
128,288,24535,2,0,B|101:361|51:380,2,123.499994346619,6|2|0,0:0|0:0|1:0,0:0:0:0:
160,180,25435,1,10,0:0:0:0:
276,200,25735,6,0,B|332:196|356:152,1,95,4|0,0:0|0:0,2:0:0:0:
272,96,26335,2,0,B|216:104|192:144,1,95,0|0,1:0|0:0,2:0:0:0:
160,180,26785,1,0,0:0:0:0:
132,280,27085,5,0,0:0:0:0:
168,308,27235,2,0,B|208:336|208:336|248:308,1,95,0|0,0:0|1:0,0:0:0:0:
312,228,27835,1,0,0:0:0:0:
312,228,27985,1,0,0:0:0:0:
312,228,28135,5,2,0:0:0:0:
316,56,28585,1,2,0:0:0:0:
164,136,29035,1,2,0:0:0:0:
164,136,29335,1,2,0:0:0:0:
164,280,29785,1,2,0:0:0:0:
52,200,30235,1,2,0:0:0:0:
80,100,30535,6,0,B|144:48|144:48|252:48,1,190,2|0,0:0|1:0,0:0:0:0:
360,112,31435,2,0,L|400:160,1,47.5,0|0,1:0|1:0,0:0:0:0:
412,276,31885,5,2,0:0:0:0:
412,276,32035,1,2,0:0:0:0:
412,276,32185,1,2,0:0:0:0:
411,277,32335,2,0,B|371:331|301:311,1,123.499994346619,2|2,2:0|2:0,0:0:0:0:
251,311,32785,1,2,0:0:0:0:
200,312,32935,2,0,B|130:332|90:278,1,123.499994346619,0|2,1:0|2:0,0:0:0:0:
188,204,33535,6,0,B|220:152|220:152|176:104,1,123.499994346619,0|0,1:0|0:0,0:0:0:0:
140,72,33985,1,2,0:0:0:0:
96,52,34135,2,0,P|58:54|27:87,2,61.7499971733095,0|0|6,0:0|0:0|0:0,0:0:0:0:
140,72,34585,1,6,0:0:0:0:
208,176,34885,5,6,0:0:0:0:
244,212,35035,1,6,0:0:0:0:
292,224,35185,1,6,0:0:0:0:
340,208,35335,6,0,B|404:180|424:120,1,123.499994346619,6|2,2:0|2:0,0:0:0:0:
300,88,35935,2,0,P|227:53|176:61,1,123.499994346619,2|8,1:0|0:0,3:0:0:0:
141,75,36385,1,2,0:0:0:0:
40,148,36685,1,2,0:0:0:0:
100,256,36985,1,2,0:0:0:0:
132,296,37135,2,0,B|180:352|244:340,1,123.499994346619,2|8,1:0|0:0,0:0:0:0:
224,220,37735,6,8,B|252:176|252:176|256:152|256:152|280:110,1,123.499994346619,2|2,0:0|0:0,0:0:0:0:
384,44,38335,2,0,B|424:104|392:164,1,123.499994346619,2|10,1:0|0:0,0:0:0:0:
384,208,38785,1,2,0:0:0:0:
272,256,39085,1,2,0:0:0:0:
208,152,39385,1,2,0:0:0:0:
160,140,39535,2,0,B|92:108|32:152,1,123.499994346619,2|8,1:0|0:0,0:0:0:0:
108,236,40135,5,4,0:0:0:0:
204,312,40435,1,8,0:0:0:0:
300,236,40735,2,0,B|364:200|448:232,1,123.499994346619,2|8,1:0|0:0,0:0:0:0:
468,232,41185,1,2,0:0:0:0:
408,124,41485,1,2,0:0:0:0:
288,88,41785,1,2,0:0:0:0:
288,88,41935,2,0,B|220:64|160:132,1,123.499994346619,2|8,1:0|0:0,0:0:0:0:
112,224,42535,6,0,B|80:280|112:356,1,123.499994346619,6|2,0:0|0:0,0:0:0:0:
216,288,43135,2,0,B|282:271|305:192,1,123.499994346619,2|8,1:0|0:0,0:0:0:0:
312,156,43585,1,2,0:0:0:0:
260,44,43885,1,2,0:0:0:0:
140,68,44185,1,2,0:0:0:0:
140,68,44335,2,0,B|80:82|43:145,1,123.499994346619,2|8,1:0|0:0,0:0:0:0:
40,192,44785,1,0,0:0:0:0:
48,240,44935,6,2,B|82:299|142:313,1,123.499994346619,6|0,0:0|0:0,0:0:0:0:
268,308,45535,2,0,B|322:298|360:232,1,123.499994346619,0|0,1:0|0:0,2:0:0:0:
388,192,45985,1,2,0:0:0:0:
408,68,46285,1,2,0:0:0:0:
284,52,46585,1,2,0:0:0:0:
284,52,46735,2,0,B|220:24|166:58,1,123.499994346619,0|0,1:0|0:0,0:0:0:0:
128,88,47185,1,0,0:0:0:0:
104,132,47335,6,0,B|80:196|128:249,1,123.499994346619,6|0,0:0|0:0,0:0:0:0:
160,284,47785,1,0,0:0:0:0:
204,308,47935,2,0,B|268:328|321:283,1,123.499994346619,6|0,0:0|0:0,0:0:0:0:
352,248,48385,1,0,0:0:0:0:
368,200,48535,2,0,B|388:136|343:82,1,123.499994346619,6|2,0:0|0:0,0:0:0:0:
212,52,49135,1,0,1:0:0:0:
164,164,49435,1,10,0:0:0:0:
256,192,49735,12,0,54535,0:0:0:0:
