osu file format v5

[General]
AudioFilename: NBGI - Seasons of Asia.mp3
AudioLeadIn: 0
PreviewTime: -1
Countdown: 1
SampleSet: Normal
StackLeniency: 0.7
Mode: 0
LetterboxInBreaks: 1
EditorBookmarks: 46686

[Metadata]
Title:Seasons of Asia
Artist:NBGI
Creator:yuching
Version:Hard
Source:
Tags:

[Difficulty]
HPDrainRate:7
CircleSize:6
OverallDifficulty:7
SliderMultiplier:1.4
SliderTickRate:2

[Events]
//Background and Video events
0,0,"taiko_cal_0808_01.jpg"
//Break Periods
2,21480,26780
2,85480,97180
//Storyboard Layer 0 (Background)
//Storyboard Layer 1 (Failing)
//Storyboard Layer 2 (Passing)
//Storyboard Layer 3 (Foreground)
//Storyboard Sound Samples
//Background Colour Transformations
3,100,163,162,255

[TimingPoints]
486,400,4,1,0,100

[HitObjects]
96,64,8486,1,0
224,64,8886,1,2
224,192,9286,1,0
288,192,9486,1,0
416,192,9886,1,0
288,352,10486,1,2
224,352,10686,1,0
160,352,10886,1,0
160,288,11086,1,0
64,160,11486,5,0
256,160,12086,1,2
256,224,12286,1,0
320,224,12486,1,0
352,160,12686,1,2
384,96,12886,1,0
416,160,13086,1,0
416,224,13286,1,0
352,224,13486,1,0
288,224,13686,1,2
224,224,13886,1,0
224,160,14086,2,2,B|256:96,1,70
320,96,14486,2,2,B|352:160,1,70
288,160,14886,1,4
384,128,15286,5,2
384,192,15486,1,0
320,192,15686,1,0
320,256,15886,1,2
192,256,16286,1,0
192,64,16886,1,2
128,64,17086,1,0
128,128,17286,1,0
128,192,17486,1,2
256,192,17886,1,0
416,64,18486,5,2
416,128,18686,1,0
416,192,18886,1,0
352,192,19086,1,2
288,192,19286,1,0
224,192,19486,1,0
160,192,19686,1,0
96,192,19886,1,0
96,256,20086,2,2,B|160:288,1,70
224,288,20486,2,2,B|288:256,1,70
352,224,20886,2,0,B|256:160,2,70
128,96,27686,5,0
256,96,28086,1,2
256,224,28486,2,0,B|256:320,1,70
384,288,29086,1,4
448,160,29686,5,2
320,160,30086,2,0,B|224:160,1,70
256,288,30686,1,4
64,288,31286,5,2
64,160,31686,2,0,B|160:160,1,70
128,32,32286,2,2,B|288:64|448:192,1,350
224,352,34086,1,0
352,352,34486,1,0
352,224,34886,2,0,B|256:224,1,70
352,128,35486,1,2
160,128,36086,5,0
160,256,36486,2,0,B|160:352,1,70
288,320,37086,1,2
384,128,37686,5,0
384,256,38086,2,0,B|288:256,1,70
160,256,38686,2,0,B|96:192|128:64|192:32|224:0,1,280
288,32,39686,1,0
288,160,40086,1,0
160,224,40486,5,0
288,224,40886,1,0
320,352,41286,2,0,B|256:288|256:352,1,70
192,320,41686,1,0
128,320,41886,1,2
160,96,42486,5,0
288,96,42886,2,0,B|288:192,1,70
224,160,43286,1,0
160,160,43486,1,2
160,352,44086,5,2
288,352,44486,2,2,B|384:352,1,70
448,224,45086,2,2,B|320:64|96:160|96:224,1,350
384,64,46886,1,0
384,128,47086,1,0
320,128,47286,2,2,B|224:128,1,70
224,192,47686,1,0
224,256,47886,2,0,B|256:288|288:256,3,70
320,192,48686,5,2
384,192,48886,1,0
384,256,49086,2,0,B|352:288|320:256,1,70
256,224,49486,1,2
256,160,49686,1,0
256,96,49886,2,0,B|160:96,1,70
160,160,50286,5,2
160,224,50486,2,2,B|192:256|224:224,2,70
96,224,51086,2,0,B|64:256|96:288,1,70
160,320,51486,2,2,B|224:352|288:352|352:256,1,210
288,224,52286,5,2
288,160,52486,1,2
224,160,52686,1,2
224,224,52886,1,6
352,160,53286,5,2
352,224,53486,1,2
288,224,53686,2,0,B|192:224,1,70
160,192,54086,2,0,B|128:160|160:128,2,70
224,192,54686,2,2,B|320:192,1,70
352,192,55086,2,0,B|384:160|352:128,2,70
288,128,55686,1,2
224,128,55886,1,2
256,192,56286,12,0,58486
160,128,58886,6,2,B|352:128,1,140
192,192,59686,5,0
256,192,59886,1,0
256,256,60086,2,0,B|224:288|192:256,1,70
128,256,60486,1,0
128,192,60686,1,0
128,128,60886,2,0,B|224:128,1,70
384,64,61686,5,0
320,64,61886,1,0
320,128,62086,2,2,B|288:160|256:128,1,70
256,64,62486,2,2,B|224:64|192:96|192:128|192:128,1,70
384,192,63286,5,0
320,192,63486,2,0,B|224:192,2,70
320,256,64086,2,0,B|268:328|224:256,1,70
224,256,64486,2,0,B|192:224|192:192,1,70
192,128,64886,2,0,B|288:128,2,70
128,128,65486,1,2
128,192,65686,1,2
128,256,65886,1,2
128,320,66086,1,6
256,320,66486,5,2
320,320,66686,1,0
320,256,66886,2,0,B|352:224|384:256,1,70
384,192,67286,1,2
384,128,67486,1,0
192,128,68086,5,2
128,128,68286,1,0
128,192,68486,2,0,B|96:224|128:256,1,70
192,256,68886,1,2
256,256,69086,1,0
448,256,69686,5,2
448,192,69886,1,0
384,192,70086,1,0
384,256,70286,1,2
320,256,70486,2,2,B|320:160,2,70
256,256,71086,1,2
192,256,71286,1,2
176,192,71486,1,2
240,192,71686,1,2
256,128,71886,1,2
256,64,72086,1,2
320,96,72286,1,2
320,160,72486,5,4
192,160,72886,1,4
192,288,73286,2,4,B|224:320|256:288,1,70
320,288,73686,1,4
384,288,73886,1,4
384,96,74486,5,4
416,224,74886,2,4,B|440:187|384:160,1,70
320,160,75286,1,4
256,160,75486,1,4
64,192,76086,5,4
208,192,76486,2,4,B|288:192,1,70
352,192,76886,1,4
416,192,77086,1,4
448,256,77286,1,2
352,352,77686,1,2
256,256,78086,1,2
160,352,78486,1,2
160,224,78886,6,0,B|160:128,2,70
224,224,79486,2,0,B|224:320,2,70
288,224,80086,2,0,B|288:128,1,70
352,160,80486,2,0,B|352:256,4,70
416,192,81686,5,2
352,192,81886,1,2
352,256,82086,5,4
224,256,82486,1,4
96,256,82886,1,4
96,192,83086,1,4
224,112,83486,1,4
224,256,84086,1,4
432,256,84486,5,0
400,320,84686,1,0
320,320,84886,1,0
240,320,85086,1,0
160,320,85286,1,4
64,96,98086,5,0
64,160,98286,1,0
128,160,98486,1,0
192,160,98686,1,0
256,160,98886,2,0,B|256:256,2,70
384,160,99686,6,0,B|384:256,1,70
320,224,100086,2,0,B|320:128,1,70
256,160,100486,2,0,B|256:256,2,70
128,96,101286,5,0
128,160,101486,1,0
128,224,101686,2,0,B|224:224,3,70
272,224,102486,1,0
272,160,102686,1,0
336,96,102886,2,0,B|240:96,3,70
272,96,103686,1,0
336,160,103886,1,0
256,160,104086,1,0
160,160,104486,6,0,B|192:128|224:160,1,70
288,160,104886,2,0,B|288:128|256:96,1,70
192,96,105286,2,0,B|160:128|192:192,3,70
224,224,106086,2,0,B|256:256|288:224,1,70
352,192,106486,2,0,B|320:160|352:128,1,70
288,128,106886,1,0
288,192,107086,1,0
288,256,107286,1,0
288,320,107486,1,2
256,192,107686,12,0,109286
96,64,110886,1,0
96,128,111086,1,0
160,128,111286,2,0,B|192:160|160:192,1,70
192,256,111686,2,0,B|224:288|256:256,2,70
224,192,112286,2,2,B|448:192,1,210
416,128,113086,5,0
352,128,113286,1,0
288,128,113486,2,0,B|256:96|224:128,1,70
192,192,113886,2,2,B|128:256|320:352,1,210
288,256,114686,5,2
256,192,114886,2,2,B|224:224|192:256,1,70
192,320,115286,2,0,B|128:320|96:256,1,70
128,224,115686,2,0,B|160:192|192:224,3,70
256,208,116486,1,0
320,208,116686,1,0
384,208,116886,1,0
384,272,117086,1,0
320,272,117286,1,4
256,64,117686,5,0
320,64,117886,1,0
384,64,118086,2,0,B|384:160,2,70
432,128,118686,2,0,B|452:160|432:208,1,70
384,192,119286,5,0
352,128,119486,1,0
320,192,119686,1,0
288,128,119886,1,0
256,192,120086,2,0,B|192:208|176:160|112:208|112:192,1,140
352,320,120886,5,0
320,256,121086,1,0
288,320,121286,2,0,B|256:256,1,70
256,257,121686,2,0,B|192:352,1,70
160,320,122086,2,0,B|128:288|160:256,3,70
160,192,122886,1,2
224,192,123086,1,2
288,192,123286,1,2
352,192,123486,1,2
352,128,123686,5,4
224,128,124086,1,4
128,224,124486,2,4,B|160:256|192:256,1,70
256,256,124886,1,4
256,256,125086,2,4,B|320:224|416:160|416:64|384:64,1,210
256,64,126086,5,0
192,64,126286,2,0,B|160:128,1,70
112,128,126686,2,0,B|80:194|144:258|272:290,1,210
288,224,127486,1,0
352,224,127686,1,0
352,288,127886,1,0
416,288,128086,2,0,B|416:192,1,70
416,160,128486,2,2,B|256:160,3,140
256,288,130086,6,0,B|192:256|160:288,1,70
128,224,130486,2,0,B|160:192|224:224,1,70
256,224,130886,2,0,B|256:160|192:160,3,70
160,160,131686,2,2,B|132:115|80:128,4,70
288,160,132886,5,0
352,160,133086,1,0
352,224,133286,5,4
224,224,133686,1,4
96,224,134086,1,0
96,288,134286,1,0
224,288,134686,2,4,B|302:289|448:288,1,210
352,80,135686,5,2
304,128,135886,1,2
240,128,136086,1,2
176,128,136286,1,2
128,80,136486,1,6
