osu file format v5

[General]
AudioFilename: NBGI - Seasons of Asia.mp3
AudioLeadIn: 0
PreviewTime: -1
Countdown: 1
SampleSet: Normal
StackLeniency: 0.7
Mode: 0
LetterboxInBreaks: 1

[Metadata]
Title:Seasons of Asia
Artist:NBGI
Creator:yuching
Version:Easy
Source:
Tags:

[Difficulty]
HPDrainRate:2
CircleSize:4
OverallDifficulty:2
SliderMultiplier:0.8
SliderTickRate:2

[Events]
//Background and Video events
0,0,"taiko_cal_0808_01.jpg"
//Break Periods
2,21480,26780
2,85480,97180
//Storyboard Layer 0 (Background)
//Storyboard Layer 1 (Failing)
//Storyboard Layer 2 (Passing)
//Storyboard Layer 3 (Foreground)
//Storyboard Sound Samples
//Background Colour Transformations
3,100,163,162,255

[TimingPoints]
490,400,4,1,0,100

[HitObjects]
96,64,8490,1,0
192,64,9290,1,0
288,64,10090,1,0
288,128,10490,1,0
288,192,10890,1,0
96,64,12090,5,0
160,64,12490,1,0
224,64,12890,1,0
224,128,13290,1,0
288,128,13690,1,0
288,192,14090,2,0,B|288:304,2,80
352,288,15290,5,0
352,224,15690,1,0
352,160,16090,1,0
240,160,16890,5,0
176,160,17290,1,0
176,224,17690,1,0
176,336,18490,5,0
240,336,18890,1,0
240,272,19290,1,0
304,272,19690,1,0
304,208,20090,1,0
304,144,20490,2,0,B|208:144,1,80
224,208,21290,1,4
128,96,27690,5,4
224,96,28490,1,4
224,96,28690,1,4
352,96,29690,5,0
352,160,30090,1,0
352,160,30290,1,0
224,160,31290,5,0
224,224,31690,1,0
224,224,31890,1,0
224,288,32290,2,0,B|288:352|448:288,1,200
416,64,34090,5,0
416,160,34890,1,0
416,160,35090,1,0
224,160,36090,5,0
224,224,36490,1,0
224,224,36690,1,0
352,256,37690,5,0
352,192,38090,1,0
352,192,38290,1,0
352,128,38690,2,0,B|379:1|112:32,1,280
128,128,40490,5,0
128,192,40890,1,0
128,256,41290,1,0
128,256,41490,1,0
256,256,42490,5,0
320,256,42890,1,0
320,256,43090,1,0
320,128,44090,5,0
256,128,44490,1,0
256,128,44690,1,0
192,128,45090,2,0,B|112:208|96:256|224:368,1,280
272,336,46890,6,0,B|272:80,1,240
336,96,48490,6,0,B|336:368,1,240
272,336,50090,6,0,B|128:352|0:160,1,320
256,192,52490,5,0
64,160,53290,6,0,B|144:64|304:64,1,240
336,80,54890,2,0,B|432:192|368:320,1,240
320,64,56490,5,0
288,96,56890,1,0
224,96,57290,1,0
224,160,57690,1,0
288,160,58090,1,0
288,224,58490,1,0
224,224,58890,1,0
352,96,59690,5,0
352,160,60090,1,0
352,160,60290,1,0
352,224,60690,1,0
224,224,61690,1,0
224,224,61890,1,0
224,160,62290,1,0
288,160,62690,1,0
352,224,63290,5,0
320,272,63690,1,0
288,224,64090,1,0
256,272,64490,1,0
224,224,64890,1,0
224,160,65290,2,0,B|336:160,2,80
160,160,66490,5,0
160,224,66890,2,0,B|160:320,1,80
224,304,67690,1,0
288,304,68090,2,0,B|288:192,2,80
352,304,69290,5,0
352,240,69690,1,0
352,176,70090,1,0
352,96,70490,1,0
288,96,70890,1,0
224,96,71290,1,0
224,160,71690,6,0,B|288:160,4,40
224,224,72890,5,0
224,288,73290,1,4
256,288,73490,1,4
320,288,73890,1,0
320,224,74490,5,0
256,224,74890,1,4
224,224,75090,1,4
224,160,75490,1,0
384,64,76090,5,0
304,64,76490,2,0,B|240:96|141:53|80:272,1,320
160,192,78890,6,0,B|256:192,1,80
320,192,79690,2,0,B|416:192,1,80
480,192,80490,2,0,B|480:288,2,80
256,192,81690,12,0,85290
96,96,98090,6,0,B|368:96,1,240
352,160,99690,2,0,B|96:160,1,240
96,224,101290,2,0,B|192:224,3,80
240,224,102890,2,0,B|384:208|432:64,1,240
368,96,104490,2,0,B|261:96|152:75|136:186|112:160,1,240
192,192,106090,2,0,B|288:192,3,80
256,192,107690,12,0,109290
96,96,110890,1,0
96,160,111290,1,0
160,160,111690,1,0
192,160,111890,1,0
192,224,112290,1,0
256,288,112890,5,0
320,288,113290,1,0
320,256,113490,1,0
320,192,113890,1,0
256,128,114490,5,0
256,192,114890,1,0
224,192,115090,1,0
192,192,115290,1,0
128,208,115690,2,0,B|128:304,3,80
192,288,117290,5,4
304,288,118090,1,4
384,192,118890,1,4
320,96,119690,1,4
240,192,120490,1,4
176,80,121290,5,4
176,144,121690,1,4
240,144,122090,1,4
288,192,122490,1,4
288,256,122890,2,4,B|384:256,2,80
224,256,124090,5,0
224,192,124490,2,0,B|224:96,2,80
288,192,125690,1,0
352,192,126090,2,0,B|352:288,1,80
288,272,126890,2,0,B|212:277|101:307|128:144,1,240
192,128,128490,5,2
304,128,129290,1,2
352,192,130090,6,0,B|320:256|288:288,4,80
288,192,132090,1,2
224,192,132490,1,2
256,96,133290,1,2
256,192,134090,1,4
256,192,134290,1,4
256,256,134690,1,4
256,192,135690,12,0,136490
