osu file format v12

[General]
AudioFilename: takaramono.mp3
AudioLeadIn: 0
PreviewTime: 67453
Countdown: 0
SampleSet: Soft
StackLeniency: 0.2
Mode: 0
LetterboxInBreaks: 1
WidescreenStoryboard: 0

[Editor]
Bookmarks: 67453,131203,198703
DistanceSpacing: 1.55
BeatDivisor: 4
GridSize: 4

[Metadata]
Title:Takaramono ~kono koe ga nakunaru made~
TitleUnicode:
Artist:NAOTO INTI RAYMI
ArtistUnicode:
Creator:Yukoyuko
Version:Insane
Source:
Tags:
BeatmapID:159013
BeatmapSetID:51948

[Difficulty]
HPDrainRate:6
CircleSize:4
OverallDifficulty:6
ApproachRate:8
SliderMultiplier:1.4
SliderTickRate:1

[Events]
//Background and Video events
0,0,"bg.png",0,0
//Break Periods
2,86988,99163
//Storyboard Layer 0 (Background)
//Storyboard Layer 1 (Fail)
//Storyboard Layer 2 (Pass)
//Storyboard Layer 3 (Foreground)
//Storyboard Sound Samples
//Background Colour Transformations
3,100,255,255,255

[TimingPoints]
15538.9468767025,468.75,4,2,0,100,1,0
22570,-100,4,2,0,80,0,0
66163,-90.9090909090909,4,2,0,80,0,0
68035,-71.4285714285714,4,2,0,80,0,1
75070,-71.4285714285714,4,2,0,80,0,0
75538,-71.4285714285714,4,2,0,80,0,1
86788,-100,4,2,0,80,0,0
101788,-125,4,2,0,80,0,0
116554,-100,4,2,0,80,0,0
131320,-71.4285714285714,4,2,0,80,0,0
131788,-71.4285714285714,4,2,0,80,0,1
138820,-71.4285714285714,4,2,0,80,0,0
139288,-71.4285714285714,4,2,0,80,0,1
148429,-100,4,2,0,80,0,1
150538,-100,4,2,0,80,0,0
165538,-100,4,2,0,80,0,1
183820,-166.666666666667,4,2,0,80,0,0
197882,-125,4,2,0,80,0,0
198351,-100,4,2,0,80,0,0
198820,-83.3333333333333,4,2,0,80,0,0
199288,-71.4285714285714,4,2,0,80,0,1
206320,-71.4285714285714,4,2,0,80,0,0
206788,-71.4285714285714,4,2,0,80,0,1
217570,-71.4285714285714,4,2,0,80,0,0
218038,-71.4285714285714,4,2,0,80,0,1
225070,-71.4285714285714,4,2,0,80,0,0
225538,-71.4285714285714,4,2,0,80,0,1
232570,-83.3333333333333,4,2,0,80,0,0
236788,-71.4285714285714,4,2,0,80,0,0

[Colours]
Combo1 : 145,9,87
Combo2 : 29,29,250
Combo3 : 12,180,209
Combo4 : 45,236,54
Combo5 : 233,218,33
Combo6 : 237,88,24
Combo7 : 235,86,205

[HitObjects]
196,186,22570,2,0,B|220:143|292:143|320:192,1,140
256,272,23273,1,0,0:0:0:0:
196,184,23507,2,0,B|164:220,1,35
256,272,23859,1,0,0:0:0:0:
316,184,24093,2,0,B|348:220,1,35
196,186,24445,2,0,B|220:143|292:143|320:192,1,140
408,268,25148,5,0,0:0:0:0:
304,252,25382,2,0,B|320:220,1,35
208,240,25734,1,0,0:0:0:0:
112,228,25968,2,0,B|96:260,1,35
128,128,26320,2,0,B|212:136|260:72,1,140
352,124,27023,5,0,0:0:0:0:
444,172,27257,1,0,0:0:0:0:
356,228,27492,1,0,0:0:0:0:
260,180,27726,1,0,0:0:0:0:
260,284,27960,1,0,0:0:0:0:
168,236,28195,1,0,0:0:0:0:
96,308,28429,2,0,B|43:241|86:167,1,140
148,104,29132,1,0,0:0:0:0:
364,104,29601,1,0,0:0:0:0:
256,288,30070,1,0,0:0:0:0:
432,192,30538,5,0,0:0:0:0:
344,256,30773,2,0,B|344:292,2,35
256,192,31242,2,0,B|256:157,1,35
168,256,31593,2,0,B|168:292,1,35
80,192,31945,1,0,0:0:0:0:
168,60,32413,5,0,0:0:0:0:
260,112,32648,2,0,B|308:92,2,35
168,164,33117,2,0,B|168:200,1,35
260,216,33468,2,0,B|284:252,1,35
356,168,33820,1,0,0:0:0:0:
448,220,34054,1,0,0:0:0:0:
356,284,34288,6,0,B|296:324|220:308,1,140
184,212,34992,1,0,0:0:0:0:
108,288,35226,2,0,B|56:240|56:156,1,140
108,68,35929,1,0,0:0:0:0:
216,72,36163,5,0,0:0:0:0:
316,108,36398,2,0,B|352:108|384:96,1,70
236,172,36867,2,0,B|200:188|156:184,1,70
336,208,37335,1,0,0:0:0:0:
256,284,37570,2,0,B|308:337|388:308,1,140
432,208,38273,5,0,0:0:0:0:
332,176,38507,1,0,0:0:0:0:
304,72,38742,2,0,B|264:92,1,35
220,180,39093,2,0,B|180:160,1,35
116,80,39445,2,0,B|84:104|76:144,1,70
60,244,39913,5,0,0:0:0:0:
156,292,40148,2,0,B|156:252|180:220,1,70
268,284,40617,2,0,B|316:288,1,35
332,172,40968,2,0,B|364:196,1,35
412,296,41320,1,0,0:0:0:0:
472,204,41554,2,0,B|468:164|440:132,1,70
298,78,42257,5,0,0:0:0:0:
220,193,42492,1,0,0:0:0:0:
212,56,42726,1,0,0:0:0:0:
302,168,42960,1,0,0:0:0:0:
158,129,43195,1,0,0:0:0:0:
68,212,43429,1,0,0:0:0:0:
120,316,43663,6,0,B|152:328|200:320,1,70
220,216,44132,2,0,B|256:224|284:252,1,70
364,320,44601,2,0,B|408:308|424:272,1,70
404,172,45070,2,0,B|328:164|296:92,1,140
404,56,45773,5,0,0:0:0:0:
296,93,46007,1,0,0:0:0:0:
188,68,46242,2,0,B|176:100,1,35
64,108,46593,2,0,B|76:76,1,35
132,184,46945,2,0,B|145:258|204:303,1,140
312,300,47648,6,0,B|324:332,2,35
400,235,48117,2,0,B|416:204,1,35
319,156,48468,2,0,B|304:188,2,35
300,132,48820,2,0,B|224:148|160:112,1,140
88,296,49757,6,0,B|120:288|156:296,1,70
268,100,50460,1,0,0:0:0:0:
368,100,50695,2,0,B|400:108|436:100,1,70,0|0,0:0|0:0,0:0:0:0:
256,192,51163,12,0,52570,0:0:0:0:
104,108,53038,5,0,0:0:0:0:
176,188,53273,2,0,B|184:240,2,35
208,84,53742,1,0,0:0:0:0:
280,164,53976,2,0,B|312:139|319:98,1,70
424,88,54445,1,0,0:0:0:0:
456,200,54679,1,0,0:0:0:0:
368,292,54913,6,0,B|296:316|228:296,1,140
256,192,55617,1,0,0:0:0:0:
280,88,55851,2,0,B|214:68|142:92,1,140
84,192,56554,1,0,0:0:0:0:
136,288,56788,5,0,0:0:0:0:
176,188,57023,2,0,B|168:152,2,35
248,272,57492,1,0,0:0:0:0:
284,168,57726,2,0,B|296:132|328:116,1,70
436,136,58195,2,0,B|424:172|392:188,1,70
328,280,58663,6,0,B|256:252|192:276,1,140
256,192,59367,1,0,0:0:0:0:
320,107,59601,2,0,B|256:132|184:104,1,140
183,103,60304,1,0,0:0:0:0:
112,192,60538,5,0,0:0:0:0:
200,256,60773,2,0,B|204:296,2,35
272,172,61242,1,0,0:0:0:0:
308,68,61476,2,0,B|348:88|364:116,1,70
464,148,61945,2,0,B|448:188|408:200,1,70
420,232,62296,1,0,0:0:0:0:
420,264,62413,6,0,B|364:300|284:292,1,140
328,188,63117,1,0,0:0:0:0:
233,128,63351,2,0,B|216:156|220:196,1,70
120,120,63820,1,0,0:0:0:0:
64,212,64054,1,0,0:0:0:0:
160,260,64288,6,0,B|200:256|228:232,1,70
324,288,64757,2,0,B|320:248|296:220,1,70
352,124,65226,2,0,B|312:128|284:152,1,70
188,96,65695,2,0,B|192:136|216:164,1,70
128,244,66163,6,0,B|204:276|284:248,1,153.999995410442
204,156,66867,1,0,0:0:0:0:
304,112,67101,1,0,0:0:0:0:
304,220,67335,1,0,0:0:0:0:
416,72,67570,1,0,0:0:0:0:
444,248,67804,1,0,0:0:0:0:
308,304,68038,6,0,B|252:304|204:272,1,97.999997663498,0|0,0:0|0:0,0:0:0:0:
68,272,68507,1,0,0:0:0:0:
104,84,68742,1,0,0:0:0:0:
148,188,68976,2,0,B|196:200|252:184,1,97.999997663498
312,48,69445,1,0,0:0:0:0:
424,220,69679,1,0,0:0:0:0:
260,296,69913,6,0,B|232:256|232:204,1,97.999997663498
384,56,70382,1,0,0:0:0:0:
332,200,70617,1,0,0:0:0:0:
200,120,70851,2,0,B|200:168|160:212,1,97.999997663498
96,64,71320,1,0,0:0:0:0:
68,284,71554,1,0,0:0:0:0:
208,256,71788,6,0,B|256:268|308:256,1,97.999997663498
208,48,72257,2,0,B|192:100|208:156,1,97.999997663498,0|0,0:0|0:0,0:0:0:0:
440,116,72726,2,0,B|392:100|336:116,1,97.999997663498
388,220,73195,1,0,0:0:0:0:
256,276,73429,6,0,B|256:336,2,48.999998831749,0|0|0,0:0|0:0|0:0,0:0:0:0:
144,192,73898,1,0,0:0:0:0:
256,108,74132,1,0,0:0:0:0:
368,192,74367,1,0,0:0:0:0:
256,276,74601,2,0,B|148:304|60:276,1,195.999995326996
62,276,75304,1,0,0:0:0:0:
120,112,75538,6,0,B|168:128|216:112,1,97.999997663498
344,56,76007,2,0,B|360:108|348:152,1,97.999997663498
308,264,76476,1,0,0:0:0:0:
244,168,76710,1,0,0:0:0:0:
188,300,76945,1,0,0:0:0:0:
124,80,77179,1,0,0:0:0:0:
64,260,77413,6,0,B|120:264|160:236,1,97.999997663498
256,288,77882,1,0,0:0:0:0:
316,48,78117,1,0,0:0:0:0:
424,68,78351,2,0,B|400:112|400:164,1,97.999997663498
432,288,78820,2,0,B|393:318|337:318,1,97.999997663498
92,296,79288,6,0,B|136:316|192:316,1,97.999997663498
156,204,79757,1,0,0:0:0:0:
380,128,79992,1,0,0:0:0:0:
452,220,80226,2,0,B|408:240|352:240,1,97.999997663498
280,312,80695,1,0,0:0:0:0:
172,44,80929,1,0,0:0:0:0:
96,148,81163,6,0,B|204:160|288:112,1,195.999995326996
408,104,81867,1,0,0:0:0:0:
408,224,82101,2,0,B|344:304|240:328,1,195.999995326996
245,326,82804,1,0,0:0:0:0:
112,260,83038,5,0,0:0:0:0:
140,56,83507,2,0,B|144:108|188:144,1,97.999997663498
260,52,83976,1,0,0:0:0:0:
432,224,84445,2,0,B|420:276|368:304,1,97.999997663498
256,192,84913,12,0,86788,0:0:0:0:
256,192,99913,12,0,101320,0:0:0:0:
120,104,101788,5,0,0:0:0:0:
144,188,102023,1,0,0:0:0:0:
208,128,102257,2,0,B|244:104,1,28
308,68,102609,2,0,B|332:116|304:160,1,84
248,212,103195,2,0,B|268:232|296:236,1,56
376,204,103663,5,0,0:0:0:0:
368,292,103898,1,0,0:0:0:0:
297,236,104132,1,0,0:0:0:0:
280,320,104367,2,0,B|304:352,2,28
212,264,104835,1,0,0:0:0:0:
140,312,105070,2,0,B|120:284|124:240,1,56
160,100,105773,5,0,0:0:0:0:
196,180,106007,1,0,0:0:0:0:
244,108,106242,1,0,0:0:0:0:
280,188,106476,1,0,0:0:0:0:
328,116,106710,1,0,0:0:0:0:
364,196,106945,1,0,0:0:0:0:
412,124,107179,2,0,B|440:148|456:184|444:224,1,112
372,288,107882,5,0,0:0:0:0:
336,288,108351,1,0,0:0:0:0:
300,288,108820,1,0,0:0:0:0:
264,288,109288,5,0,0:0:0:0:
180,312,109523,1,0,0:0:0:0:
204,228,109757,1,0,0:0:0:0:
120,248,109992,2,0,B|116:208,1,28
40,184,110343,2,0,B|36:144,1,28
112,116,110695,1,0,0:0:0:0:
256,108,111163,5,0,0:0:0:0:
344,108,111398,2,0,B|352:76,2,28
300,180,111867,2,0,B|292:212,2,28
388,180,112335,1,0,0:0:0:0:
432,108,112570,1,0,0:0:0:0:
476,180,112804,1,0,0:0:0:0:
428,256,113038,6,0,B|416:284|388:296,1,56,0|0,0:0|0:0,0:0:0:0:
344,220,113507,1,0,0:0:0:0:
304,296,113742,2,0,B|276:288|260:256,1,56
264,172,114210,1,0,0:0:0:0:
188,216,114445,2,0,B|160:272|204:324,1,112
388,292,116554,5,0,0:0:0:0:
280,292,116788,2,0,B|244:308|212:292,1,70
172,196,117257,2,0,B|208:180|244:196,1,70
336,196,117726,1,0,0:0:0:0:
440,192,117960,2,0,B|436:156|412:124,1,70
304,72,118429,1,0,0:0:0:0:
184,72,118663,6,0,B|208:144|180:216,1,140
212,312,119367,1,0,0:0:0:0:
328,312,119601,2,0,B|304:240|332:168,1,140
428,124,120304,1,0,0:0:0:0:
408,100,120421,1,0,0:0:0:0:
376,88,120538,5,0,0:0:0:0:
276,128,120773,2,0,B|276:163,1,35
176,88,121124,2,0,B|176:53,1,35
72,124,121476,1,0,0:0:0:0:
80,224,121710,2,0,B|116:212|152:224,1,70
252,232,122179,1,0,0:0:0:0:
184,316,122413,6,0,B|252:344|324:316,1,140
252,232,123117,1,0,0:0:0:0:
183,142,123351,2,0,B|252:116|320:144,1,140
319,143,124054,1,0,0:0:0:0:
384,272,124288,5,0,0:0:0:0:
280,244,124523,2,0,B|256:276,2,35
244,140,124992,1,0,0:0:0:0:
136,140,125226,2,0,B|136:100|164:72,1,70
244,140,125695,2,0,B|244:180|216:208,1,70
188,208,126046,1,0,0:0:0:0:
156,208,126163,6,0,B|131:231|131:271,1,70,0|0,0:0|0:0,0:0:0:0:
232,316,126632,1,0,0:0:0:0:
340,316,126867,1,0,0:0:0:0:
284,224,127101,2,0,B|268:184|284:152,1,70
380,112,127570,2,0,B|396:152|380:184,1,70
256,192,128038,12,0,129913,0:0:0:0:
96,224,130382,5,0,0:0:0:0:
144,128,130617,1,0,0:0:0:0:
192,248,130851,1,0,0:0:0:0:
240,112,131085,1,0,0:0:0:0:
288,272,131320,1,0,0:0:0:0:
336,96,131554,1,0,0:0:0:0:
384,296,131788,6,0,B|372:244|388:192,1,97.999997663498
280,52,132257,2,0,B|292:104|276:156,1,97.999997663498
188,276,132726,2,0,B|136:288|84:272,1,97.999997663498
88,88,133195,2,0,B|140:76|192:92,1,97.999997663498
256,220,133663,6,0,B|304:232|356:220,1,97.999997663498,0|0,0:0|0:0,0:0:0:0:
440,64,134132,1,0,0:0:0:0:
392,296,134367,1,0,0:0:0:0:
292,280,134601,2,0,B|244:292|196:280,1,97.999997663498
136,96,135070,1,0,0:0:0:0:
96,304,135304,1,0,0:0:0:0:
44,204,135538,6,0,B|92:188|144:204,1,97.999997663498
192,304,136007,1,0,0:0:0:0:
448,100,136242,1,0,0:0:0:0:
352,52,136476,2,0,B|336:104|356:152,1,97.999997663498
424,248,136945,1,0,0:0:0:0:
316,248,137179,1,0,0:0:0:0:
284,248,137296,1,0,0:0:0:0:
252,248,137413,5,0,0:0:0:0:
148,68,137648,1,0,0:0:0:0:
64,268,137882,1,0,0:0:0:0:
276,68,138117,1,0,0:0:0:0:
228,164,138351,2,0,B|272:184|332:164,1,97.999997663498
444,304,138820,1,0,0:0:0:0:
148,288,139288,6,0,B|164:236|148:188,1,97.999997663498
56,128,139757,2,0,B|40:180|56:228,1,97.999997663498
148,288,140226,2,0,B|200:304|248:288,1,97.999997663498
452,192,140695,2,0,B|407:177|355:193,1,97.999997663498
408,284,141163,5,0,0:0:0:0:
256,52,141398,2,0,B|236:104|256:152,1,97.999997663498
256,252,141867,1,0,0:0:0:0:
160,284,142101,1,0,0:0:0:0:
76,80,142335,2,0,B|120:100|172:80,1,97.999997663498
428,192,142804,1,0,0:0:0:0:
388,292,143038,5,0,0:0:0:0:
308,56,143273,2,0,B|308:124|260:152,1,97.999997663498
200,68,143742,1,0,0:0:0:0:
88,296,143976,1,0,0:0:0:0:
124,196,144210,2,0,B|172:220|192:272,1,97.999997663498
296,292,144679,1,0,0:0:0:0:
400,292,144913,6,0,B|424:192|400:96,1,195.999995326996
300,136,145617,1,0,0:0:0:0:
204,100,145851,2,0,B|180:200|204:296,1,195.999995326996
203,294,146554,1,0,0:0:0:0:
256,192,146788,12,0,147726,0:0:0:0:
400,96,148429,5,0,0:0:0:0:
400,128,148546,1,0,0:0:0:0:
400,160,148663,1,0,0:0:0:0:
356,260,148898,1,0,0:0:0:0:
324,260,149015,2,0,B|276:272|216:260,1,105
112,264,149601,1,0,0:0:0:0:
160,168,149835,1,0,0:0:0:0:
192,168,149953,2,0,B|240:156|296:168,1,105
364,260,150538,1,0,0:0:0:0:
360,276,152179,6,0,B|400:276,2,35
244,276,152648,2,0,B|220:312,2,35
304,188,153117,2,0,B|328:152,1,35
280,136,153351,2,0,B|288:100,1,35
240,92,153585,2,0,B|240:52,1,35
188,64,153820,2,0,B|180:28,2,35
64,192,154523,5,0,0:0:0:0:
64,224,154640,1,0,0:0:0:0:
64,256,154757,1,0,0:0:0:0:
160,192,154992,1,0,0:0:0:0:
164,224,155109,1,0,0:0:0:0:
180,252,155226,1,0,0:0:0:0:
208,272,155343,1,0,0:0:0:0:
240,284,155460,1,0,0:0:0:0:
312,200,155695,1,0,0:0:0:0:
380,284,155929,1,0,0:0:0:0:
444,196,156163,6,0,B|456:160,1,35
408,148,156398,2,0,B|412:112,1,35
368,100,156632,2,0,B|368:64,1,35
320,68,156867,2,0,B|312:28,1,35
264,48,157101,1,0,0:0:0:0:
156,48,157335,1,0,0:0:0:0:
84,192,157804,5,0,0:0:0:0:
112,192,157921,1,0,0:0:0:0:
144,192,158038,2,0,B|176:208|216:192,1,70
244,192,158390,1,0,0:0:0:0:
428,252,158742,1,0,0:0:0:0:
396,252,158859,1,0,0:0:0:0:
364,252,158976,2,0,B|332:268|292:252,1,70
264,248,159328,2,0,B|232:232|192:248,1,70
156,248,159679,1,0,0:0:0:0:
56,208,159913,5,0,0:0:0:0:
100,104,160148,2,0,B|84:72,1,35
208,152,160499,2,0,B|224:184,1,35
252,40,160851,1,0,0:0:0:0:
368,88,161085,1,0,0:0:0:0:
396,244,161554,5,0,0:0:0:0:
296,304,161788,1,0,0:0:0:0:
196,244,162023,2,0,B|196:209,2,35
96,304,162492,2,0,B|96:268,1,35
96,240,162726,1,0,0:0:0:0:
104,132,162960,1,0,0:0:0:0:
120,100,163078,2,0,B|148:48|208:44,1,105
300,100,163663,5,0,0:0:0:0:
392,248,164015,1,0,0:0:0:0:
220,248,164367,1,0,0:0:0:0:
128,308,164601,2,0,B|104:272|108:236,1,70
88,132,165070,1,0,0:0:0:0:
192,164,165304,1,0,0:0:0:0:
256,76,165538,6,0,B|292:88|328:76,1,70
428,44,166007,2,0,B|416:80|428:116,1,70
468,212,166476,2,0,B|432:228|396:212,1,70
296,188,166945,1,0,0:0:0:0:
332,288,167179,1,0,0:0:0:0:
224,264,167413,6,0,B|188:276|152:264,1,70
60,296,167882,2,0,B|48:260|60:224,1,70
120,136,168351,1,0,0:0:0:0:
164,36,168585,1,0,0:0:0:0:
232,120,168820,1,0,0:0:0:0:
332,76,169054,1,0,0:0:0:0:
420,148,169288,6,0,B|388:168|380:204,1,70
372,236,169640,2,0,B|348:288|292:296,1,105
180,264,170226,2,0,B|123:272|99:324,2,105
244,176,171163,6,0,B|301:168|325:116,2,105
136,180,172101,2,0,B|136:140|160:112,1,70
256,64,172570,1,0,0:0:0:0:
396,296,173038,6,0,B|320:312|256:296,1,140
148,308,173742,1,0,0:0:0:0:
108,208,173976,2,0,B|136:176|132:136,1,70
208,64,174445,1,0,0:0:0:0:
88,280,174913,6,0,B|148:316|224:304,1,140
332,304,175617,1,0,0:0:0:0:
392,212,175851,2,0,B|424:232|440:272,1,70
332,304,176320,2,0,B|300:284|284:244,1,70
180,252,176788,6,0,B|112:208|120:120,1,140
228,160,177492,1,0,0:0:0:0:
272,60,177726,1,0,0:0:0:0:
336,148,177960,1,0,0:0:0:0:
436,108,178195,1,0,0:0:0:0:
424,216,178429,1,0,0:0:0:0:
256,192,178663,12,0,180070,0:0:0:0:
256,192,180538,12,0,182413,0:0:0:0:
120,112,183820,6,0,B|168:112,1,42.0000010013581
200,136,184288,2,0,B|244:140|284:120,1,84.0000020027161
360,76,185226,2,0,B|388:112|432:120,1,84.0000020027161
432,216,186163,2,0,B|372:288|280:284,1,168.000004005432
112,280,188038,6,0,B|80:216|108:152,1,126.000003004074
124,120,188976,2,0,B|168:120|200:80,1,84.0000020027161
196,83,189679,1,0,0:0:0:0:
240,72,189913,6,0,B|264:112,1,42.0000010013581
304,116,190382,2,0,B|336:164,1,42.0000010013581
372,152,190851,2,0,B|400:192|436:208,1,84.0000020027161
444,252,191554,1,0,0:0:0:0:
432,296,191788,6,0,B|392:316|348:296,1,84.0000020027161
264,312,192726,2,0,B|216:304|196:264,1,84.0000020027161
116,224,193663,1,0,0:0:0:0:
256,64,194132,2,0,B|268:112|312:136,1,84.0000020027161
396,184,195070,1,0,0:0:0:0:
416,276,195538,6,0,B|352:300|292:280,1,126.000003004074
248,280,196476,2,0,B|192:280,1,42.0000010013581
176,248,196945,2,0,B|132:232,1,42.0000010013581
96,220,197413,6,0,B|76:212|64:180,1,42.0000010013581
124,168,197882,2,0,B|108:140|120:108,1,56
192,124,198351,2,0,B|200:88|236:68,1,70
304,120,198820,2,0,B|340:96|384:96,1,84.0000020027161
392,276,199288,6,0,B|344:288|292:276,1,97.999997663498
176,196,199757,2,0,B|192:252|176:300,1,97.999997663498
80,236,200226,2,0,B|60:184|76:136,1,97.999997663498
404,72,200695,2,0,B|424:120|404:172,1,97.999997663498
196,276,201163,6,0,B|240:292|296:276,1,97.999997663498
388,312,201632,1,0,0:0:0:0:
424,64,201867,1,0,0:0:0:0:
432,156,202101,2,0,B|380:172|336:156,1,97.999997663498
268,224,202570,2,0,B|220:212|172:224,1,97.999997663498
76,296,203038,6,0,B|92:248|76:200,1,97.999997663498
420,56,203507,2,0,B|392:100|336:104,1,97.999997663498
192,112,203976,2,0,B|195:165|239:193,1,97.999997663498
368,264,204445,2,0,B|340:308|284:312,1,97.999997663498
108,276,204913,5,0,0:0:0:0:
192,112,205148,1,0,0:0:0:0:
204,212,205382,1,0,0:0:0:0:
392,76,205617,1,0,0:0:0:0:
288,108,205851,2,0,B|300:156|356:180,1,97.999997663498
416,272,206320,1,0,0:0:0:0:
120,76,206554,1,0,0:0:0:0:
72,172,206788,6,0,B|120:192|172:172,1,97.999997663498
392,76,207257,2,0,B|416:128|396:176,1,97.999997663498
444,284,207726,2,0,B|392:260|344:284,1,97.999997663498
104,176,208195,2,0,B|88:224|108:276,1,97.999997663498
200,332,208663,6,0,B|216:284|197:235,1,97.999997663498
256,48,209132,2,0,B|240:96|258:144,1,97.999997663498
312,229,209601,2,0,B|264:244|216:228,1,97.999997663498
404,188,210070,2,0,B|424:236|401:284,1,97.999997663498
92,208,210538,6,0,B|140:192|192:208,1,97.999997663498
144,300,211007,1,0,0:0:0:0:
304,88,211242,1,0,0:0:0:0:
256,192,211476,2,0,B|304:212|355:193,1,97.999997663498
448,140,211945,2,0,B|476:192|452:240,1,97.999997663498
352,292,212413,6,0,B|256:256|160:292,1,195.999995326996
256,192,213117,1,0,0:0:0:0:
348,92,213351,2,0,B|252:128|156:92,1,195.999995326996
156,92,214054,1,0,0:0:0:0:
256,192,214288,12,0,215226,0:0:0:0:
112,276,215929,5,0,0:0:0:0:
144,276,216046,1,0,0:0:0:0:
176,276,216163,1,0,0:0:0:0:
280,272,216398,1,0,0:0:0:0:
300,244,216515,2,0,B|336:180|424:172,1,146.999996495247
344,56,217101,2,0,B|308:128|216:132,1,146.999996495247
196,136,217570,2,0,B|144:144|120:192,1,97.999997663498
72,284,218038,6,0,B|120:304|172:284,1,97.999997663498
436,84,218507,2,0,B|388:68|340:84,1,97.999997663498
388,180,218976,1,0,0:0:0:0:
120,72,219210,1,0,0:0:0:0:
80,168,219445,2,0,B|56:216|80:264,1,97.999997663498
256,96,219913,6,0,B|276:148|256:192,1,97.999997663498
352,192,220382,2,0,B|300:212|256:192,1,97.999997663498,0|0,0:0|0:0,0:0:0:0:
256,288,220851,2,0,B|236:236|256:192,1,97.999997663498,0|0,0:0|0:0,0:0:0:0:
160,192,221320,2,0,B|212:172|256:192,1,97.999997663498,0|0,0:0|0:0,0:0:0:0:
256,192,221788,12,0,224601,0:0:0:0:
104,284,225070,5,0,0:0:0:0:
160,92,225304,1,0,0:0:0:0:
116,184,225538,2,0,B|164:204|212:184,1,97.999997663498
328,64,226007,1,0,0:0:0:0:
424,272,226242,1,0,0:0:0:0:
320,276,226476,2,0,B|272:292|224:276,1,97.999997663498
160,92,226945,1,0,0:0:0:0:
92,272,227179,1,0,0:0:0:0:
204,192,227413,6,0,B|158:184|130:132,1,97.999997663498
256,140,227882,2,0,B|263:94|315:66,1,97.999997663498
308,192,228351,2,0,B|353:199|381:251,1,97.999997663498
256,244,228820,2,0,B|248:289|196:317,1,97.999997663498
256,192,229288,12,0,232101,0:0:0:0:
256,192,232570,5,0,0:0:0:0:
224,279,233038,2,0,B|118:227|127:82|261:28|386:94|388:231|284:278,1,504.000012016297
424,272,234679,5,0,0:0:0:0:
424,240,234796,1,0,0:0:0:0:
424,208,234913,2,0,B|420:160|368:132,1,84.0000020027161
356,120,235265,1,0,0:0:0:0:
248,88,235617,2,0,B|216:120|168:120,1,84.0000020027161
112,196,236085,1,0,0:0:0:0:
116,232,236203,2,0,B|144:304|224:308,1,126.000003004074
336,308,236788,1,0,0:0:0:0:
