osu file format v9

[General]
AudioFilename: DYNAMITE RAVE (super euro vers - NAOKI with Y&Co..mp3
AudioLeadIn: 1500
PreviewTime: 26811
Countdown: 1
SampleSet: Soft
StackLeniency: 0.7
Mode: 1
LetterboxInBreaks: 1
SkinPreference:taiko

[Editor]
Bookmarks: 1211,12411,14011,30011,39611,41281,53972,73211
DistanceSpacing: 1.5
BeatDivisor: 4
GridSize: 8

[Metadata]
Title:DYNAMITE RAVE (super euro version)
Artist:NAOKI with Y&Co.
Creator:kazenotama
Version:Taiko Oni
Source:DDR
Tags:Dance Dance Revolution

[Difficulty]
HPDrainRate:5
CircleSize:4
OverallDifficulty:5
ApproachRate:5
SliderMultiplier:1.5
SliderTickRate:1

[Events]
//Background and Video events
0,0,"BG1.jpg"
//Break Periods
2,68881,72011
//Storyboard Layer 0 (Background)
//Storyboard Layer 1 (Fail)
//Storyboard Layer 2 (Pass)
//Storyboard Layer 3 (Foreground)
//Storyboard Sound Samples
//Background Colour Transformations
3,100,163,162,255

[TimingPoints]
1211,400,4,2,0,70,1,0
1311,-100,4,2,0,70,0,0
4111,-89.2857142857143,4,2,0,70,0,0
5711,-80.6451612903226,4,2,0,70,0,0
7311,-73.5294117647059,4,2,0,70,0,0
8911,-67.5675675675676,4,2,0,70,0,0
10511,-62.5,4,2,0,70,0,0
12411,-133.333333333333,4,2,0,40,0,0
14011,200,4,2,0,100,1,1
14211,400,4,2,0,80,1,1
15611,200,4,2,0,100,1,1
15811,400,4,2,0,80,1,1
17211,200,4,2,0,100,1,1
17411,400,4,2,0,80,1,1
18811,200,4,2,0,100,1,1
19011,400,4,2,0,80,1,1
19611,200,4,2,0,100,1,1
20011,400,4,2,0,70,1,1
20411,200,4,2,0,100,1,1
20611,400,4,2,0,80,1,1
22011,200,4,2,0,100,1,1
22211,400,4,2,0,80,1,1
23611,200,4,2,0,100,1,1
23811,400,4,2,0,80,1,1
25211,200,4,2,0,100,1,1
25411,400,4,2,0,80,1,1
26011,200,4,2,0,100,1,1
26411,400,4,2,0,80,1,1
30011,-100,4,2,0,70,0,0
31311,-89.2857142857143,4,2,0,70,0,0
32911,-80.6451612903226,4,2,0,70,0,0
34711,-73.5294117647059,4,2,0,70,0,0
36311,-67.5675675675676,4,2,0,70,0,0
37911,-62.5,4,2,0,70,0,0
39611,480,4,2,0,70,1,0
39731,600,4,2,0,70,1,0
39881,685.714285714286,4,2,0,70,1,0
41181,400,4,2,0,80,1,0
41281,400,4,2,0,80,1,0
53981,-83.3333333333333,4,2,0,80,0,0
60381,-125,4,2,0,80,0,0
66381,-83.3333333333333,4,2,0,100,0,0
67681,-100,4,2,0,70,0,0
73211,200,4,2,0,100,1,1
73711,400,4,2,0,80,1,1
74811,200,4,2,0,100,1,1
75311,400,4,2,0,80,1,1
76411,200,4,2,0,100,1,1
76911,400,4,2,0,80,1,1
78011,200,4,2,0,100,1,1
78511,400,4,2,0,80,1,1
78811,200,4,2,0,100,1,1
79211,400,4,2,0,80,1,1
79611,-66.6666666666667,4,2,0,80,0,1
85211,-133.333333333333,4,2,0,80,0,1

[Colours]
Combo1 : 0,108,217
Combo2 : 242,0,0

[HitObjects]
256,192,1211,1,0
256,192,1411,5,2
256,192,1611,1,2
256,192,1811,5,0
256,192,1911,1,0
256,192,2011,1,0
256,192,2111,5,2
256,192,2211,1,2
256,192,2311,5,0
256,192,2411,1,0
256,192,2611,5,2
256,192,2811,5,0
256,192,3011,5,2
256,192,3111,1,2
256,192,3211,5,0
256,192,3411,5,2
256,192,3511,1,2
256,192,3611,1,2
256,192,3711,5,0
256,192,3811,1,0
256,192,3911,5,2
256,192,4011,1,2
256,192,4211,5,0
256,192,4411,1,0
256,192,4611,5,2
256,192,4711,1,2
256,192,4811,1,2
256,192,5011,5,0
256,192,5111,5,2
256,192,5211,1,2
256,192,5311,5,0
256,192,5411,5,2
256,192,5511,1,2
256,192,5611,5,0
256,192,5811,1,0
256,192,6011,5,2
256,192,6211,5,0
256,192,6311,1,0
256,192,6411,1,0
256,192,6611,5,2
256,192,6711,5,0
256,192,6811,1,0
256,192,6911,5,2
256,192,7011,1,2
256,192,7111,1,2
256,192,7211,5,0
256,192,7411,1,0
256,192,7611,5,2
256,192,7811,1,2
256,192,7911,1,2
256,192,8011,5,0
256,192,8211,5,2
256,192,8311,5,0
256,192,8411,5,2
256,192,8511,5,0
256,192,8611,1,0
256,192,8711,5,2
256,192,8811,5,0
256,192,9011,1,0
256,192,9211,1,0
256,192,9411,5,2
256,192,9511,1,2
256,192,9611,5,0
256,192,9811,1,0
256,192,9911,1,0
256,192,10011,5,2
256,192,10111,1,2
256,192,10211,1,2
256,192,10311,5,0
256,192,10411,5,2
256,192,10611,1,2
256,192,10811,5,0
256,192,11011,5,2
256,192,11111,1,2
256,192,11211,1,2
256,192,11411,1,2
256,192,11511,5,0
256,192,11611,5,2
256,192,11711,1,2
256,192,11811,5,2
256,192,11911,1,2
256,192,12011,1,2
256,192,12111,5,2
256,192,12211,5,0
256,192,12411,1,0
256,192,12511,5,2
256,192,12611,1,2
256,192,12711,5,0
256,192,12911,1,0
256,192,13011,1,0
256,192,13111,5,2
256,192,13211,5,0
256,192,13411,5,2
256,192,13511,5,0
256,192,13711,1,0
256,192,13811,5,2
256,192,14011,5,4
256,192,14211,1,0
256,192,14311,5,2
256,192,14511,1,2
256,192,14611,5,0
256,192,14711,1,0
256,192,14811,5,2
256,192,14911,5,0
256,192,15011,5,2
256,192,15111,5,0
256,192,15211,5,2
256,192,15311,1,2
256,192,15411,5,0
256,192,15611,1,4
256,192,15811,5,2
256,192,15911,5,0
256,192,16111,1,0
256,192,16211,5,2
256,192,16311,1,2
256,192,16411,1,2
256,192,16511,5,0
256,192,16611,1,0
256,192,16711,5,2
256,192,16811,5,0
256,192,16911,1,0
256,192,17011,5,2
256,192,17211,5,4
256,192,17411,5,2
256,192,17511,5,0
256,192,17711,1,0
256,192,17811,5,2
256,192,17911,1,2
256,192,18011,5,0
256,192,18111,1,0
256,192,18211,1,0
256,192,18311,5,2
256,192,18411,5,0
256,192,18511,1,0
256,192,18611,5,2
256,192,18811,5,4
256,192,19011,5,2
256,192,19111,5,0
256,192,19311,1,0
256,192,19411,5,2
256,192,19511,5,0
256,192,19611,1,4
256,192,20011,5,6
256,192,20411,5,4
256,192,20611,1,0
256,192,20711,5,2
256,192,20911,1,2
256,192,21011,5,0
256,192,21111,5,2
256,192,21211,1,2
256,192,21311,5,0
256,192,21411,1,0
256,192,21511,1,0
256,192,21611,5,2
256,192,21711,5,0
256,192,21811,5,2
256,192,22011,5,4
256,192,22211,5,2
256,192,22311,5,0
256,192,22511,1,0
256,192,22611,1,0
256,192,22711,5,2
256,192,22811,5,0
256,192,22911,5,2
256,192,23011,1,2
256,192,23111,1,2
256,192,23211,5,0
256,192,23311,1,0
256,192,23411,5,2
256,192,23611,5,4
256,192,23811,5,2
256,192,23911,5,0
256,192,24111,5,2
256,192,24211,5,0
256,192,24311,1,0
256,192,24411,5,2
256,192,24511,5,0
256,192,24611,1,0
256,192,24711,5,2
256,192,24811,1,2
256,192,24911,5,0
256,192,25011,5,2
256,192,25211,5,4
256,192,25411,5,2
256,192,25511,5,0
256,192,25711,1,0
256,192,25811,5,2
256,192,25911,5,0
256,192,26011,1,4
256,192,26411,5,6
256,192,26811,12,0,29211
256,192,30011,1,0
256,192,30211,5,2
256,192,30411,1,2
256,192,30611,5,0
256,192,30711,1,0
256,192,30811,1,0
256,192,30911,5,2
256,192,31011,1,2
256,192,31111,5,0
256,192,31211,1,0
256,192,31411,5,2
256,192,31611,5,0
256,192,31811,5,2
256,192,31911,1,2
256,192,32011,5,0
256,192,32211,5,2
256,192,32311,1,2
256,192,32411,1,2
256,192,32511,5,0
256,192,32611,1,0
256,192,32711,5,2
256,192,32811,1,2
256,192,33011,5,0
256,192,33211,1,0
256,192,33411,5,2
256,192,33511,1,2
256,192,33611,1,2
256,192,33811,5,0
256,192,33911,5,2
256,192,34011,1,2
256,192,34111,5,0
256,192,34211,5,2
256,192,34311,1,2
256,192,34411,5,0
256,192,34511,5,2
256,192,34611,5,0
256,192,34811,1,0
256,192,35011,5,2
256,192,35211,5,0
256,192,35311,1,0
256,192,35411,1,0
256,192,35611,5,2
256,192,35711,5,0
256,192,35811,1,0
256,192,35911,5,2
256,192,36011,1,2
256,192,36111,1,2
256,192,36211,5,0
256,192,36411,1,0
256,192,36611,5,2
256,192,36811,1,2
256,192,36911,1,2
256,192,37011,5,0
256,192,37211,5,2
256,192,37311,5,0
256,192,37411,5,2
256,192,37511,5,0
256,192,37611,1,0
256,192,37711,5,2
256,192,37811,5,0
256,192,38011,1,0
256,192,38211,5,2
256,192,38411,1,2
256,192,38511,1,2
256,192,38611,5,0
256,192,38811,5,2
256,192,38911,5,0
256,192,39011,5,2
256,192,39111,5,0
256,192,39211,1,0
256,192,39311,5,2
256,192,39411,5,0
256,192,39611,1,0
256,192,39711,1,0
256,192,39811,1,0
256,192,40011,1,0
256,192,40111,5,2
256,192,40211,1,0
256,192,40311,5,2
256,192,40411,5,0
256,192,40611,5,2
256,192,40711,5,0
256,192,40811,1,2
256,192,40911,1,0
256,192,41011,5,2
256,192,41211,1,0
256,192,41311,5,2
256,192,41611,1,2
256,192,41711,5,0
256,192,42011,1,0
256,192,42111,1,0
256,192,42211,5,0
256,192,42411,5,2
256,192,42811,5,2
256,192,42911,5,0
256,192,43011,5,2
256,192,43111,5,0
256,192,43211,5,2
256,192,43511,1,2
256,192,43611,1,2
256,192,43811,5,0
256,192,43911,5,2
256,192,44011,5,0
256,192,44111,1,0
256,192,44411,1,0
256,192,44511,5,2
256,192,44611,1,2
256,192,44711,1,2
256,192,44811,5,0
256,192,45011,1,0
256,192,45211,1,0
256,192,45311,1,0
256,192,45411,5,2
256,192,45511,1,2
256,192,45611,5,0
256,192,45811,1,0
256,192,46011,5,2
256,192,46111,5,0
256,192,46211,1,0
256,192,46311,5,2
256,192,46411,1,2
256,192,46611,5,0
256,192,46811,5,2
256,192,46911,5,0
256,192,47011,1,0
256,192,47111,5,2
256,192,47211,5,0
256,192,47411,1,0
256,192,47611,1,0
256,192,47711,1,0
256,192,47811,5,2
256,192,47911,5,0
256,192,48011,5,2
256,192,48211,5,0
256,192,48411,5,2
256,192,48511,5,0
256,192,48611,1,0
256,192,48711,5,2
256,192,48811,5,0
256,192,49011,5,2
256,192,49211,1,2
256,192,49311,1,2
256,192,49411,1,2
256,192,49511,5,0
256,192,49611,5,2
256,192,49811,5,0
256,192,50011,5,2
256,192,50111,5,0
256,192,50211,5,2
256,192,50311,1,2
256,192,50411,5,0
256,192,50611,1,0
256,192,50811,1,0
256,192,50911,5,2
256,192,51011,1,2
256,192,51111,5,0
256,192,51211,5,2
256,192,51411,1,2
256,192,51611,1,2
256,192,51711,5,0
256,192,51811,5,2
256,192,51911,1,2
256,192,52011,5,0
256,192,52211,5,2
256,192,52411,5,0
256,192,52511,5,2
256,192,52611,5,2
256,192,52711,5,0
256,192,52811,1,0
256,192,53011,1,2
256,192,53211,5,0
256,192,53311,5,2
256,192,53411,5,0
256,192,53511,1,0
256,192,53611,5,2
256,192,54011,5,4
256,192,54211,1,0
256,192,54311,5,2
256,192,54411,1,2
256,192,54511,5,0
256,192,54611,5,2
256,192,54811,5,4
256,192,55011,1,0
256,192,55111,5,2
256,192,55311,1,2
256,192,55411,5,0
256,192,55511,1,0
256,192,55611,5,2
256,192,55711,1,2
256,192,55911,1,2
256,192,56111,1,2
256,192,56211,5,0
256,192,56311,1,0
256,192,56411,5,2
256,192,56511,1,2
256,192,56611,5,0
256,192,56811,1,0
256,192,57011,5,2
256,192,57111,1,2
256,192,57211,5,0
256,192,57311,5,2
256,192,57411,5,0
256,192,57611,5,0
256,192,57711,5,2
256,192,57811,5,0
256,192,57911,5,2
256,192,58011,5,0
256,192,58111,5,2
256,192,58211,1,2
256,192,58311,5,2
256,192,58411,1,2
256,192,58611,5,0
256,192,58811,1,0
256,192,58911,5,2
256,192,59011,1,2
256,192,59111,5,0
256,192,59211,1,0
256,192,59311,5,2
256,192,59411,5,0
256,192,59511,1,0
256,192,59611,5,2
256,192,59711,1,2
256,192,59811,1,2
256,192,59911,5,0
256,192,60011,5,2
256,192,60111,1,2
256,192,60211,5,0
256,192,60411,5,6
256,192,60811,5,0
256,192,60911,5,2
256,192,61211,1,2
256,192,61311,5,0
256,192,61411,1,0
256,192,61511,5,2
256,192,61611,5,0
256,192,62011,5,2
256,192,62111,5,0
256,192,62211,1,0
256,192,62411,1,0
256,192,62611,1,0
256,192,62711,5,2
256,192,62811,5,0
256,192,62911,1,0
256,192,63011,1,0
256,192,63111,5,2
256,192,63211,5,0
256,192,63411,5,2
256,192,63611,1,2
256,192,63711,5,0
256,192,63911,1,0
256,192,64011,1,0
256,192,64111,5,2
256,192,64411,1,2
256,192,64511,5,0
256,192,64611,5,2
256,192,64711,1,2
256,192,64811,5,0
256,192,64911,1,0
256,192,65211,1,0
256,192,65311,5,2
256,192,65411,1,2
256,192,65611,5,0
256,192,65811,5,2
256,192,66011,1,2
256,192,66111,5,0
256,192,66211,1,0
256,192,66311,5,2
256,192,66411,5,0
256,192,66511,5,2
256,192,66611,1,2
256,192,66711,1,2
256,192,66811,5,0
256,192,66911,1,0
256,192,67011,1,0
256,192,67111,5,2
256,192,67211,1,2
256,192,67711,12,0,68711
256,192,73211,5,4
256,192,73411,1,0
256,192,73511,5,2
256,192,73711,1,2
256,192,73811,5,0
256,192,73911,1,0
256,192,74011,5,2
256,192,74111,5,0
256,192,74211,5,2
256,192,74311,5,0
256,192,74411,5,2
256,192,74511,1,2
256,192,74611,5,0
256,192,74811,1,4
256,192,75011,5,2
256,192,75111,5,0
256,192,75311,1,0
256,192,75411,5,2
256,192,75511,1,2
256,192,75611,1,2
256,192,75711,5,0
256,192,75811,1,0
256,192,75911,5,2
256,192,76011,5,0
256,192,76111,1,0
256,192,76211,5,2
256,192,76411,5,4
256,192,76611,5,2
256,192,76711,5,0
256,192,76911,1,0
256,192,77011,5,2
256,192,77111,1,2
256,192,77211,5,0
256,192,77311,1,0
256,192,77411,1,0
256,192,77511,5,2
256,192,77611,5,0
256,192,77711,1,0
256,192,77811,5,2
256,192,78011,5,4
256,192,78211,5,2
256,192,78311,5,0
256,192,78511,1,0
256,192,78611,5,2
256,192,78711,5,0
256,192,78811,1,4
256,192,79211,5,6
256,192,79611,5,4
256,192,79811,1,0
256,192,79911,5,2
256,192,80111,1,2
256,192,80211,5,0
256,192,80311,5,2
256,192,80411,1,2
256,192,80511,5,0
256,192,80611,1,0
256,192,80711,1,0
256,192,80811,5,2
256,192,80911,5,0
256,192,81011,5,2
256,192,81211,5,4
256,192,81411,5,2
256,192,81511,5,0
256,192,81711,1,0
256,192,81811,1,0
256,192,81911,5,2
256,192,82011,5,0
256,192,82111,5,2
256,192,82211,1,2
256,192,82311,1,2
256,192,82411,5,0
256,192,82511,1,0
256,192,82611,5,2
256,192,82811,5,4
256,192,83011,5,2
256,192,83111,5,0
256,192,83311,5,2
256,192,83411,5,0
256,192,83511,1,0
256,192,83611,5,2
256,192,83711,5,0
256,192,83811,1,0
256,192,83911,5,2
256,192,84011,1,2
256,192,84111,5,0
256,192,84211,5,2
256,192,84411,5,4
256,192,84611,5,2
256,192,84711,5,0
256,192,84911,1,0
256,192,85011,5,2
256,192,85111,5,0
256,192,85211,1,4
256,192,85611,5,6
