osu file format v9

[General]
AudioFilename: SAY IT AGAIN.mp3
AudioLeadIn: 0
PreviewTime: 42409
Countdown: 0
SampleSet: Soft
StackLeniency: 0.7
Mode: 0
LetterboxInBreaks: 1

[Editor]
DistanceSpacing: 1
BeatDivisor: 4
GridSize: 8

[Metadata]
Title:SAY IT AGAIN
Artist:NAOKI feat. DDT
Creator:ouranhshc
Version:Hard
Source:Dance Dance Revolution S
Tags:DDR Darwin

[Difficulty]
HPDrainRate:7
CircleSize:4
OverallDifficulty:8
ApproachRate:8
SliderMultiplier:1.8
SliderTickRate:2

[Events]
//Background and Video events
0,0,"SAY IT AGAIN-bg.png"
//Break Periods
//Storyboard Layer 0 (Background)
//Storyboard Layer 1 (Fail)
//Storyboard Layer 2 (Pass)
//Storyboard Layer 3 (Foreground)
//Storyboard Sound Samples
//Background Colour Transformations
3,100,163,162,255

[TimingPoints]
4809.38961038961,400,4,2,0,100,1,0

[Colours]
Combo1 : 155,155,255
Combo2 : 221,187,255
SliderBorder : 214,214,235

[HitObjects]
96,64,4609,1,2
96,64,4809,2,0,B|64:152|96:240,1,180,2|0
160,184,5409,1,2
224,128,5609,2,0,B|256:216|224:304,1,180,2|0
400,352,6409,6,0,B|480:336|472:248,2,135,2|0|2
312,352,7209,2,0,B|224:352,1,90,2|0
128,352,7609,1,0
64,288,7809,1,0
96,208,8009,6,0,B|192:160|168:56,1,180,2|0
88,24,8609,1,2
88,112,8809,2,0,B|162:181|252:122,1,180,2|0
344,112,9409,1,2
304,192,9609,2,0,B|272:256|312:320,2,135,2|0|2
344,112,10409,2,0,B|368:72|360:24,2,90,2|0|0
472,240,11209,6,0,B|512:304|472:368,2,135,2|0|2
408,304,12009,2,0,B|320:304,1,90,2|0
384,216,12409,2,0,B|296:216,1,90
200,216,12809,6,0,B|128:216|96:288,2,135,2|0|2
280,176,13609,2,0,B|328:176,2,45,2|0|0
200,136,14009,2,0,B|112:136,1,90
32,184,14409,6,0,B|16:240|32:320,2,135,2|0|2
32,184,15209,1,2
152,112,15509,1,0
160,248,15809,1,2
160,248,16009,2,0,B|224:240|256:160,2,135,2|0|2
160,248,16809,1,2
104,320,17009,5,0
232,360,17209,1,0
328,272,17409,1,0
400,328,17609,6,0,B|432:256|384:192,2,135,2|0|2
480,360,18409,2,0,B|520:256|464:160,1,180,2|0
112,56,19209,6,0,B|80:128|128:192,2,135,2|0|2
32,24,20009,2,0,B|-8:128|48:224,2,180,2|0|0
112,56,21009,6,0,B|248:56,2,135,2|0|2
40,168,21909,1,0
160,224,22209,1,2
160,224,22409,2,0,B|248:256|336:224,1,180,2|0
280,152,23009,1,0
232,80,23209,2,0,B|320:48|408:80,2,180,2|0|0
72,168,24409,6,0,B|80:216|128:232,1,90,2|0
48,272,24809,2,0,B|80:304|136:312,1,90,2|0
67,373,25209,2,0,B|115:389|163:381,1,90,2|0
232,344,25609,2,0,B|312:304|304:192,1,180,2|0
224,152,26209,1,0
216,240,26409,2,0,B|288:304|400:296,2,180,2|0|0
88,112,27609,5,2
262,65,28009,1,0
309,240,28409,1,2
134,286,28809,5,2
94,137,29109,1,2
242,97,29409,1,2
416,304,30009,5,0
416,304,30209,1,0
416,304,30409,2,0,B|424:224|488:200,2,135,2|0|2
416,304,31209,1,2
296,360,31509,1,0
272,224,31809,1,2
272,224,32009,2,0,B|312:160|288:96,2,135,2|0|0
216,296,32809,6,0,B|192:336|192:384,2,90,2|0|2
216,296,33409,1,0
216,296,33609,1,2
40,288,34009,6,0,B|72:200|40:112,1,180,2|0
80,32,34609,1,0
128,112,34809,2,0,B|168:80|168:32,1,90,2|0
256,56,35209,2,0,B|256:192,2,135,2|0|2
344,24,36009,6,0,B|344:80|400:80,1,90,2|0
454,134,36409,2,0,B|454:78|399:79,1,90,2|0
320,128,36809,6,0,B|184:128,2,135,6|0|2
272,200,37609,2,0,B|216:200|200:248,1,90,2|0
318,275,38009,2,0,B|304:320|248:320,1,90,2|0
160,320,38409,6,0,B|80:312|72:232,2,135,6|0|2
160,232,39209,2,0,B|160:144,1,90,2|0
240,40,39609,2,0,B|240:128,1,90,2|0
240,216,40009,1,4
368,344,40409,5,2
432,280,40609,1,0
464,192,40809,1,2
432,104,41009,1,0
368,40,41209,1,2
256,192,41609,1,6
40,344,42409,5,2
128,192,42809,1,2
40,40,43209,2,0,B|128:72|216:40,1,180,6|0
304,16,43809,1,2
280,104,44009,2,0,B|248:192|280:280,1,180,2|0
304,368,44609,1,0
216,344,44809,6,0,B|144:328|80:360,2,135,2|0|2
304,368,45609,2,0,B|352:360|368:312,1,90,2|0
440,360,46009,2,0,B|456:312|440:272,1,90,2|0
384,200,46409,6,0,B|312:136|216:152,1,180,2|0
256,232,47009,2,0,B|320:160|304:64,1,180,2|0
392,48,47609,2,0,B|400:96|448:112,1,90,2|0
488,192,48009,2,0,B|488:336,2,135,2|0|2
408,240,48809,2,0,B|376:336|264:312,1,180,2|0
176,296,49409,1,0
88,288,49609,6,0,B|40:296|16:336,2,90,2|0|2
24,224,50209,2,0,B|56:136|24:48,1,180,2|0
104,16,50809,2,0,B|136:104,1,90,2|0
208,48,51209,6,0,B|272:88|336:48,1,135,2|0
360,184,51809,2,0,B|272:216|184:184,1,180,2|0
96,160,52409,2,0,B|48:136|8:160,1,90,2|0
56,240,52809,6,0,B|152:248|192:344,1,180,2|0
456,144,53609,2,0,B|360:136|320:40,1,180,2|0
232,40,54209,2,0,B|200:128|232:216,1,180,2|0
280,296,54809,1,2
192,296,55009,1,2
128,360,55209,6,0,B|88:296|128:232,2,135,2|0|2
192,296,56009,6,0,B|232:232|192:168,2,135,6|0|2
192,296,56809,1,2
320,336,57109,1,0
360,208,57409,1,2
360,208,57609,2,0,B|192:144,1,180,2|0
96,296,58409,5,2
8,192,58709,1,2
96,88,59009,1,2
256,192,59209,12,4,60809
184,56,61609,5,0
136,136,61809,1,0
216,176,62009,1,0
264,104,62209,1,0
184,56,62409,6,0,B|80:224,1,180,2|0
120,328,63009,2,0,B|224:160,1,180,2|0
264,248,63609,2,0,B|312:168,1,90,2|0
360,96,64009,6,0,B|432:112|448:184|416:240,1,180,2|0
152,288,64809,2,0,B|80:272|64:200|96:144,1,180,2|0
168,200,65409,2,0,B|240:200|240:288|320:288,1,180,2|0
256,192,66009,12,0,67209
208,320,68009,6,0,B|228:280|208:232,1,90,6|0
304,64,68409,2,0,B|284:104|304:152,1,90,6|0
216,128,68809,6,0,B|128:160|40:128,1,180,2|0
104,64,69409,2,0,B|136:152|104:240,1,180,2|0
192,216,70009,2,0,B|184:264|160:304,1,90,2|0
80,336,70409,5,2
432,336,70809,1,2
256,32,71209,1,2
208,104,71409,1,0
304,104,71609,1,2
256,32,71809,6,0,B|200:0|128:32|120:112,1,180,2|0
160,176,72409,2,0,B|344:176,2,180,2|0|2
72,192,73409,1,2
256,192,73609,12,0,74409
256,192,74809,5,0
144,328,75209,5,6
32,192,75609,1,2
208,168,76009,2,0,B|344:168,2,135,2|0|2
120,176,76809,6,0,B|120:232|176:272|240:248,2,135,2|0|2
120,88,77609,2,0,B|192:72|256:88,1,135,2|0
296,96,78009,2,0,B|344:112|384:96,1,90,2|0
448,160,78409,6,0,B|384:232|432:328,1,180,2|0
296,360,79009,2,0,B|360:288|312:192,1,180,2|0
248,128,79609,2,0,B|208:104|152:120,1,90,2|0
80,152,80009,6,0,B|48:216|80:288,1,135,2|0
104,320,80409,2,0,B|192:320,1,90,2|0
152,240,80809,2,0,B|288:240,2,135,2|2|2
56,240,81609,6,0,B|8:216|8:160,1,90,6|0
96,160,82009,1,2
40,88,82209,2,0,B|112:40|208:104|176:192,1,225,2|0
160,232,82809,2,0,B|136:288|168:328,1,90,2|0
248,352,83209,6,0,B|336:352,2,90,2|0|2
248,264,83809,2,0,B|280:176|248:88,1,180,2|0
320,32,84409,2,0,B|408:32,1,90,2|0
480,96,84809,6,0,B|496:160|448:200,1,90,2|0
384,216,85209,2,0,B|200:216,2,180,2|0|2
448,280,86209,1,2
400,360,86409,6,0,B|264:360,2,135,2|0|2
448,280,87209,1,2
400,200,87409,1,0
448,120,87609,1,2
400,40,87809,1,0
312,24,88009,6,0,B|240:0|176:48,2,135,2|0|2
264,96,88809,2,0,B|192:128|192:200,1,135,2|0
264,312,89409,1,2
264,312,89609,2,0,B|336:320|376:240|336:176,1,180,2|0
272,232,90209,1,2
192,264,90409,6,0,B|128:264|128:176|40:176,1,180,2|0
48,264,91009,1,2
48,352,91209,2,0,B|240:352,1,180,2|0
320,352,91809,1,2
408,352,92009,2,0,B|488:296|464:192,1,180,2|0
432,112,92609,1,0
360,64,92809,6,0,B|272:64,1,90,2|0
192,24,93209,2,0,B|176:80|208:120,1,90,2|0
112,112,93609,2,0,B|112:248,2,135,2|0|0
32,144,94409,6,0,B|32:336,1,180,6|0
256,192,95209,1,2
480,60,95609,2,0,B|480:240,2,180,2|0|0
360,192,96809,5,2
256,104,97109,1,2
152,192,97409,1,2
152,192,97609,6,0,B|152:280,1,90,6|0
216,344,98009,1,2
216,344,98209,1,0
240,256,98409,2,0,B|240:160,1,90,6|0
280,88,98809,1,2
280,88,99009,1,0
368,88,99209,5,4
152,80,99609,1,4
144,296,100009,1,4
360,304,100409,1,4
360,304,100609,1,0
360,304,100809,5,4
