osu file format v9

[General]
AudioFilename: NAOKI feat.mp3
AudioLeadIn: 0
PreviewTime: 66177
Countdown: 1
SampleSet: Soft
StackLeniency: 0.4
Mode: 0
LetterboxInBreaks: 1

[Editor]
DistanceSpacing: 1.5
BeatDivisor: 4
GridSize: 8

[Metadata]
Title:A Brighter Day
Artist:NAOKI feat. Aleisha G
Creator:LaunchedthousandShip
Version:EXPERT
Source:Dance Dance Revolution
Tags:Mug Decay DDR

[Difficulty]
HPDrainRate:8
CircleSize:4
OverallDifficulty:7
ApproachRate:8
SliderMultiplier:1.8
SliderTickRate:0.5

[Events]
//Background and Video events
0,0,"A Brighter Day-bg.png"
//Break Periods
//Storyboard Layer 0 (Background)
//Storyboard Layer 1 (Fail)
//Storyboard Layer 2 (Pass)
//Storyboard Layer 3 (Foreground)
//Storyboard Sound Samples
//Background Colour Transformations
3,100,163,162,255

[TimingPoints]
2375,387.096774193548,4,2,0,100,1,0
20568,-100,4,1,0,20,0,0
22116,-100,4,1,0,30,0,0
22891,-100,4,1,0,40,0,0
23665,-100,4,1,0,50,0,0
24439,-100,4,1,0,60,0,0
25407,-100,4,1,0,70,0,0
25794,-100,4,1,0,80,0,0
26181,-100,4,1,0,90,0,0
26568,-100,4,1,0,100,0,0
26955,-100,4,1,2,70,0,0
61116,-100,4,1,0,70,0,0
61504,-100,4,1,2,70,0,0
61891,-100,4,1,0,70,0,0
62278,-100,4,1,2,70,0,0
62665,-100,4,1,0,70,0,0
63052,-100,4,1,2,70,0,0
63439,-100,4,1,0,70,0,0
63826,-100,4,1,2,70,0,0
64116,-100,4,1,0,70,0,0
65181,-100,4,2,0,70,0,0
67213,-100,4,1,0,100,0,0
67504,-100,4,1,2,70,0,0
78052,-200,4,1,0,70,0,0
79697,-200,4,1,2,70,0,0
79891,-100,4,1,2,70,0,0
85891,-100,4,1,0,70,0,0
86084,-100,4,1,2,70,0,0
86665,-100,4,1,0,70,0,0
86858,-100,4,1,2,70,0,0
87439,-100,4,1,0,80,0,0
87633,-100,4,1,2,80,0,0
88213,-100,4,1,0,80,0,0
88407,-100,4,1,2,80,0,0
88987,-100,4,1,0,90,0,0
89181,-100,4,1,2,90,0,0
89762,-100,4,1,0,90,0,0
89955,-100,4,1,2,90,0,0
90536,-100,4,1,0,75,0,0
90923,-100,4,1,2,70,0,0
104471,-100,4,1,2,60,0,0
104568,-100,4,1,2,50,0,0
104665,-100,4,1,2,40,0,0
104762,-100,4,1,2,30,0,0
104858,-100,4,1,2,20,0,0
104955,-100,4,1,2,10,0,0
105052,-100,4,1,2,0,0,0

[Colours]
Combo1 : 128,255,128
Combo2 : 128,128,255
Combo3 : 255,128,192
Combo4 : 128,0,255

[HitObjects]
256,48,20955,1,0
256,48,21729,1,4
256,120,22504,5,0
256,120,23278,1,4
256,192,24052,5,0
256,192,24826,1,4
256,264,25600,5,4
256,264,25987,1,4
256,264,26375,1,4
256,264,26762,1,4
112,40,27149,6,0,B|32:88,1,90
160,144,27536,2,0,B|240:96,1,90,4|0
232,232,27923,2,0,B|152:280,1,90
272,344,28310,2,0,B|352:296,1,90,4|0
392,168,28697,6,0,B|488:168,1,90
368,96,29084,2,0,B|280:96,1,90,4|0
160,168,29471,2,0,B|256:168,1,90
136,240,29858,2,0,B|48:240,1,90,4|0
240,32,30246,6,0,B|312:96,1,90
176,104,30633,2,0,B|88:136,1,90,4|0
216,176,31020,1,0
104,256,31214,1,0
120,264,31310,1,0
136,272,31407,1,4
152,280,31504,1,0
168,288,31601,1,0
304,280,31794,6,0,B|240:352,1,90
376,328,32181,2,0,B|464:296,1,90,4|0
360,208,32568,1,0
336,72,32762,1,0
320,80,32858,1,0
304,88,32955,1,4
288,96,33052,1,0
272,104,33149,1,0
160,32,33342,6,0,B|160:120,1,90
32,88,33729,2,0,B|32:176,1,90,4|0
160,232,34117,1,0
32,272,34310,1,0
32,288,34407,1,0
32,304,34504,1,4
32,320,34600,1,0
32,336,34697,1,0
168,352,34891,6,0,B|256:352,1,90
392,312,35278,2,0,B|480:312,1,90,4|0
400,200,35666,1,0
328,88,35858,1,0
344,88,35955,1,0
360,88,36053,1,4
376,88,36149,1,0
392,88,36246,1,0
256,88,36439,5,0
256,88,36633,1,0
120,88,36826,2,0,B|32:88,1,90,4|0
392,88,37213,1,0
392,88,37600,1,4
256,320,37987,5,0
256,320,38181,1,0
392,320,38374,2,0,B|480:320,1,90,4|0
120,320,38761,1,0
120,320,39148,1,4
328,144,39536,5,0
464,144,39729,1,0
328,144,39923,1,8
192,144,40117,1,0
56,144,40310,1,0
56,144,40407,1,0
56,144,40504,1,0
128,256,40697,2,0,B|128:344,1,90,8|0
264,344,41084,5,0
384,280,41278,1,0
264,224,41471,1,8
384,160,41665,1,0
264,104,41858,1,0
264,104,41955,1,0
264,104,42052,1,0
384,40,42246,1,8
384,40,42439,1,0
480,136,42633,6,0,B|480:224,1,90
352,176,43020,2,0,B|352:88,1,90,8|0
224,136,43407,1,0
224,136,43504,1,0
224,136,43600,2,0,B|224:224,1,90,0|8
224,226,43987,1,0
280,352,44181,5,0
400,288,44375,1,0
280,352,44568,1,8
336,232,44762,1,0
280,352,44955,1,0
280,352,45052,1,0
280,352,45149,1,0
256,216,45342,1,8
256,216,45536,1,0
120,216,45729,6,0,B|32:216,1,90
392,216,46117,2,0,B|480:216,1,90,8|0
272,48,46697,5,0
144,96,46891,1,8
200,224,47084,1,0
112,328,47278,2,0,B|32:272,1,90
56,96,47665,2,0,B|128:40,1,90,8|0
272,144,48052,2,0,B|176:168,1,90
296,304,48439,2,0,B|360:240,1,90,8|0
368,64,48826,2,0,B|456:88|488:192,1,180,0|8
256,192,49407,1,0
25,195,49600,2,0,B|56:296|144:320,1,180,0|8
360,32,50375,5,0
435,194,50568,1,0
271,270,50762,1,8
195,107,50955,1,0
31,184,51149,1,0
31,184,51246,1,0
31,184,51342,1,0
107,347,51536,1,8
107,347,51729,1,0
216,272,51923,6,0,B|312:272,1,90
416,200,52310,1,4
416,200,52504,1,0
344,88,52697,1,0
344,88,52794,1,0
344,88,52891,2,0,B|256:88,2,90,0|4|0
480,88,53471,5,0
344,88,53665,1,0
480,88,53858,1,4
344,88,54052,1,0
256,192,54246,1,0
256,192,54342,1,0
256,192,54439,1,0
160,287,54633,1,4
160,287,54826,1,0
296,296,55020,5,0
184,216,55213,1,0
280,120,55407,1,4
168,40,55600,1,0
344,40,55794,1,0
344,40,55891,1,0
344,40,55987,2,0,B|432:40,2,90,0|4|0
344,224,56568,6,0,B|264:272,1,90
272,88,56955,2,0,B|192:40,1,90,4|0
184,224,57342,2,0,B|104:272,1,90
112,88,57729,2,0,B|32:40,1,90,4|0
34,41,58117,1,0
472,352,58697,5,0
384,192,58891,1,0
384,192,59181,2,0,B|304:208|288:280,1,135,4|0
288,276,59665,1,0
64,120,59955,2,0,B|100:193|173:189,1,135,4|0
169,190,60439,1,0
432,144,60729,2,0,B|430:62|362:34,1,135,4|0
192,40,61213,5,4
192,40,61407,1,0
64,136,61601,5,4
64,136,61794,1,0
184,232,61988,5,4
184,232,62182,1,4
72,320,62375,5,4
72,320,62568,1,4
200,352,62762,5,4
184,352,62858,1,0
168,352,62955,1,0
296,312,63149,5,4
280,312,63245,1,0
264,312,63342,1,0
392,272,63536,5,4
376,272,63632,1,0
360,272,63729,1,0
488,232,63923,5,4
472,232,64019,1,0
456,232,64116,1,0
440,232,64213,1,0
424,232,64310,1,4
16,232,64891,1,4
152,232,65084,2,0,B|200:232,6,45
288,232,65858,6,0,B|328:232,6,22.5
288,232,66246,2,0,B|328:152|288:56,2,180
88,56,67407,5,4
224,56,67600,1,0
224,56,67697,1,0
224,56,67794,1,4
360,56,67988,2,0,B|424:120|400:224,1,180
288,304,68568,2,0,B|192:304,1,90,4|0
48,208,68955,1,0
153,58,69149,1,0
297,159,69342,1,4
192,309,69536,1,0
464,296,69923,5,0
376,192,70117,2,0,B|280:192,1,90,4|0
168,256,70504,1,0
152,256,70600,1,0
136,256,70697,1,0
120,256,70794,1,0
104,256,70891,1,4
64,128,71084,2,0,B|144:80|240:128,1,180
254,126,71568,1,4
272,126,71665,2,0,B|360:126,1,90
272,232,72052,2,0,B|360:232,1,90
272,336,72439,2,0,B|360:336,1,90,4|0
184,336,72826,6,0,B|136:336,2,45
160,200,73213,2,0,B|128:168,2,45,4|0|0
280,136,73600,1,0
272,120,73697,1,0
264,104,73794,1,0
256,88,73891,1,0
248,72,73987,1,4
240,56,74084,1,0
232,40,74181,2,0,B|144:40,1,90
370,344,74762,1,4
400,168,74955,5,0
408,184,75052,1,0
416,200,75149,1,0
232,48,75342,5,0
248,40,75439,1,0
264,32,75536,1,4
112,216,75729,5,0
104,200,75826,1,0
96,184,75923,1,0
280,336,76117,5,0
264,344,76214,1,0
248,352,76310,2,0,B|160:352,1,90,4|0
288,224,76697,5,0
236,44,76891,1,0
66,92,77084,1,4
117,271,77278,1,0
177,162,77471,1,4
177,162,77858,1,4
488,352,78246,6,0,B|472:312,1,45
344,72,78633,2,0,B|304:104,1,45,4|0
168,328,79020,2,0,B|216:344,1,45
432,192,79407,2,0,B|440:144,1,45,4|0
288,288,79794,5,4
200,184,79987,1,0
200,184,80084,1,0
200,184,80181,1,4
80,256,80374,2,0,B|40:176|72:80,1,180
200,40,80955,1,4
200,40,81148,1,0
336,40,81342,6,0,B|400:104,1,90
272,136,81729,1,4
272,136,81826,1,0
272,136,81923,2,0,B|184:136|112:216,1,180
152,344,82503,2,0,B|240:344,1,90,4|0
336,248,82890,1,0
320,248,82987,1,0
304,248,83084,1,0
288,248,83181,1,0
272,248,83277,1,4
136,248,83471,6,0,B|96:160|128:72,1,180
144,72,83955,1,4
160,72,84052,2,0,B|248:72,1,90
384,192,84439,2,0,B|296:192,1,90
160,312,84826,2,0,B|256:312,1,90,4|0
424,280,85213,5,0
424,104,85406,1,0
424,280,85600,1,4
424,104,85794,1,0
256,40,85987,2,0,B|72:40,1,180,4|4
256,40,86568,1,0
256,40,86761,2,0,B|440:40,1,180,4|4
436,344,87535,6,0,B|256:344,1,180,4|4
76,344,88116,1,0
76,344,88309,2,0,B|256:344,1,180,4|4
456,48,89084,6,0,B|504:128|456:224,1,180,0|4
56,336,89664,1,0
56,336,89858,2,0,B|8:256|56:160,1,180,0|4
416,160,90632,5,4
416,144,90729,1,0
416,128,90826,1,0
456,256,91019,5,4
456,240,91116,1,0
456,224,91213,1,0
320,200,91406,5,0
320,184,91503,1,0
320,168,91600,1,0
272,296,91793,5,0
272,280,91890,1,0
272,264,91987,1,0
256,192,92181,12,4,94890
40,32,95277,6,0,B|128:32,1,90
216,192,95664,2,0,B|128:192,1,90,4|0
40,352,96052,2,0,B|224:352,1,180,0|4
472,32,96826,6,0,B|384:32,1,90
296,192,97213,2,0,B|384:192,1,90,4|0
472,352,97601,2,0,B|288:352,1,180,0|4
32,104,98374,5,0
216,104,98568,2,0,B|216:192,1,90,0|4
120,344,98955,1,0
120,344,99148,2,0,B|120:160,1,180,0|4
480,280,99923,5,0
296,280,100117,2,4,B|296:192,1,90
392,40,100504,1,0
392,40,100697,2,0,B|392:224,1,180,0|4
48,120,101471,5,0
96,296,101664,1,0
240,192,101858,2,0,B|328:192,1,90,4|0
480,88,102245,1,0
312,32,102439,1,0
184,160,102632,1,4
168,160,102729,1,0
152,160,102826,1,0
176,336,103019,5,0
192,336,103116,1,0
208,336,103213,1,0
360,240,103406,5,4
344,240,103503,1,0
328,240,103600,1,0
336,56,103794,5,0
352,56,103890,1,0
368,56,103987,1,0
384,56,104084,1,0
400,56,104181,1,4
416,56,104277,1,0
432,56,104375,1,0
448,56,104471,1,0
464,56,104568,2,0,B|496:200|464:336,1,270
