osu file format v9

[General]
AudioFilename: NAOKI feat.mp3
AudioLeadIn: 0
PreviewTime: 66177
Countdown: 1
SampleSet: Soft
StackLeniency: 0.4
Mode: 0
LetterboxInBreaks: 1

[Editor]
DistanceSpacing: 1
BeatDivisor: 4
GridSize: 8

[Metadata]
Title:A Brighter Day
Artist:NAOKI feat. Aleisha G
Creator:LaunchedthousandShip
Version:BEGINNER
Source:Dance Dance Revolution
Tags:Mug Decay DDR

[Difficulty]
HPDrainRate:2
CircleSize:3
OverallDifficulty:2
ApproachRate:2
SliderMultiplier:0.999999999999999
SliderTickRate:0.5

[Events]
//Background and Video events
0,0,"A Brighter Day-bg.png"
//Break Periods
//Storyboard Layer 0 (Background)
//Storyboard Layer 1 (Fail)
//Storyboard Layer 2 (Pass)
//Storyboard Layer 3 (Foreground)
//Storyboard Sound Samples
//Background Colour Transformations
3,100,163,162,255

[TimingPoints]
2375,387.096774193548,4,2,0,100,1,0
20568,-100,4,1,0,20,0,0
22117,-100,4,1,0,30,0,0
22891,-100,4,1,0,40,0,0
23665,-100,4,1,0,50,0,0
24439,-100,4,1,0,60,0,0
25407,-100,4,1,0,70,0,0
25847,-100,4,1,0,80,0,0
26181,-100,4,1,0,90,0,0
26621,-100,4,1,0,100,0,0
26955,-100,4,1,2,70,0,0
61117,-100,4,1,0,70,0,0
62278,-100,4,1,2,70,0,0
62665,-100,4,1,0,70,0,0
63052,-100,4,1,2,70,0,0
63439,-100,4,1,0,70,0,0
63826,-100,4,1,2,70,0,0
64116,-100,4,1,0,70,0,0
64987,-100,4,1,2,70,0,0
65181,-100,4,2,0,70,0,0
67213,-100,4,1,0,100,0,0
67697,-100,4,1,2,70,0,0
78052,-100,4,1,2,70,0,0
79697,-100,4,1,2,70,0,0
79891,-100,4,1,2,70,0,0
85891,-100,4,1,0,70,0,0
86181,-100,4,1,2,70,0,0
87439,-100,4,1,0,80,0,0
87729,-100,4,1,2,80,0,0
88987,-100,4,1,0,90,0,0
89278,-100,4,1,2,90,0,0
90536,-100,4,1,0,75,0,0
90923,-100,4,1,2,70,0,0
94794,-100,4,1,2,0,0,0

[Colours]
Combo1 : 128,255,128
Combo2 : 128,128,255
Combo3 : 255,128,192
Combo4 : 128,0,255

[HitObjects]
56,56,13213,1,0
256,56,13987,1,0
456,56,14762,1,2
80,192,16310,1,0
456,328,17858,1,2
256,192,19407,5,2
72,88,20955,5,0
440,200,22504,5,0
72,304,24052,5,0
400,80,25600,5,0
200,64,26374,1,0
304,232,27149,6,0,B|304:344,1,99.9999999999999,0|4
216,304,27923,2,0,B|216:200,1,99.9999999999999,0|4
128,152,28697,2,0,B|128:264,1,99.9999999999999,0|4
40,216,29471,2,0,B|40:112,1,99.9999999999999,0|4
128,72,30245,6,0,B|240:72,1,99.9999999999999,0|4
280,160,31020,2,0,B|176:160,1,99.9999999999999,0|4
128,248,31794,2,0,B|240:248,1,99.9999999999999,0|4
280,336,32568,2,0,B|176:336,1,99.9999999999999,0|4
80,336,33342,6,0,B|80:224,1,99.9999999999999,0|4
168,192,34116,2,0,B|168:296,1,99.9999999999999,0|4
256,336,34891,2,0,B|256:224,1,99.9999999999999,0|4
344,192,35665,2,0,B|344:296,1,99.9999999999999,0|4
432,248,36439,6,0,B|432:136,1,99.9999999999999,0|4
376,64,37213,2,0,B|272:64,1,99.9999999999999,0|4
216,144,37987,2,0,B|216:256,1,99.9999999999999,0|4
272,328,38762,2,0,B|376:328,1,99.9999999999999,0|4
472,328,39536,5,0
72,328,41084,2,0,B|176:328,2,99.9999999999999,0|8|0
40,128,42633,5,0
440,128,44181,2,0,B|336:128,2,99.9999999999999,0|8|0
432,328,45729,5,0
40,240,47278,1,0
256,192,48826,12,4,51149
336,304,51923,5,0
32,40,53471,2,0,B|136:40,2,99.9999999999999,0|4|0
232,40,55020,5,0
488,344,56568,2,0,B|384:344,2,99.9999999999999,0|4|0
464,144,58116,5,0
80,40,59665,1,0
344,336,61213,1,0
256,48,62374,6,0,B|256:152,5,99.9999999999999,4|4|4|4|4|4
256,192,64891,12,0,66633
104,328,67407,5,0
376,40,68955,2,0,B|480:40,2,99.9999999999999,0|4|0
472,216,70504,5,0
72,216,72052,2,0,B|176:216,2,99.9999999999999,0|4|0
184,48,73600,5,0
464,336,75149,1,0
256,192,76697,12,4,79020
176,304,79794,5,4
480,40,81342,2,0,B|376:40,2,99.9999999999999,0|4|0
280,40,82891,5,0
24,344,84439,2,0,B|128:344,2,99.9999999999999,0|4|0
48,144,85987,5,4
432,40,87536,1,4
168,336,89084,1,4
448,56,90633,2,0,B|344:56,3,99.9999999999999,4|4|0|0
256,96,92181,2,0,B|152:96,1,99.9999999999999
256,192,92955,12,0,94890
