osu file format v9

[General]
AudioFilename: NAOKI feat.mp3
AudioLeadIn: 0
PreviewTime: 66177
Countdown: 1
SampleSet: Soft
StackLeniency: 0.4
Mode: 0
LetterboxInBreaks: 1

[Editor]
DistanceSpacing: 1.2
BeatDivisor: 4
GridSize: 8

[Metadata]
Title:A Brighter Day
Artist:NAOKI feat. Aleisha G
Creator:LaunchedthousandShip
Version:BASIC
Source:Dance Dance Revolution
Tags:Mug Decay DDR

[Difficulty]
HPDrainRate:5
CircleSize:4
OverallDifficulty:4
ApproachRate:5
SliderMultiplier:1.2
SliderTickRate:0.5

[Events]
//Background and Video events
0,0,"A Brighter Day-bg.png"
//Break Periods
//Storyboard Layer 0 (Background)
//Storyboard Layer 1 (Fail)
//Storyboard Layer 2 (Pass)
//Storyboard Layer 3 (Foreground)
//Storyboard Sound Samples
//Background Colour Transformations
3,100,163,162,255

[TimingPoints]
2375,387.096774193548,4,2,0,100,1,0
20568,-100,4,1,0,20,0,0
22116,-100,4,1,0,30,0,0
22891,-100,4,1,0,40,0,0
23665,-100,4,1,0,50,0,0
24439,-100,4,1,0,60,0,0
25407,-100,4,1,0,70,0,0
25794,-100,4,1,0,80,0,0
26181,-100,4,1,0,90,0,0
26568,-100,4,1,0,100,0,0
26955,-100,4,1,2,70,0,0
61064,-100,4,1,0,70,0,0
61504,-100,4,1,2,70,0,0
61891,-100,4,1,0,70,0,0
62278,-100,4,1,2,70,0,0
62665,-100,4,1,0,70,0,0
63052,-100,4,1,2,70,0,0
63439,-100,4,1,0,70,0,0
63826,-100,4,1,2,70,0,0
64117,-100,4,1,0,70,0,0
65181,-100,4,2,0,70,0,0
67213,-100,4,1,0,100,0,0
67600,-100,4,1,2,70,0,0
78052,-100,4,1,2,70,0,0
79697,-100,4,1,2,70,0,0
79891,-100,4,1,2,70,0,0
85891,-100,4,1,0,70,0,0
86084,-100,4,1,2,70,0,0
86665,-100,4,1,0,70,0,0
86858,-100,4,1,2,70,0,0
87439,-100,4,1,0,80,0,0
87633,-100,4,1,2,80,0,0
88213,-100,4,1,0,80,0,0
88407,-100,4,1,2,80,0,0
88987,-100,4,1,0,90,0,0
89181,-100,4,1,2,90,0,0
89762,-100,4,1,0,90,0,0
89955,-100,4,1,2,90,0,0
90536,-100,4,1,0,75,0,0
90923,-100,4,1,2,70,0,0
94847,-100,4,1,2,0,0,0

[Colours]
Combo1 : 128,255,128
Combo2 : 128,128,255
Combo3 : 255,128,192
Combo4 : 128,0,255

[HitObjects]
200,128,13213,1,0
336,184,13987,1,0
216,264,14762,1,2
408,48,16310,1,0
120,48,17858,1,2
256,192,19407,5,2
384,272,20955,5,4
240,272,21729,1,0
120,192,22504,5,4
264,192,23278,1,0
384,112,24052,5,4
240,112,24826,1,0
256,192,25600,12,4,26762
328,64,27149,6,0,B|384:80|416:144,1,120,0|4
312,240,27923,1,0
260,291,28117,1,0
209,341,28310,1,4
112,232,28697,6,0,B|62:202|47:131,1,120,0|4
168,56,29471,1,0
240,56,29665,1,0
312,56,29858,1,4
192,136,30246,6,0,B|72:136,1,120,0|4
192,208,31020,2,0,B|312:208,1,120,0|4
192,280,31794,6,0,B|72:280,1,120,0|4
192,352,32568,2,0,B|312:352,1,120,0|4
424,256,33342,5,0
424,256,33729,1,4
368,128,34117,2,0,B|312:112,2,60,0|0|4
256,216,34891,5,0
256,216,35278,1,4
120,248,35665,2,0,B|176:272,2,60,0|0|4
40,128,36439,6,0,B|40:248,1,120,0|4
168,176,37213,1,0
168,32,37600,1,4
304,88,37987,6,0,B|304:216,1,120,0|4
408,312,38762,1,0
408,168,39149,1,4
480,40,39536,5,0
296,264,40310,1,0
56,104,41084,1,0
56,104,41471,1,8
56,104,41858,1,0
344,64,42633,5,0
120,248,43407,1,0
408,288,44181,1,0
408,288,44568,1,8
408,288,44955,1,0
264,40,45729,5,0
136,104,46117,1,8
264,168,46504,1,0
136,232,46892,1,8
264,304,47278,2,0,B|384:304,1,120,0|8
472,192,48052,2,0,B|344:192,1,120,0|8
208,192,48826,1,0
96,104,49213,2,0,B|208:64|336:104,1,240,8|8
256,192,50375,12,4,51536
144,80,51923,5,0
32,168,52310,1,4
120,280,52697,1,0
232,192,53084,1,4
376,192,53471,2,0,B|496:192,2,120,0|4|0
232,192,54633,1,4
344,96,55020,5,0
456,192,55407,1,4
344,288,55794,1,0
200,288,56181,1,4
56,288,56568,2,0,B|56:168,2,120,0|4|0
192,344,57729,1,4
336,344,58116,5,4
464,280,58504,1,4
336,216,58891,1,0
464,152,59279,1,4
328,96,59665,2,0,B|208:96,1,120,0|4
120,208,60439,2,0,B|248:208,1,120,0|4
384,208,61213,1,0
328,80,61600,2,0,B|288:192|328:320,1,240,4|4
256,192,62762,12,4,63923
256,192,64310,5,0
256,192,64891,1,0
256,192,65084,1,0
256,192,65858,12,0,67020
136,88,67407,6,0,B|96:136|128:200,1,120,4|4
272,216,68181,2,0,B|312:264|280:328,1,120,0|4
136,352,68955,1,0
88,216,69342,1,4
144,80,69729,1,0
280,40,70117,1,4
384,144,70504,6,0,B|320:128|256:144,1,120,0|4
240,288,71278,2,0,B|176:304|112:288,1,120,0|4
136,144,72052,1,0
136,144,72439,1,4
376,144,72826,1,0
376,144,73213,1,4
256,352,73600,6,0,B|320:248,1,120,0|4
176,288,74375,2,0,B|112:184,1,120,0|4
256,192,75149,2,0,B|320:88,1,120,0|4
176,128,75924,2,0,B|112:24,1,120,0|4
112,168,76697,5,0
112,240,76891,1,0
112,312,77084,1,4
184,336,77278,2,0,B|272:376|360:336,1,180
256,192,78246,12,4,79407
88,304,79794,6,0,B|128:256|96:192,1,120,4|4
232,232,80568,2,0,B|192:184|224:120,1,120,0|4
112,32,81342,1,0
256,32,81729,1,4
112,32,82116,1,0
256,32,82504,1,4
272,176,82891,6,0,B|336:192|400:176,1,120,0|4
304,296,83665,2,0,B|368:280|432:296,1,120,0|4
480,160,84439,1,0
392,48,84826,1,4
248,48,85213,1,0
160,160,85600,1,4
296,120,85987,6,0,B|416:120,1,120,4|4
296,192,86762,2,0,B|416:192,1,120,4|4
216,192,87536,2,0,B|96:192,1,120,4|4
216,264,88310,2,0,B|96:264,1,120,4|4
48,128,89084,6,0,B|88:80|152:64,1,120,4|4
224,64,89665,2,0,B|288:64,1,60,0|4
284,320,90246,1,4
152,136,90633,5,4
360,47,91020,1,4
448,256,91407,1,0
240,344,91794,1,0
256,192,92181,12,0,94890
