osu file format v6

[General]
AudioFilename: A brighter day - NAOKI feat. Aleisha D.mp3
AudioLeadIn: 0
PreviewTime: -1
Countdown: 0
SampleSet: Normal
StackLeniency: 0.7
Mode: 0
LetterboxInBreaks: 1

[Editor]
DistanceSpacing: 0.800000011920929
BeatDivisor: 2
GridSize: 16

[Metadata]
Title:A Brighter Day
Artist:NAOKI feat. Aleisha D.
Creator:supergarlic
Version:Basic
Source:
Tags:DDR Dance Dance Revolution DanceDanceRevolution Project

[Difficulty]
HPDrainRate:7
CircleSize:4
OverallDifficulty:7
SliderMultiplier:1.6
SliderTickRate:2

[Events]
//Background and Video events
0,0,"A Brighter Day-bg.png"
//Break Periods
//Storyboard Layer 0 (Background)
//Storyboard Layer 1 (Fail)
//Storyboard Layer 2 (Pass)
//Storyboard Layer 3 (Foreground)
//Storyboard Sound Samples
//Background Colour Transformations
3,100,163,162,255

[TimingPoints]
2336,387.096774193548,4,2,0,71,1,0
25174,-100,4,1,0,71,0,0
37755,-100,4,1,0,59,0,0
39497,-100,4,1,0,69,0,0
104916,-100,4,1,0,0,0,0

[Colours]
Combo1 : 122,158,254
Combo2 : 153,253,153
Combo3 : 255,255,193
Combo4 : 200,145,255

[HitObjects]
96,48,2336,1,0
416,144,3884,5,0
96,240,5432,5,0
416,320,6981,5,0
153,143,8529,6,0,B|265:31|378:161,1,240
362,144,9303,1,0
187,254,9884,5,0
187,254,10077,2,0,B|267:334|350:231,4,160
224,192,11819,1,0
256,128,12013,1,0
288,192,12206,1,0
175,89,13174,6,0,B|79:89|79:201,1,160
79,192,13948,2,0,B|80:307|213:290,1,160
256,192,14723,1,4
384,293,15303,6,0,B|496:181|368:69,1,240
384,84,16077,1,0
320,64,16271,5,0
288,128,16465,1,0
224,128,16658,1,0
192,64,16852,1,0
256,192,17239,5,0
256,192,17432,1,0
256,192,17626,1,0
256,192,17819,1,0
386,89,18400,6,0,B|498:201|356:331,1,240
336,256,19174,2,0,B|224:256,1,80
256,320,19561,2,0,B|144:320,1,80
176,256,19948,1,0
115,76,20916,6,0,B|264:221|419:53,1,320
396,307,22465,6,0,B|248:163|92:330,1,320
115,76,24013,6,0,B|264:221|419:53,1,320
256,192,25561,12,0,27110
112,112,27497,5,0
112,240,27884,1,0
160,288,28077,1,0
208,240,28271,1,0
336,240,28658,1,0
432,144,29045,1,0
336,240,29432,1,0
288,192,29626,1,0
240,144,29819,1,0
112,208,30206,6,0,B|32:128|128:48,1,160
240,64,30981,1,0
240,64,31174,1,0
240,64,31368,1,0
240,192,31755,2,0,B|320:272|400:176,1,160
384,64,32529,1,0
384,64,32723,1,0
384,64,32916,1,0
256,64,33303,6,0,B|48:64,1,160
176,160,34077,1,0
176,160,34271,1,0
176,160,34465,1,0
96,272,34852,6,0,B|272:272,1,160
176,160,35626,1,0
176,160,35819,1,0
176,160,36013,1,0
304,160,36400,5,0
304,288,36787,2,0,B|416:288,1,80
384,288,37174,1,0
384,160,37561,2,0,B|480:160,1,80
464,160,37948,1,0
256,192,38142,12,0,39497
256,112,40077,5,0
256,240,40465,2,0,B|256:336,2,80
192,240,41045,1,0
224,176,41239,1,0
288,176,41432,1,0
320,240,41626,1,0
80,160,42594,6,0,B|80:48|208:48,1,160
173,50,43174,1,0
304,48,43561,1,0
304,48,43755,2,0,B|404:60|400:196,1,160
256,192,44529,1,0
256,192,44723,1,0
