osu file format v7

[General]
AudioFilename: will.mp3
AudioLeadIn: 1985
PreviewTime: 43199
Countdown: 1
SampleSet: Soft
StackLeniency: 0.4
Mode: 0
LetterboxInBreaks: 1

[Editor]
DistanceSpacing: 1
BeatDivisor: 4
GridSize: 8

[Metadata]
Title:will
Artist:NAOKI
Creator:ouranhshc
Version:Normal
Source:Dance Dance Revolution Hottest Party
Tags:

[Difficulty]
HPDrainRate:3
CircleSize:3
OverallDifficulty:3
SliderMultiplier:1.2
SliderTickRate:1

[Events]
//Background and Video events
0,0,"will-bg.jpg"
//Break Periods
2,57674,62655
//Storyboard Layer 0 (Background)
//Storyboard Layer 1 (Fail)
//Storyboard Layer 2 (Pass)
//Storyboard Layer 3 (Foreground)
//Storyboard Sound Samples
//Background Colour Transformations
3,100,0,125,125

[TimingPoints]
1199,413.793103448276,4,2,0,60,1,0
17233,-100,4,1,0,60,0,0
17543,-100,4,2,0,60,0,0
42785,-100,4,1,0,70,0,0
44233,-100,4,1,0,60,0,1
57267,-100,4,2,0,100,0,0
63681,-100,4,2,0,100,0,0
70509,-100,4,1,0,70,0,0
70716,-100,4,1,0,70,0,1
96992,-100,4,1,0,0,0,1
100612,-100,4,1,0,0,0,0

[Colours]
Combo1 : 108,108,183
Combo2 : 242,79,0
Combo3 : 0,172,255
Combo4 : 198,0,0

[HitObjects]
192,64,164,2,0,B|128:64,5,60
48,144,1612,2,2,B|64:224|128:240,1,120
224,288,2440,2,0,B|224:352,2,60
344,280,3267,2,2,B|352:200|304:144,1,120
256,64,4095,1,0
256,64,4302,1,0
256,64,4509,6,0,B|336:24|392:64|400:152,1,180,4|0
395,122,5336,2,0,B|408:200|320:224|344:296,1,180,4|0
341,288,6164,2,0,B|328:352|232:376|184:296,1,180,4|0
198,315,6992,1,4
56,120,7819,6,0,B|112:64|160:176|240:136,1,180,4|0
222,142,8647,2,2,B|280:144|304:96,2,90
222,142,9474,6,0,B|200:224|256:280|312:280,1,180,4|0
301,279,10302,2,2,B|368:296|392:272,2,90
272,328,11130,6,4,B|232:360|184:344,2,90
272,328,11957,2,0,B|272:248|208:208|144:224,1,180,4|0
156,221,12785,2,0,B|80:240|40:176|32:112,1,180,4|0
33,122,13612,2,0,B|28:44|119:10|183:52,1,180,4|0
256,192,14440,12,4,17336
256,192,17750,6,4,B|216:152|232:104,2,90
256,192,18578,2,2,B|304:256|248:352|112:336,1,240
40,120,20233,5,2
40,120,20647,1,2
128,40,21061,6,4,B|224:40,2,90
128,40,21888,2,2,B|104:112|152:168|240:192|288:152,1,240
456,320,23543,5,2
456,320,23957,1,2
336,344,24371,6,4,B|280:368|248:328,2,90
336,344,25198,2,2,B|424:312|448:208|376:128,1,240
168,64,26854,5,2
168,64,27267,1,2
64,128,27681,6,4,B|64:224,2,90
64,64,28509,2,4,B|160:64,2,90
64,128,29336,2,2,B|72:232|152:288|248:272,1,240
312,48,30992,6,2,B|424:104|416:256,2,240
256,280,33474,1,0
200,48,34302,6,2,B|88:104|96:256,2,240
256,280,36785,1,0
32,192,37612,6,4,B|128:192,2,90
32,128,38440,2,4,B|32:32,2,90
88,128,39267,2,4,B|184:128,1,90
296,32,40095,6,2,B|432:64|448:224,2,240
256,272,42578,1,0
72,272,43199,6,0,B|72:200,5,60
168,56,44854,6,0,B|232:56,5,60,2|2|2|2|2|2
344,192,46509,6,0,B|408:192,4,60,2|2|2|2|2
280,192,47543,6,4,B|280:96,2,90
280,192,48371,2,4,B|280:288,2,90
280,192,49199,2,0,B|32:192,1,240,4|0
256,96,50854,6,4,B|352:96,2,90
192,96,51681,2,2,B|120:96|72:160,1,120
192,192,52509,6,4,B|96:192,2,90
256,192,53336,2,2,B|320:192|360:256,1,120
256,312,54164,6,4,B|352:312,2,90
256,248,54992,2,4,B|160:248,2,90
256,184,55819,6,2,B|328:176|376:96|328:40|256:32,2,240,2|2|4
216,152,64095,6,2,B|120:152,2,90
296,152,64923,2,2,B|296:56,2,90
296,232,65750,2,2,B|386:232,2,90
216,232,66578,2,2,B|216:328,2,90
216,152,67405,6,4,B|216:56,2,90
296,232,68233,2,4,B|296:328,2,90
360,192,69061,6,4,B|112:192,2,240
256,248,71336,6,0,B|256:184,5,60,2|2|2|2|2|2
88,128,72992,6,0,B|152:128,4,60,2|2|2|2|2
24,128,74026,2,4,B|24:224|64:288|192:288,3,240,6|4|4|4
256,64,77336,6,4,B|360:64,2,90
192,64,78164,1,2
256,168,78578,1,2
256,296,78992,6,4,B|160:296,2,90
320,296,79819,1,2
256,168,80233,1,2
256,48,80647,6,4,B|352:48,2,90
192,48,81474,2,4,B|96:48,2,90
224,96,82302,2,2,B|288:128|304:200|256:272,1,180
268,249,83130,2,2,B|232:312|168:328|104:288,1,180
114,294,83957,1,4
40,128,84578,6,0,B|104:128,5,60,2|2|2|2|2|2
256,40,86233,6,0,B|256:112,4,60,2|2|2|2|2
320,40,87267,2,4,B|416:40,2,90,2|0|0
320,104,88095,2,4,B|320:200,2,90
256,104,88923,2,2,B|8:104,1,240
200,264,90578,6,4,B|104:264,2,90
264,264,91405,2,4,B|264:360,2,90
264,200,92233,2,4,B|360:200,2,90
200,200,93061,2,0,B|200:104,2,90
136,200,93888,6,4,B|40:200,2,90
136,264,94716,2,4,B|136:368,2,90
200,264,95543,2,2,B|272:304|336:272|376:208,1,180
360,230,96371,2,2,B|392:112|304:64,1,180
256,192,97199,12,0,100302
