osu file format v7

[General]
AudioFilename: will.mp3
AudioLeadIn: 1985
PreviewTime: 43199
Countdown: 1
SampleSet: Normal
StackLeniency: 0.7
Mode: 0
LetterboxInBreaks: 1

[Editor]
DistanceSpacing: 1
BeatDivisor: 4
GridSize: 8

[Metadata]
Title:will
Artist:NAOKI
Creator:ouranhshc
Version:Hard
Source:Dance Dance Revolution Hottest Party
Tags:

[Difficulty]
HPDrainRate:6
CircleSize:3
OverallDifficulty:7
SliderMultiplier:2
SliderTickRate:1

[Events]
//Background and Video events
0,0,"will-bg.jpg"
//Break Periods
2,60158,63195
//Storyboard Layer 0 (Background)
//Storyboard Layer 1 (Fail)
//Storyboard Layer 2 (Pass)
//Storyboard Layer 3 (Foreground)
//Storyboard Sound Samples
//Background Colour Transformations
3,100,0,125,125

[TimingPoints]
1199,413.793103448276,4,2,0,60,1,0
17233,-100,4,1,0,60,0,0
17543,-100,4,2,0,60,0,0
41647,-100,4,2,0,0,0,0
42578,-100,4,2,0,60,0,0
42739,-100,4,1,0,70,0,0
44233,-100,4,1,0,70,0,1
57267,-100,4,2,0,100,0,0
63681,-100,4,2,1,100,0,0
70509,-100,4,1,0,70,0,0
70716,-100,4,1,0,70,0,1
99578,-100,4,1,0,0,0,0

[Colours]
Combo1 : 108,108,183
Combo2 : 242,79,0
Combo3 : 0,172,255
Combo4 : 198,0,0

[HitObjects]
256,72,164,1,2
168,128,370,1,2
168,224,577,1,2
256,272,784,1,2
256,168,991,1,2
256,72,1199,6,0,B|328:56|344:192|432:192,1,200,4|0
416,88,1820,2,0,B|504:104|528:208|472:264,1,200,4|0
432,328,2440,1,0
336,360,2647,1,0
256,304,2854,2,0,B|224:240|120:224|72:288,1,200,4|0
160,336,3475,2,0,B|192:288|168:176|88:144,1,200,4|0
32,104,4096,1,0
16,200,4302,1,0
96,264,4509,6,2,B|184:288|232:208,2,150
152,176,5337,2,2,B|184:88|288:104,1,150
416,128,5958,1,2
472,208,6165,2,2,B|464:296|384:320,1,150
256,248,6785,1,2
160,264,6992,2,2,B|72:224|0:304|16:368,1,200
32,152,7820,6,0,B|72:80|176:96,2,150,4|0|0
120,192,8647,2,0,B|272:192,1,150
384,88,9268,1,0
456,152,9475,2,0,B|488:240|416:304,2,150,4|0|0
368,192,10302,2,0,B|216:192,1,150
112,296,10923,1,0
208,328,11130,6,0,B|272:336|312:272|352:272,2,150,4|0|0
216,232,11958,2,0,B|168:216|160:144|104:136,2,150,4|0|0
224,128,12785,2,0,B|248:56|320:40|392:80,2,200,4|4|4
416,192,14027,1,0
256,192,14440,12,4,17337
256,344,17751,6,0,B|352:352|392:288,1,150
280,192,18371,1,0
280,88,18578,2,2,B|368:104|384:192,2,150
280,88,19406,1,0
88,304,20234,5,4
88,80,20647,1,4
256,192,21061,6,0,B|408:192,2,150
256,88,21889,1,2
112,40,22199,1,2
32,168,22509,1,2
32,168,22716,1,0
424,304,23543,5,4
424,80,23956,1,4
208,112,24371,6,0,B|264:176|352:152,1,150
472,232,24992,1,0
472,232,25199,2,2,B|432:312|336:296,1,150
200,336,25820,1,2
104,304,26027,2,0,B|40:224|144:120,1,200
448,104,26854,5,4
408,192,27061,1,0
448,280,27268,1,4
256,344,27682,6,0,B|328:352|376:264,2,150
160,328,28509,1,2
40,232,28820,1,2
40,80,29130,1,2
40,80,29337,6,0,B|144:40|216:152,1,200,2|2
256,232,29958,1,0
301,144,30165,2,0,B|368:40|472:80,1,200,2|2
456,280,30992,6,2,B|416:360|312:352,1,150
184,352,31613,1,0
184,352,31820,2,2,B|184:264|264:208,1,150
368,128,32440,1,0
320,40,32647,2,4,B|208:-8|120:80,1,200
64,136,33268,1,0
32,232,33475,2,0,B|56:336|184:360,1,200,4|0
280,192,34303,6,0,B|336:256|440:216,2,150,2|2|0
208,128,35130,1,2
328,32,35440,1,2
448,120,35751,1,0
448,120,35958,2,2,B|488:200|440:272,1,150
312,336,36578,1,0
312,336,36785,2,4,B|192:376|136:256,1,200,4|0
304,152,37613,6,2,B|248:80|160:136,1,150
32,192,38234,1,0
32,192,38440,2,2,B|96:248|176:232,1,150
256,352,39061,1,0
256,352,39268,2,2,B|168:376|112:312,1,150
256,112,40096,6,4,B|320:64|416:96,2,150
176,176,40923,2,0,B|120:272|208:344,2,150,4|0|0
256,192,41751,12,0,42578
256,56,43199,5,0
192,136,43406,1,0
104,192,43613,1,0
192,248,43820,2,2,B|256:328,2,100
400,40,44854,6,0,B|456:128|400:240,1,200
352,320,45475,1,2
256,352,45682,1,2
160,320,45889,1,2
96,40,46509,6,0,B|40:128|96:240,1,200
160,320,47130,1,0
256,352,47337,1,0
352,320,47544,6,4,B|448:304|464:200,2,150
160,320,48371,2,4,B|64:304|48:200,2,150
208,232,49199,1,4
256,88,49509,1,4
304,232,49820,1,4
256,320,50027,1,4
80,64,50854,6,0,B|32:136|64:216,1,150
208,200,51475,1,0
208,200,51682,2,2,B|264:272|352:256,2,150
208,96,52509,1,0
344,40,52820,2,0,B|432:64|440:152,1,150
440,240,53337,2,2,B|408:320|304:312,2,150
392,152,54165,5,4
256,80,54475,1,4
120,152,54785,1,4
120,152,54992,2,2,B|144:224|232:256,1,150
376,248,55613,1,0
456,192,55820,2,2,B|424:120|320:112|280:192,1,200
256,272,56440,1,0
220,173,56647,2,2,B|192:112|88:120|56:192,1,200
256,192,57475,12,0,59958
176,320,64095,6,2,B|112:320|136:192|104:192,2,150
336,320,64923,2,2,B|400:320|376:192|408:192,2,150
216,232,65750,1,2
256,88,66061,1,2
296,232,66371,1,2
256,328,66578,5,4
256,328,66888,1,4
256,328,67199,1,4
256,200,67406,6,2,B|376:104,2,150
256,200,68233,2,2,B|136:104,2,150
160,232,69061,6,4,B|104:168|61:249|184:352,1,200
256,288,69682,1,0
352,232,69888,2,0,B|408:168|450:249|328:352,1,200,4|0
256,144,70716,5,0
456,152,71337,1,0
408,240,71544,1,0
320,280,71751,1,0
344,184,71958,2,2,B|344:80,2,100
80,48,72992,6,0,B|16:128|96:240,1,200
168,296,73613,1,0
208,200,73820,1,0
168,112,74027,6,4,B|216:56|312:88,2,150
256,160,74854,2,4,B|328:200|400:160,2,150
168,208,75682,1,4
96,344,75992,1,4
248,344,76303,1,4
248,344,76509,1,4
496,32,77337,6,2,B|408:16|352:64,1,150
496,112,77958,1,0
496,112,78165,2,2,B|496:192|416:232,1,150
272,192,78785,1,0
224,104,78992,2,0,B|144:128|128:224,2,150,2|2|0
296,40,79820,2,2,B|384:32|440:96,1,150
472,232,80440,1,0
472,232,80647,6,2,B|440:288|336:288,1,150
192,320,81268,2,0,B|104:264,1,100
56,128,81785,2,2,B|104:64|192:64,1,150
168,160,82303,2,4,B|232:256|352:240,1,200
424,192,82923,1,0
339,142,83130,2,0,B|232:128|168:224,1,200,4|0
72,192,83751,1,0
72,192,83958,1,0
320,24,84578,6,0,B|248:96|120:64,1,200
40,96,85199,1,2
16,192,85406,1,2
40,288,85613,1,2
336,344,86234,6,0,B|448:296|424:160,1,200
328,168,86854,1,0
256,96,87061,1,0
184,168,87268,6,4,B|144:120|184:24,2,150
96,216,88096,2,4,B|80:304|144:360,2,150
40,136,88923,2,2,B|72:88|184:104,1,150
320,48,89544,1,0
320,48,89751,2,0,B|424:96|400:216,1,200,2|0
224,304,90578,6,2,B|272:376|368:360,1,150
472,264,91199,1,0
472,264,91406,2,2,B|496:168|432:120,1,150
288,144,92027,1,0
264,48,92234,2,4,B|192:8|104:64,2,150
288,144,93061,1,0
224,280,93371,1,0
96,200,93682,1,0
96,200,93889,6,2,B|104:112|184:88,1,150
280,200,94509,2,0,B|384:184,1,100
368,336,95027,2,2,B|280:376|208:296,1,150
128,328,95544,5,0
128,328,95751,1,0
48,264,95958,1,0
48,264,96165,1,0
48,160,96371,1,0
48,160,96578,1,0
128,96,96785,1,0
128,96,96992,1,0
208,160,97199,6,0,B|264:160,2,50,2|0|0
208,360,97820,2,0,B|152:360,2,50,2|0|0
392,272,98440,2,0,B|336:272,2,50,2|0|0
392,72,99061,2,0,B|448:72,2,50,2|0|0
256,192,99682,12,0,101750
