osu file format v14

[General]
AudioFilename: optc.mp3
AudioLeadIn: 0
PreviewTime: 68075
Countdown: 0
SampleSet: Soft
StackLeniency: 0.7
Mode: 0
LetterboxInBreaks: 0
WidescreenStoryboard: 0

[Editor]
Bookmarks: 1450,10284,22063,33842,45621,57400,69180,80959,95683,107830
DistanceSpacing: 2
BeatDivisor: 4
GridSize: 32
TimelineZoom: 4.499999

[Metadata]
Title:sail to a new world(game ver.)
TitleUnicode:sail to a new world(game ver.)
Artist:NANA
ArtistUnicode:NANA
Creator:Shad0w1and
Version:Kaikou
Source:イブニクル
Tags:Evenicle アリスソフト AliceSoft Alice Soft Misure TT Mouse Pata-Mon Narcissu
BeatmapID:1192248
BeatmapSetID:563850

[Difficulty]
HPDrainRate:6
CircleSize:4
OverallDifficulty:8
ApproachRate:9.2
SliderMultiplier:1.4
SliderTickRate:1

[Events]
//Background and Video events
0,0,"BG1.jpg",0,0
Video,0,"optc.flv"
//Break Periods
//Storyboard Layer 0 (Background)
//Storyboard Layer 1 (Fail)
//Storyboard Layer 2 (Pass)
//Storyboard Layer 3 (Foreground)
//Storyboard Sound Samples

[TimingPoints]
1450,368.098159509202,4,2,1,50,1,0
1450,-66.6666666666667,4,2,1,50,0,0
8811,-66.6666666666667,4,2,1,60,0,0
10284,-52.6315789473684,4,2,1,70,0,0
18934,-55.5555555555556,4,2,1,60,0,0
22063,-62.5,4,2,1,50,0,0
33842,-58.8235294117647,4,2,1,60,0,0
45621,-66.6666666666667,4,2,1,50,0,0
54456,-62.5,4,2,1,60,0,0
57400,-55.5555555555556,4,2,1,70,0,0
63290,-58.8235294117647,4,2,1,80,0,0
66971,-62.5,4,2,1,80,0,0
67523,-50,4,2,1,80,0,0
68259,-58.8235294117647,4,2,1,80,0,0
68996,-50,4,2,1,80,0,1
78382,-55.5555555555556,4,2,1,70,0,1
78934,-62.5,4,2,1,60,0,1
79302,-52.6315789473684,4,2,1,50,0,0
80038,-50,4,2,1,60,0,0
80775,-50,4,2,1,80,0,1
86848,-62.5,4,2,1,70,0,0
89793,-50,4,2,1,80,0,1
95683,-52.6315789473684,4,2,1,70,0,0
107830,-55.5555555555556,4,2,1,60,0,0
113351,-55.5555555555556,4,2,1,10,0,0

[Colours]
Combo1 : 255,255,128
Combo2 : 128,255,128
Combo3 : 111,183,255
Combo4 : 255,128,128

[HitObjects]
457,88,1450,6,0,L|411:341,1,210.000008010865,6|0,0:0|0:0,0:0:0:0:
235,143,2002,2,0,L|304:150,1,52.5000020027161,0|0,0:0|0:0,0:0:0:0:
120,213,2186,6,0,P|78:179|69:131,1,105.000004005432
235,143,2462,2,0,P|227:205|223:268,1,105.000004005432
350,165,2738,2,0,P|379:162|424:160,1,52.5000020027161,4|0,0:0|0:0,0:0:0:0:
228,357,2922,6,0,P|137:312|120:212,1,210.000008010865,6|0,0:0|0:0,0:0:0:0:
258,117,3474,1,0,0:0:0:0:
366,384,3658,2,0,B|417:267|404:188|404:188|371:245|321:260,1,315.000012016297,0|0,0:0|0:0,0:0:0:0:
141,159,4394,6,0,B|126:135|103:117|103:117|177:101|264:117,1,210.000008010865,6|0,0:0|0:0,0:0:0:0:
172,39,4946,2,0,B|141:32|113:15|113:15|129:75|142:172,1,210.000008010865,0|0,0:0|0:0,0:0:0:0:
38,135,5499,2,0,B|91:120|159:129|159:129|120:185,1,157.500006008148,0|0,0:0|0:0,0:0:0:0:
214,289,5867,6,0,B|264:260|264:260|257:224|258:188|258:188|215:213,1,157.500006008148,6|0,0:0|0:0,0:0:0:0:
208,323,6235,2,0,P|290:311|391:308,1,157.500006008148,0|0,0:0|0:0,0:0:0:0:
255,115,6603,2,0,B|205:144|205:144|212:180|211:216|211:216|254:191,1,157.500006008148,6|0,0:0|0:0,0:0:0:0:
261,81,6971,2,0,P|179:93|78:96,1,157.500006008148,0|0,0:0|0:0,0:0:0:0:
208,323,7339,6,0,P|304:306|359:193,1,210.000008010865,6|0,0:0|0:0,0:0:0:0:
290,67,7891,1,0,0:0:0:0:
234,202,8075,2,0,B|183:233|137:222|137:222|166:175|170:107|170:107|139:142|84:150,1,315.000012016297,0|0,0:0|0:0,0:0:0:0:
18,239,8811,5,2,0:0:0:0:
34,11,8996,1,0,0:0:0:0:
57,21,9088,1,0,0:0:0:0:
81,30,9180,1,8,0:0:0:0:
281,183,9364,1,0,0:0:0:0:
258,193,9456,1,0,0:0:0:0:
234,202,9548,5,2,0:0:0:0:
259,235,9640,1,0,0:0:0:0:
278,272,9732,1,0,0:0:0:0:
289,312,9824,1,0,0:0:0:0:
293,353,9916,1,2,0:0:0:0:
325,326,10008,1,0,0:0:0:0:
358,300,10100,1,0,0:0:0:0:
390,273,10192,1,0,0:0:0:0:
432,240,10284,6,0,B|436:193|405:156|405:156|427:104,1,132.999996448517,14|0,0:3|0:0,0:0:0:0:
512,181,10560,1,0,0:0:0:0:
512,181,10652,1,8,0:0:0:0:
315,234,10836,6,0,P|241:218|165:213,1,132.999996448517,0|4,0:0|0:0,0:0:0:0:
59,170,11112,1,0,0:0:0:0:
59,170,11204,2,0,P|66:209|72:257,1,66.4999982242585,0|0,0:0|0:0,0:0:0:0:
26,351,11388,2,0,P|91:355|148:322,1,132.999996448517,8|0,0:0|0:0,0:0:0:0:
184,213,11664,1,0,0:0:0:0:
184,213,11756,6,0,P|203:204|272:197,1,66.4999982242585,6|0,0:0|0:0,0:0:0:0:
81,144,11940,2,0,P|44:151|-7:153,1,66.4999982242585
204,81,12124,2,0,L|183:212,1,132.999996448517,8|0,0:0|0:0,0:0:0:0:
260,312,12400,1,0,0:0:0:0:
260,312,12492,6,0,P|338:307|393:260,1,132.999996448517,4|0,0:0|0:0,0:0:0:0:
429,181,12769,1,0,0:0:0:0:
429,181,12861,2,0,P|369:147|320:103,1,132.999996448517,8|0,0:0|0:0,0:0:0:0:
291,204,13137,1,0,0:0:0:0:
291,204,13229,6,0,L|192:204,1,66.4999982242585,6|0,0:0|0:0,0:0:0:0:
110,108,13413,2,0,L|203:108,1,66.4999982242585
311,31,13597,2,0,L|215:31,1,66.4999982242585,8|0,0:0|0:0,0:0:0:0:
291,204,13781,1,0,0:0:0:0:
291,204,13873,1,0,0:0:0:0:
291,204,13965,6,0,P|352:180|320:140,1,132.999996448517,4|0,0:0|0:0,0:0:0:0:
185,211,14241,1,0,0:0:0:0:
185,211,14333,2,0,P|192:246|199:305,1,66.4999982242585,8|0,0:0|0:0,0:0:0:0:
324,319,14517,6,0,P|361:307|398:285,2,66.4999982242585,2|0|4,0:0|0:0|0:0,0:0:0:0:
291,204,14885,2,0,P|321:180|348:146,2,66.4999982242585,2|0|8,0:0|0:0|0:0,0:0:0:0:
220,107,15253,2,0,P|240:74|254:33,2,66.4999982242585,2|0|4,0:0|0:0|0:0,0:0:0:0:
25,135,15621,6,0,P|51:169|65:204,1,66.4999982242585,2|0,0:0|0:0,0:0:0:0:
146,283,15805,2,0,P|168:256|186:224,1,66.4999982242585,10|0,0:0|0:0,0:0:0:0:
154,112,15989,2,0,P|196:106|244:111,1,66.4999982242585,2|0,0:0|0:0,0:0:0:0:
291,204,16173,6,0,P|369:189|411:123,1,132.999996448517,6|0,0:1|0:0,0:0:0:0:
264,6,16542,1,8,0:0:0:0:
264,6,16726,6,0,P|296:6|363:1,1,66.4999982242585
219,106,16910,1,4,0:0:0:0:
219,106,17094,2,0,P|236:145|244:190,1,66.4999982242585
185,254,17278,1,8,0:0:0:0:
185,254,17462,2,0,P|137:241|103:237,1,66.4999982242585,0|0,0:0|0:0,0:0:0:0:
124,359,17646,5,6,0:0:0:0:
303,277,17830,1,0,0:0:0:0:
120,238,18014,1,8,0:0:0:0:
228,384,18198,1,0,0:0:0:0:
287,179,18382,1,4,0:0:0:0:
83,164,18566,2,0,B|71:217|86:257|86:257|106:240|137:234,1,132.999996448517,2|8,0:0|0:0,0:0:0:0:
162,341,18842,1,0,0:0:0:0:
162,341,18934,6,0,P|234:377|256:211,1,314.999990386963,6|0,0:1|0:0,0:0:0:0:
310,141,19486,5,0,0:0:0:0:
310,141,19578,1,0,0:0:0:0:
310,141,19670,2,0,P|340:252|233:293,1,251.999992309571,2|0,0:0|0:0,0:0:0:0:
263,213,20223,5,0,0:0:0:0:
263,213,20315,1,0,0:0:0:0:
263,213,20407,2,0,P|380:189|341:63,1,251.999992309571,6|0,0:0|0:0,0:0:0:0:
137,213,20959,6,0,L|263:213,1,125.999996154785,2|0,0:0|0:0,0:0:0:0:
241,79,21327,2,0,L|367:79,1,125.999996154785,2|0,0:0|0:0,0:0:0:0:
117,51,21695,2,0,L|243:51,1,125.999996154785,2|0,0:0|0:0,0:0:0:0:
84,311,22063,6,0,P|45:272|34:218,1,112,6|0,0:0|0:0,0:0:0:0:
123,155,22339,1,0,0:0:0:0:
123,155,22431,2,0,P|175:154|247:140,1,112,2|0,0:1|0:0,0:0:0:0:
374,276,22799,1,4,0:0:0:0:
192,257,22983,1,0,0:0:0:0:
360,153,23167,1,2,0:1:0:0:
282,345,23351,1,0,0:0:0:0:
282,345,23443,1,0,0:0:0:0:
282,345,23535,6,0,P|220:334|139:332,1,112,6|0,0:0|0:0,0:0:0:0:
212,144,23903,2,0,P|261:169|290:216,1,112,2|0,0:1|0:0,0:0:0:0:
400,297,24272,2,0,P|448:277|544:266,1,112,4|0,0:0|0:0,0:0:0:0:
321,111,24640,2,0,P|292:174|295:245,1,112,2|0,0:1|0:0,0:0:0:0:
171,331,25008,6,0,P|106:310|36:307,1,112,6|0,0:0|0:0,0:0:0:0:
146,226,25284,1,0,0:0:0:0:
146,226,25376,2,0,P|168:157|174:107,1,112,2|0,0:1|0:0,0:0:0:0:
69,28,25744,1,4,0:0:0:0:
40,198,25928,1,0,0:0:0:0:
173,117,26112,1,2,0:1:0:0:
0,105,26296,1,0,0:0:0:0:
146,226,26480,6,0,P|207:209|283:196,1,112,6|0,0:0|0:0,0:0:0:0:
375,152,26756,1,0,0:0:0:0:
375,152,26848,2,0,P|363:209|350:290,1,112,2|0,0:1|0:0,0:0:0:0:
250,321,27216,2,0,P|189:338|114:307,1,112,4|0,0:0|0:0,0:0:0:0:
130,127,27584,2,0,P|191:110|266:141,1,112,2|0,0:1|0:0,0:0:0:0:
192,223,27861,1,0,0:0:0:0:
192,223,27953,6,0,P|137:240|54:218,1,112,6|0,0:0|0:0,0:0:0:0:
13,144,28229,1,0,0:0:0:0:
13,144,28321,2,0,P|6:219|-9:282,1,112,2|0,0:1|0:0,0:0:0:0:
142,326,28689,1,4,0:0:0:0:
130,127,28873,6,0,P|122:97|112:49,2,56,0|0|2,0:0|0:0|0:1,0:0:0:0:
0,254,29241,1,0,0:0:0:0:
4,67,29425,2,0,P|49:72|134:71,1,112,6|0,0:0|0:0,0:0:0:0:
254,199,29793,6,0,L|326:177,1,56,2|0,0:1|0:0,0:0:0:0:
272,83,29977,2,0,L|339:56,2,56,6|0|4,0:0|0:0|0:0,0:0:0:0:
82,280,30345,6,0,L|10:258,1,56,2|0,0:1|0:0,0:0:0:0:
64,164,30529,2,0,L|-3:137,2,56,6|0|0,0:0|0:0|0:0,0:0:0:0:
179,210,30805,1,0,0:0:0:0:
179,210,30897,6,0,B|151:224|132:253|132:253|146:188|140:137|140:137|162:128|189:131,1,224,6|0,0:0|0:0,0:0:0:0:
288,194,31449,6,0,L|282:285,1,56
181,130,31634,2,0,L|189:51,1,56
64,164,31818,2,0,L|56:243,1,56
83,43,32002,5,2,0:1:0:0:
70,36,32094,1,2,0:1:0:0:
54,29,32186,1,4,0:0:0:0:
290,79,32370,6,0,P|320:72|359:57,1,56,6|0,0:0|0:0,0:0:0:0:
391,149,32554,2,0,P|424:151|474:144,1,56
288,194,32738,2,0,P|270:264|262:333,1,112,8|0,0:0|0:0,0:0:0:0:
175,229,33014,1,0,0:0:0:0:
175,229,33106,6,0,L|98:218,1,56,2|0,0:0|0:0,0:0:0:0:
67,342,33290,2,0,L|141:332,1,56,0|0,0:0|0:0,0:0:0:0:
0,243,33474,5,8,0:3:0:0:
0,198,33566,1,0,0:0:0:0:
11,156,33658,1,0,0:0:0:0:
40,122,33750,1,0,0:0:0:0:
79,101,33842,6,0,P|146:117|211:122,1,119.000002269745,6|0,0:0|0:0,0:0:0:0:
303,181,34118,1,0,0:0:0:0:
303,181,34210,2,0,P|235:205|203:248,1,119.000002269745,8|0,0:0|0:0,0:0:0:0:
0,243,34578,5,4,0:0:0:0:
192,337,34762,1,0,0:0:0:0:
195,121,34946,1,8,0:0:0:0:
67,342,35130,1,0,0:0:0:0:
67,342,35223,1,0,0:0:0:0:
67,342,35315,6,0,P|31:331|-10:323,1,59.5000011348725,6|0,0:0|0:0,0:0:0:0:
119,221,35499,2,0,P|79:224|45:224,1,59.5000011348725,0|0,0:0|0:0,0:0:0:0:
192,337,35683,1,8,0:0:0:0:
195,121,35867,1,0,0:0:0:0:
67,342,36051,1,4,0:0:0:0:
320,312,36235,5,0,0:0:0:0:
320,312,36327,1,0,0:0:0:0:
320,312,36419,2,0,P|362:278|381:208,1,119.000002269745,8|0,0:0|0:0,0:0:0:0:
485,241,36695,1,0,0:0:0:0:
485,241,36787,6,0,L|486:314,1,59.5000011348725,6|0,0:0|0:0,0:0:0:0:
361,193,36971,2,0,L|362:120,1,59.5000011348725,0|0,0:0|0:0,0:0:0:0:
320,312,37155,2,0,L|321:385,1,59.5000011348725,8|0,0:0|0:0,0:0:0:0:
196,264,37339,2,0,L|197:191,1,59.5000011348725,0|0,0:0|0:0,0:0:0:0:
150,376,37523,5,4,0:0:0:0:
68,188,37707,1,0,0:0:0:0:
266,203,37891,1,8,0:0:0:0:
83,296,38075,5,0,0:0:0:0:
83,296,38167,1,0,0:0:0:0:
83,296,38259,2,0,P|36:282|-10:274,1,59.5000011348725,6|0,0:0|0:0,0:0:0:0:
167,157,38443,2,0,P|172:196|162:236,1,59.5000011348725,0|0,0:0|0:0,0:0:0:0:
68,188,38627,5,8,0:0:0:0:
289,178,38811,1,0,0:0:0:0:
201,334,38996,1,4,0:0:0:0:
201,334,39088,1,0,0:0:0:0:
201,334,39180,1,0,0:0:0:0:
82,80,39364,5,8,0:0:0:0:
41,105,39456,1,0,0:0:0:0:
12,142,39548,1,0,0:0:0:0:
0,187,39640,1,0,0:0:0:0:
0,235,39732,6,0,P|65:246|152:292,1,119.000002269745,6|0,0:1|0:0,0:0:0:0:
146,380,40008,1,0,0:0:0:0:
146,380,40100,2,0,P|209:375|277:348,1,119.000002269745,8|0,0:0|0:0,0:0:0:0:
377,332,40376,1,0,0:0:0:0:
377,332,40468,5,4,0:0:0:0:
304,158,40652,1,0,0:0:0:0:
219,292,40836,1,8,0:0:0:0:
472,204,41020,1,0,0:0:0:0:
472,204,41112,1,0,0:0:0:0:
472,204,41204,6,0,P|458:137|452:75,1,119.000002269745,6|0,0:0|0:0,0:0:0:0:
292,40,41572,2,0,P|254:33|208:28,1,59.5000011348725,8|0,0:0|0:0,0:0:0:0:
304,158,41756,2,0,P|336:153|369:153,1,59.5000011348725,0|0,0:0|0:0,0:0:0:0:
211,230,41940,5,4,0:0:0:0:
292,40,42124,1,0,0:0:0:0:
332,277,42308,1,8,0:0:0:0:
79,120,42492,1,0,0:0:0:0:
79,120,42584,1,0,0:0:0:0:
79,120,42676,6,0,P|141:112|225:110,1,119.000002269745,6|0,0:0|0:0,0:0:0:0:
292,40,42953,1,0,0:0:0:0:
292,40,43045,2,0,P|263:19|233:-8,1,59.5000011348725,8|0,0:0|0:0,0:0:0:0:
304,158,43229,2,0,P|337:159|395:149,1,59.5000011348725,0|0,0:0|0:0,0:0:0:0:
413,52,43413,5,4,0:0:0:0:
211,230,43597,1,0,0:0:0:0:
472,204,43781,1,8,0:0:0:0:
201,68,43965,6,0,P|220:180|225:246,1,178.500003404617,6|0,0:1|0:0,0:0:0:0:
133,320,44333,1,2,0:1:0:0:
363,156,44517,1,8,0:0:0:0:
79,120,44701,1,4,0:0:0:0:
255,363,44885,5,4,0:0:0:0:
290,342,44977,1,0,0:0:0:0:
323,316,45069,1,0,0:0:0:0:
351,285,45161,1,0,0:0:0:0:
374,251,45253,6,0,B|400:199|394:143|394:143|382:177|351:198,1,178.500003404617,8|0,0:0|0:0,0:0:0:0:
284,117,45621,6,0,B|331:125|369:99|369:99|395:121|395:121|438:110|500:122,1,210.000008010865,10|0,0:3|0:0,0:0:0:0:
351,285,46173,2,0,P|343:319|341:357,1,52.5000020027161,0|0,0:0|0:0,0:0:0:0:
244,270,46357,6,0,P|216:277|171:281,4,52.5000020027161,8|0|0|0|0,0:1|0:0|0:0|0:0|0:0,0:0:0:0:
90,125,46910,1,0,0:0:0:0:
29,310,47094,6,0,P|67:273|97:229,2,105.000004005432,6|0|0,0:0|0:0|0:0,0:0:0:0:
0,182,47646,1,4,0:0:0:0:
145,384,47830,6,0,P|191:358|287:364,1,105.000004005432,8|0,0:1|0:0,0:0:0:0:
346,365,48106,2,0,P|384:332|412:253,1,105.000004005432,0|0,0:0|0:0,0:0:0:0:
354,195,48382,2,0,P|321:196|266:190,1,52.5000020027161,0|0,0:0|0:0,0:0:0:0:
181,171,48566,6,0,P|203:126|223:51,2,105.000004005432,6|0|0,0:0|0:0|0:0,0:0:0:0:
124,11,49118,1,0,0:0:0:0:
301,194,49302,2,0,P|316:243|324:337,1,105.000004005432,8|0,0:1|0:0,0:0:0:0:
413,219,49670,6,0,L|466:219,1,52.5000020027161
379,109,49854,2,0,L|432:109,1,52.5000020027161,4|0,0:0|0:0,0:0:0:0:
301,194,50038,1,2,0:0:0:0:
140,158,50223,6,0,L|87:158,1,52.5000020027161,4|0,0:0|0:0,0:0:0:0:
218,73,50407,1,2,0:1:0:0:
301,194,50591,6,0,L|354:194,1,52.5000020027161,4|0,0:0|0:0,0:0:0:0:
222,287,50775,2,0,L|169:287,1,52.5000020027161,8|0,0:1|0:0,0:0:0:0:
181,171,50959,1,0,0:0:0:0:
404,313,51143,6,0,P|445:289|474:215,1,105.000004005432,4|0,0:0|0:0,0:0:0:0:
463,135,51419,1,0,0:0:0:0:
463,135,51511,6,0,P|406:130|332:117,1,105.000004005432,6|0,0:0|0:0,0:0:0:0:
222,287,51879,1,0,0:0:0:0:
404,313,52063,2,0,P|411:287|417:227,1,52.5000020027161,0|0,0:0|0:0,0:0:0:0:
301,194,52247,6,0,P|249:155|228:90,1,105.000004005432,8|0,0:1|0:0,0:0:0:0:
161,40,52523,2,0,P|220:15|287:29,1,105.000004005432,0|0,0:0|0:0,0:0:0:0:
371,0,52799,2,0,P|367:51|347:93,1,52.5000020027161,0|0,0:0|0:0,0:0:0:0:
232,119,52983,6,0,P|264:169|275:247,1,105.000004005432,6|0,0:0|0:0,0:0:0:0:
415,261,53351,1,0,0:0:0:0:
358,122,53535,1,4,0:0:0:0:
137,219,53719,6,0,P|96:209|56:163,1,105.000004005432,8|0,0:1|0:0,0:0:0:0:
232,119,53996,1,0,0:0:0:0:
232,119,54088,2,0,L|227:206,1,52.5000020027161,4|0,0:0|0:0,0:0:0:0:
344,220,54272,2,0,L|342:149,1,52.5000020027161,0|0,0:0|0:0,0:0:0:0:
296,27,54456,6,0,P|239:12|173:31,1,112,6|0,0:0|0:0,0:0:0:0:
285,314,54824,2,0,P|341:331|408:310,1,112,8|0,0:1|0:0,0:0:0:0:
232,119,55192,1,4,0:0:0:0:
173,325,55376,1,4,0:0:0:0:
344,220,55560,1,8,0:1:0:0:
137,219,55744,6,0,P|91:167|95:87,1,112,6|0,0:0|0:0,0:0:0:0:
342,167,56112,1,4,0:0:0:0:
256,325,56296,2,0,P|245:295|237:251,1,56,8|0,0:0|0:0,0:0:0:0:
215,69,56480,2,0,P|208:96|197:122,1,56,2|0,0:1|0:0,0:0:0:0:
101,236,56664,6,0,L|78:213,7,28,2|0|0|0|0|0|0|0,0:0|0:0|0:0|0:0|0:0|0:0|0:0|0:0,0:0:0:0:
99,272,57032,6,0,P|132:262|167:257,1,56,10|0,0:3|0:0,0:0:0:0:
349,285,57216,1,0,0:0:0:0:
349,285,57308,1,0,0:0:0:0:
349,285,57400,6,0,P|425:252|447:213,1,125.999996154785,4|0,0:1|0:0,0:0:0:0:
354,105,57676,1,0,0:0:0:0:
354,105,57769,2,0,P|344:139|341:179,1,62.9999980773926,8|0,0:0|0:0,0:0:0:0:
235,231,57953,2,0,P|214:188|191:153,1,62.9999980773926
119,338,58137,6,0,P|182:344|259:365,1,125.999996154785,4|0,0:0|0:0,0:0:0:0:
235,231,58413,1,0,0:0:0:0:
235,231,58505,2,0,P|186:236|153:247,1,62.9999980773926,8|0,0:0|0:0,0:0:0:0:
358,291,58689,1,0,0:0:0:0:
358,291,58781,1,0,0:0:0:0:
358,291,58873,6,0,P|347:229|340:141,1,125.999996154785,6|0,0:0|0:0,0:0:0:0:
449,146,59149,1,0,0:0:0:0:
449,146,59241,2,0,P|440:185|425:219,1,62.9999980773926,8|0,0:0|0:0,0:0:0:0:
369,51,59425,1,0,0:0:0:0:
369,51,59517,1,0,0:0:0:0:
369,51,59609,6,0,P|312:48|231:33,1,125.999996154785,4|0,0:0|0:0,0:0:0:0:
340,166,59885,1,0,0:0:0:0:
340,166,59977,2,0,P|352:204|359:240,1,62.9999980773926,8|0,0:0|0:0,0:0:0:0:
449,146,60161,2,0,P|487:141|525:144,1,62.9999980773926,0|0,0:0|0:0,0:0:0:0:
335,333,60345,6,0,P|274:306|241:240,1,125.999996154785,6|0,0:0|0:0,0:0:0:0:
149,176,60621,1,0,0:0:0:0:
149,176,60713,2,0,P|141:218|138:259,1,62.9999980773926,8|0,0:0|0:0,0:0:0:0:
52,371,60897,1,0,0:0:0:0:
52,371,60989,1,0,0:0:0:0:
52,371,61081,6,0,P|116:355|198:353,1,125.999996154785,4|0,0:0|0:0,0:0:0:0:
244,257,61357,1,0,0:0:0:0:
244,257,61449,2,0,P|276:279|315:295,1,62.9999980773926,8|0,0:0|0:0,0:0:0:0:
52,371,61634,6,0,P|42:320|33:226,1,125.999996154785,4|0,0:1|0:0,0:0:0:0:
215,69,62002,1,4,0:0:0:0:
175,351,62186,5,10,0:0:0:0:
84,126,62370,1,4,0:0:0:0:
297,289,62554,1,10,0:0:0:0:
33,246,62738,2,0,P|3:224|-15:204,1,62.9999980773926,4|0,0:0|0:0,0:0:0:0:
149,176,62922,5,8,0:0:0:0:
143,226,63014,1,8,0:0:0:0:
129,275,63106,1,8,0:0:0:0:
110,321,63198,1,8,0:0:0:0:
86,364,63290,5,6,0:1:0:0:
13,98,64578,1,4,0:0:0:0:
297,289,64762,5,4,0:1:0:0:
297,289,66235,6,0,B|186:309|143:252|143:252|180:254|214:246,1,238.00000453949,6|0,0:0|0:0,0:0:0:0:
117,348,66787,2,0,P|92:331|73:308,1,59.5000011348725,4|0,0:0|0:0,0:0:0:0:
37,188,66971,6,0,B|1:244|30:306|30:306|86:310,1,168,6|0,0:0|0:0,0:0:0:0:
144,252,67339,1,4,0:0:0:0:
213,246,67523,6,0,B|194:281|191:312|191:312|160:288|107:285|107:285|132:274|145:250,1,210,10|0,0:3|0:0,0:0:0:0:
280,269,67891,6,0,B|316:274|316:274|301:240|296:199|296:199|247:237|201:249,1,210,2|0,0:0|0:0,0:0:0:0:
288,341,68259,6,0,B|333:355|364:327|364:327|357:349|355:367,2,119.000002269745,2|0|0,0:0|0:0|0:0,0:0:0:0:
55,326,68811,1,8,0:1:0:0:
55,326,68903,1,8,0:1:0:0:
55,326,68996,6,0,P|41:240|36:167,1,140,4|0,0:1|0:0,0:0:0:0:
232,73,69364,1,2,0:1:0:0:
213,246,69548,2,0,P|169:249|120:245,1,70,8|0,0:0|0:0,0:0:0:0:
288,341,69732,2,0,P|323:355|381:367,1,70
114,363,69916,5,4,0:0:0:0:
64,339,70008,1,0,0:0:0:0:
31,295,70100,1,0,0:0:0:0:
20,240,70192,1,0,0:0:0:0:
36,187,70284,1,8,0:0:0:0:
364,293,70468,1,0,0:0:0:0:
364,293,70560,1,0,0:0:0:0:
364,293,70652,6,0,P|356:342|352:384,1,70,6|0,0:0|0:0,0:0:0:0:
252,195,70836,1,0,0:0:0:0:
252,195,70928,1,0,0:0:0:0:
252,195,71020,2,0,P|286:167|319:123,1,70,8|0,0:0|0:0,0:0:0:0:
213,332,71204,1,0,0:0:0:0:
213,332,71296,1,0,0:0:0:0:
213,332,71388,6,0,P|165:319|123:309,1,70,4|0,0:0|0:0,0:0:0:0:
21,266,71572,2,0,P|56:230|85:199,1,70
169,122,71756,2,0,P|181:170|194:211,1,70,8|0,0:0|0:0,0:0:0:0:
146,315,71940,1,0,0:0:0:0:
146,315,72032,1,0,0:0:0:0:
146,315,72124,6,0,P|212:288|297:275,1,140,6|0,0:0|0:0,0:0:0:0:
235,147,72400,1,0,0:0:0:0:
235,147,72492,2,0,P|196:134|155:114,1,70,8|0,0:0|0:0,0:0:0:0:
0,210,72676,2,0,P|35:214|69:216,1,70
184,8,72861,6,0,P|121:17|67:73,1,140,4|0,0:0|0:0,0:0:0:0:
69,216,73137,1,0,0:0:0:0:
69,216,73229,2,0,P|80:253|90:298,1,70,8|0,0:0|0:0,0:0:0:0:
235,147,73413,5,0,0:0:0:0:
235,147,73505,1,0,0:0:0:0:
235,147,73597,2,0,P|271:140|305:136,1,70,6|0,0:0|0:0,0:0:0:0:
112,126,73781,2,0,P|87:98|67:70,1,70
153,242,73965,2,0,P|141:276|127:308,1,70,8|0,0:0|0:0,0:0:0:0:
302,163,74149,5,0,0:0:0:0:
302,163,74241,1,0,0:0:0:0:
302,163,74333,2,0,P|251:148|204:148,1,70,6|0,0:0|0:0,0:0:0:0:
92,59,74517,2,0,P|104:110|128:151,1,70
105,292,74701,2,0,P|143:255|166:214,1,70,8|0,0:0|0:0,0:0:0:0:
295,287,74885,5,0,0:0:0:0:
295,287,74977,1,0,0:0:0:0:
295,287,75069,2,0,P|332:288|384:285,1,70,6|0,0:0|0:0,0:0:0:0:
234,146,75253,2,0,P|189:152|140:171,1,70
349,173,75437,2,0,P|366:140|381:86,1,70,8|0,0:0|0:0,0:0:0:0:
181,261,75621,2,0,P|164:303|158:355,1,70
54,118,75805,5,4,0:0:0:0:
109,110,75897,1,0,0:0:0:0:
165,103,75989,1,0,0:0:0:0:
220,96,76081,1,0,0:0:0:0:
276,89,76173,2,0,L|352:78,1,70,8|0,0:0|0:0,0:0:0:0:
199,281,76357,6,0,P|132:268|85:208,1,140,6|0,0:0|0:0,0:0:0:0:
165,103,76634,1,0,0:0:0:0:
165,103,76726,2,0,P|180:147|186:196,1,70,2|0,0:1|0:0,0:0:0:0:
38,90,76910,2,0,P|57:53|76:7,1,70,8|0,0:0|0:0,0:0:0:0:
165,103,77094,6,0,L|267:95,1,70,6|0,0:0|0:0,0:0:0:0:
88,216,77278,2,0,L|190:208,1,70,8|0,0:0|0:0,0:0:0:0:
7,334,77462,2,0,L|109:326,1,70,4|0,0:0|0:0,0:0:0:0:
309,308,77646,5,10,0:0:0:0:
285,256,77738,1,8,0:0:0:0:
265,204,77830,1,8,0:0:0:0:
248,151,77922,1,8,0:0:0:0:
234,97,78014,1,6,0:0:0:0:
467,275,78198,5,4,0:0:0:0:
197,272,78382,1,4,0:0:0:0:
438,105,78566,1,4,0:0:0:0:
438,105,78658,1,0,0:0:0:0:
438,105,78750,6,0,P|479:104|530:103,1,62.9999980773926
314,27,78934,2,0,L|320:206,1,168,6|0,0:0|0:0,0:0:0:0:
87,180,79302,6,0,P|139:102|243:90,1,199.499994672775,6|0,0:1|0:0,0:0:0:0:
339,320,79670,2,0,P|246:293|204:206,1,199.499994672775,6|0,0:0|0:0,0:0:0:0:
320,194,80038,6,0,L|358:190,15,23.3333333333333,2|0|0|0|0|0|0|0|0|0|0|0|0|0|0|0,0:0|0:0|0:0|0:0|0:0|0:0|0:0|0:0|0:0|0:0|0:0|0:0|0:0|0:0|0:0|0:0,0:0:0:0:
197,272,80591,1,8,0:1:0:0:
197,272,80683,1,8,0:1:0:0:
197,272,80775,6,0,P|126:243|45:219,1,140,4|0,0:1|0:0,0:0:0:0:
180,139,81051,1,0,0:0:0:0:
180,139,81143,2,0,P|194:105|212:43,1,70,2|0,0:1|0:0,0:0:0:0:
53,155,81327,2,0,P|59:193|66:226,1,70,8|0,0:0|0:0,0:0:0:0:
197,272,81511,5,0,0:0:0:0:
197,272,81603,1,0,0:0:0:0:
197,272,81695,2,0,L|293:256,1,70,4|0,0:0|0:0,0:0:0:0:
121,168,81879,2,0,L|31:150,1,70,0|0,0:0|0:0,0:0:0:0:
204,73,82063,2,0,L|300:57,1,70,8|0,0:0|0:0,0:0:0:0:
357,206,82247,5,0,0:0:0:0:
357,206,82339,1,0,0:0:0:0:
357,206,82431,2,0,P|390:223|428:239,1,70,6|0,0:0|0:0,0:0:0:0:
226,202,82615,1,0,0:0:0:0:
226,202,82707,1,0,0:0:0:0:
226,202,82799,2,0,P|246:233|270:266,1,70,8|0,0:0|0:0,0:0:0:0:
115,98,82983,1,0,0:0:0:0:
115,98,83075,1,0,0:0:0:0:
115,98,83167,6,0,P|116:135|121:175,1,70,4|0,0:0|0:0,0:0:0:0:
0,293,83351,2,0,P|7:258|20:223,1,70,0|0,0:0|0:0,0:0:0:0:
127,291,83535,2,0,P|165:305|196:311,1,70,8|0,0:0|0:0,0:0:0:0:
95,124,83719,1,0,0:0:0:0:
95,124,83811,1,0,0:0:0:0:
95,124,83903,6,0,P|24:182|27:256,1,140,6|0,0:0|0:0,0:0:0:0:
226,202,84179,1,0,0:0:0:0:
226,202,84271,2,0,P|216:165|209:131,1,70,8|0,0:0|0:0,0:0:0:0:
126,228,84455,2,0,P|116:264|94:307,1,70,0|0,0:0|0:0,0:0:0:0:
246,308,84640,6,0,P|301:278|330:201,1,140,4|0,0:0|0:0,0:0:0:0:
209,134,84916,1,0,0:0:0:0:
209,134,85008,2,0,P|170:129|138:121,1,70,8|0,0:0|0:0,0:0:0:0:
367,335,85192,2,0,P|400:324|432:311,1,70,0|0,0:0|0:0,0:0:0:0:
395,57,85376,5,6,0:0:0:0:
343,76,85468,1,0,0:0:0:0:
310,120,85560,1,0,0:0:0:0:
305,175,85652,1,0,0:0:0:0:
271,219,85744,1,8,0:0:0:0:
220,239,85836,1,0,0:0:0:0:
165,229,85928,6,0,P|151:182|141:134,1,70
299,270,86112,2,0,P|290:311|277:347,1,70,6|0,0:0|0:0,0:0:0:0:
279,117,86296,2,0,P|281:79|291:33,1,70,8|0,0:0|0:0,0:0:0:0:
414,168,86480,2,0,P|423:202|429:243,1,70,4|0,0:3|0:0,0:0:0:0:
214,46,86664,1,0,0:0:0:0:
214,46,86756,1,0,0:0:0:0:
214,46,86848,6,0,B|277:53|277:53|309:38|309:38|347:65|347:65|392:40|446:54,1,224,14|0,0:3|0:0,0:0:0:0:
220,219,87400,2,0,P|192:224|149:231,1,56
280,337,87584,6,0,P|298:286|313:216,1,112,8|0,0:0|0:0,0:0:0:0:
393,307,87861,1,0,0:0:0:0:
393,307,87953,2,0,L|452:313,1,56
467,198,88137,2,0,L|397:203,1,56
280,337,88321,6,0,B|198:338|153:274|153:274|197:282|231:269,1,224,6|0,0:0|0:0,0:0:0:0:
117,75,88873,2,0,L|59:69,1,56,4|0,0:0|0:0,0:0:0:0:
186,166,89057,2,0,L|244:162,1,56,8|0,0:0|0:0,0:0:0:0:
70,188,89241,5,4,0:0:0:0:
77,243,89333,1,4,0:3:0:0:
100,293,89425,1,4,0:3:0:0:
138,335,89517,1,4,0:3:0:0:
185,364,89609,1,4,0:3:0:0:
239,379,89701,1,4,0:3:0:0:
295,377,89793,6,0,P|286:307|282:237,1,140,6|0,0:1|0:0,0:0:0:0:
435,34,90161,2,0,P|473:43|511:50,1,70,8|0,0:0|0:0,0:0:0:0:
330,114,90345,1,0,0:0:0:0:
330,114,90437,1,0,0:0:0:0:
330,114,90529,6,0,P|289:108|246:105,1,70,4|0,0:0|0:0,0:0:0:0:
415,226,90713,2,0,P|455:222|491:217,1,70
316,299,90897,2,0,B|295:274|282:238|282:238|266:273|237:303,1,140,8|0,0:0|0:0,0:0:0:0:
93,94,91265,5,6,0:0:0:0:
148,98,91357,1,0,0:0:0:0:
204,101,91449,1,0,0:0:0:0:
260,105,91541,1,0,0:0:0:0:
201,194,91634,5,6,0:0:0:0:
146,207,91726,1,0,0:0:0:0:
92,220,91818,1,0,0:0:0:0:
37,233,91910,1,0,0:0:0:0:
102,315,92002,6,0,L|99:372,7,35,6|0|0|0|0|0|0|0,0:0|0:0|0:0|0:0|0:0|0:0|0:0|0:0,0:0:0:0:
203,326,92370,6,0,L|225:360,1,35,6|0,0:0|0:0,0:0:0:0:
243,295,92462,2,0,L|270:332,1,35,0|0,0:0|0:0,0:0:0:0:
271,255,92554,2,0,L|298:287,1,35,4|0,0:0|0:0,0:0:0:0:
283,206,92646,2,0,L|311:238,1,35,0|0,0:0|0:0,0:0:0:0:
280,155,92738,6,0,P|221:118|138:107,1,140,6|0,0:1|0:0,0:0:0:0:
203,326,93106,1,8,0:0:0:0:
415,226,93290,1,0,0:0:0:0:
152,106,93474,6,0,P|164:183|173:265,1,140,4|0,0:0|0:0,0:0:0:0:
11,114,93842,1,8,0:0:0:0:
280,155,94026,6,0,P|295:71|265:15,1,140,6|0,0:1|0:0,0:0:0:0:
8,237,94394,1,2,0:1:0:0:
306,292,94578,1,8,0:0:0:0:
152,106,94762,1,4,0:0:0:0:
101,339,94946,6,0,L|161:273,1,70,8|0,0:0|0:0,0:0:0:0:
11,114,95130,2,0,L|38:198,1,70,8|0,0:0|0:0,0:0:0:0:
345,180,95315,5,4,0:0:0:0:
290,167,95407,1,4,0:3:0:0:
235,154,95499,1,4,0:3:0:0:
181,142,95591,1,4,0:3:0:0:
129,129,95683,6,0,P|155:206|160:272,1,132.999996448517,14|0,0:3|0:0,0:0:0:0:
40,314,95959,1,0,0:0:0:0:
40,314,96051,1,8,0:0:0:0:
48,39,96235,6,0,P|122:31|191:15,1,132.999996448517,0|4,0:0|0:0,0:0:0:0:
129,129,96511,1,0,0:0:0:0:
129,129,96603,2,0,P|123:171|122:210,1,66.4999982242585,0|0,0:0|0:0,0:0:0:0:
254,181,96787,2,0,P|310:162|393:153,1,132.999996448517,8|0,0:0|0:0,0:0:0:0:
495,223,97063,1,0,0:0:0:0:
495,223,97155,6,0,P|506:188|512:137,1,66.4999982242585,6|0,0:0|0:0,0:0:0:0:
367,88,97339,2,0,P|376:129|390:173,1,66.4999982242585,0|0,0:0|0:0,0:0:0:0:
254,181,97523,2,0,P|190:143|168:77,1,132.999996448517,8|0,0:0|0:0,0:0:0:0:
48,39,97799,1,0,0:0:0:0:
48,39,97891,6,0,P|50:103|55:183,1,132.999996448517,4|0,0:0|0:0,0:0:0:0:
24,302,98168,1,0,0:0:0:0:
24,302,98260,2,0,P|89:278|177:264,1,132.999996448517,8|0,0:0|0:0,0:0:0:0:
266,332,98536,1,0,0:0:0:0:
266,332,98627,5,6,0:0:0:0:
168,91,98811,1,0,0:0:0:0:
102,315,98996,1,8,0:0:0:0:
385,199,99180,1,0,0:0:0:0:
385,199,99272,1,0,0:0:0:0:
385,199,99364,6,0,P|321:192|253:180,1,132.999996448517,6|0,0:0|0:0,0:0:0:0:
331,72,99640,1,0,0:0:0:0:
331,72,99732,2,0,P|342:32|349:-5,1,66.4999982242585,8|0,0:0|0:0,0:0:0:0:
385,199,99916,2,0,P|391:237|400:281,1,66.4999982242585,0|0,0:0|0:0,0:0:0:0:
281,332,100100,6,0,P|206:315|130:309,1,132.999996448517,6|0,0:0|0:0,0:0:0:0:
102,185,100376,1,0,0:0:0:0:
102,185,100468,1,8,0:0:0:0:
85,324,100652,6,0,L|163:306,1,66.4999982242585,2|0,0:0|0:0,0:0:0:0:
102,185,100836,2,0,L|191:162,1,66.4999982242585,4|0,0:0|0:0,0:0:0:0:
276,258,101020,2,0,L|354:240,1,66.4999982242585,0|0,0:0|0:0,0:0:0:0:
239,54,101204,2,0,L|328:31,1,66.4999982242585,10|0,0:0|0:0,0:0:0:0:
209,247,101388,1,0,0:0:0:0:
209,247,101480,1,0,0:0:0:0:
209,247,101572,6,0,P|133:225|95:167,1,132.999996448517,4|0,0:1|0:0,0:0:0:0:
108,51,101848,1,0,0:0:0:0:
108,51,101940,1,8,0:0:0:0:
80,277,102124,6,0,P|133:259|220:245,1,132.999996448517,0|4,0:0|0:0,0:0:0:0:
163,120,102400,1,0,0:0:0:0:
163,120,102492,2,0,P|177:83|190:36,1,66.4999982242585,0|0,0:0|0:0,0:0:0:0:
34,152,102676,2,0,P|63:222|84:295,1,132.999996448517,8|0,0:0|0:0,0:0:0:0:
208,245,102952,1,0,0:0:0:0:
208,245,103045,6,0,P|279:223|311:152,1,132.999996448517,6|0,0:0|0:0,0:0:0:0:
108,51,103413,1,8,0:0:0:0:
79,276,103597,1,0,0:0:0:0:
79,276,103688,1,0,0:0:0:0:
79,276,103781,6,0,P|97:313|109:350,2,66.4999982242585,4|0|4,0:0|0:0|0:0,0:0:0:0:
253,20,104149,5,8,0:0:0:0:
305,20,104241,1,8,0:0:0:0:
355,38,104333,1,8,0:0:0:0:
397,71,104425,1,8,0:0:0:0:
426,115,104517,5,6,0:0:0:0:
206,134,104700,1,4,0:0:0:0:
331,62,105069,5,6,0:0:0:0:
203,246,105253,1,4,0:0:0:0:
217,55,105621,5,6,0:0:0:0:
284,336,105805,1,4,0:0:0:0:
117,92,106173,5,6,0:0:0:0:
389,342,106542,1,4,0:0:0:0:
459,0,106911,1,4,0:0:0:0:
137,351,107830,5,14,0:3:0:0:
256,192,107922,12,0,113351,0:0:0:0:
