osu file format v10

[General]
AudioFilename: Koisuru Chikara.mp3
AudioLeadIn: 2000
PreviewTime: 52332
Countdown: 0
SampleSet: Soft
StackLeniency: 0.3
Mode: 0
LetterboxInBreaks: 1

[Editor]
DistanceSpacing: 1
BeatDivisor: 4
GridSize: 4

[Metadata]
Title:Koisuru Chikara (Speed Up Ver.)
TitleUnicode:恋する神通力 (Speed Up Ver.)
Artist:NANA
ArtistUnicode:NANA
Creator:Underflow
Version:S.S
Source:Nekokoi ~ Nekogami Sama to Nekomimi no Tatari ~
Tags:Whirlpool Star Stream
BeatmapID:193515
BeatmapSetID:59391

[Difficulty]
HPDrainRate:8
CircleSize:4
OverallDifficulty:8
ApproachRate:9
SliderMultiplier:2
SliderTickRate:2

[Events]
//Background and Video events
0,0,"neko.jpg"
//Break Periods
//Storyboard Layer 0 (Background)
//Storyboard Layer 1 (Fail)
//Storyboard Layer 2 (Pass)
//Storyboard Layer 3 (Foreground)
//Storyboard Sound Samples
//Background Colour Transformations
3,100,163,162,255

[TimingPoints]
1488,291.375291375291,4,2,1,70,1,0
5712,-100,4,2,3,70,0,0
6150,-100,4,2,1,70,0,0
10812,-100,4,2,2,70,0,0
20136,-100,4,2,1,50,0,0
28877,-100,4,2,2,70,0,0
29460,-100,4,2,1,50,0,0
31062,-100,4,2,2,70,0,0
31791,-100,4,2,1,50,0,0
33684,-100,4,2,2,70,0,0
34413,-100,4,2,1,50,0,0
37618,-100,4,2,2,70,0,0
38784,-100,4,2,1,100,0,0
42717,-66.6666666666667,4,2,2,70,0,0
43008,-100,4,2,3,70,0,0
43446,-100,4,2,1,100,0,0
46068,-100,4,2,2,70,0,0
47233,-100,4,2,1,50,0,0
48108,-100,4,2,2,70,0,0
51021,-66.6666666666667,4,2,2,70,0,0
51313,-100,4,2,2,70,0,0
52770,-83.3333333333333,4,2,1,70,0,1
56412,-83.3333333333333,4,2,2,70,0,1
56557,-83.3333333333333,4,2,1,70,0,1
56703,-83.3333333333333,4,2,2,70,0,1
56849,-83.3333333333333,4,2,1,70,0,1
56994,-83.3333333333333,4,2,2,70,0,1
57140,-83.3333333333333,4,2,1,70,0,1
57286,-83.3333333333333,4,2,2,70,0,1
57432,-83.3333333333333,4,2,1,70,0,1
61802,-83.3333333333333,4,2,1,70,0,0
62094,-83.3333333333333,4,2,1,70,0,1
65444,-83.3333333333333,4,2,2,70,0,1
66610,-83.3333333333333,4,2,1,30,0,1
66901,-83.3333333333333,4,2,2,70,0,1
76080,-100,4,2,2,70,0,0
85112,-100,4,2,2,5,0,0

[Colours]
Combo1 : 255,154,165
Combo2 : 155,176,233
Combo3 : 202,164,215

[HitObjects]
151,87,1488,1,2,0:0:0
179,115,2070,1,2,0:0:0
207,143,2653,1,2,0:0:0
236,172,3236,1,2,0:0:0
360,87,3819,5,2,0:0:0
332,115,4401,1,2,0:0:0
104,320,4838,5,4,0:0:0
256,152,5130,1,0,0:0:0
408,320,5421,1,4,0:0:0
256,232,5712,5,2,0:0:0
180,316,5858,1,2,0:0:0
332,316,6004,1,2,0:0:0
332,316,6077,1,2,0:0:0
332,316,6150,6,0,B|404:256|404:256|408:196|352:172,1,200,6|0,0:0|0:0,0:0:0
180,316,6732,2,0,B|108:256|108:256|104:196|160:172,1,200,8|0,0:0|0:0,0:0:0
316,72,7315,6,0,B|315:160|195:160|195:72,1,200,4|0,0:0|0:0,0:0:0
256,16,7752,2,0,B|256:228,1,200,0|0,0:0|0:0,0:0:0
256,380,8189,1,0,0:0:0
256,296,8335,1,0,0:0:0
256,380,8481,6,0,B|152:380,2,100,4|0|0,0:0|0:0|0:0,0:0:0
256,380,8918,2,0,B|456:380,1,200,4|0,0:0|0:0,0:0:0
508,144,9355,1,0,0:0:0
392,188,9500,5,4,0:0:0
372,196,9792,1,4,0:0:0
352,204,10083,1,4,0:0:0
352,204,10229,2,0,B|164:288,1,200,4|0,0:0|0:0,0:0:0
72,84,10812,6,0,B|88:32|148:24,1,100,4|0,0:0|0:0,0:0:0
4,136,11103,2,0,B|44:228,1,100,8|0,0:0|0:0,0:0:0
4,136,11394,2,0,B|100:184|200:160,1,200,0|8,0:0|0:0,0:0:0
236,68,11831,2,0,B|320:128|292:240|232:252,1,200
160,272,12268,1,8,0:0:0
68,232,12414,1,0,0:0:0
36,48,12560,2,0,B|136:88,1,100
40,132,12851,2,0,B|140:172,1,100,8|0,0:0|0:0,0:0:0
228,204,13143,5,4,0:0:0
228,204,13288,2,0,B|228:264|176:288,2,100,0|8|0,0:0|0:0|0:0,0:0:0
132,228,13725,2,0,B|88:280|108:336|152:384|232:344,1,200,0|8,0:0|0:0,0:0:0
144,136,14162,2,0,B|44:176|36:296,1,200
176,124,14599,2,0,B|144:84|88:84,1,100,8|0,0:0|0:0,0:0:0
216,136,14891,1,0,0:0:0
324,84,15036,1,0,0:0:0
324,84,15182,2,0,B|368:112|368:168,1,100,8|0,0:0|0:0,0:0:0
248,308,15474,6,0,B|264:256|320:248,1,100,4|0,0:0|0:0,0:0:0
160,144,15765,2,0,B|138:196|175:236,1,100,8|0,0:0|0:0,0:0:0
136,336,16056,2,0,B|82:348|48:303,2,100,0|0|8,0:0|0:0|0:0,0:0:0
228,372,16493,2,0,B|304:304|416:340,1,200
468,184,16930,2,0,B|496:284,1,100,8|0,0:0|0:0,0:0:0
384,220,17222,1,0,0:0:0
384,220,17367,2,0,B|284:208,2,100,0|8|0,0:0|0:0|0:0,0:0:0
188,80,17805,5,4,0:0:0
188,80,17950,2,0,B|92:120,2,100,2|2|4,0:0|0:0|0:0,0:0:0
324,80,18387,1,4,0:0:0
324,80,18533,2,0,B|420:120,1,100,2|2,0:0|0:0,0:0:0
124,316,18824,1,6,0:0:0
388,316,19116,1,6,0:0:0
256,32,19407,1,6,0:0:0
256,32,19553,2,0,B|256:252,1,200,6|0,0:0|0:0,0:0:0
20,144,20136,5,4,0:0:0
96,212,20281,2,0,B|144:184|144:128,1,100,0|8,0:0|0:0,0:0:0
216,60,20573,1,0,0:0:0
316,80,20718,2,0,B|372:80|400:136,1,100
368,224,21010,1,8,0:0:0
208,184,21155,2,0,B|208:72|244:32|288:8,1,200
384,28,21592,1,8,0:0:0
460,92,21738,1,0,0:0:0
292,236,21884,5,0,0:0:0
348,132,22029,1,0,0:0:0
440,172,22175,1,8,0:0:0
480,264,22321,1,0,0:0:0
460,360,22467,5,0,0:0:0
368,324,22612,2,0,B|336:368|276:364,1,100,0|8,0:0|0:0,0:0:0
192,320,22904,1,0,0:0:0
108,264,23049,2,0,B|80:316|104:368,2,100,0|0|8,0:0|0:0|0:0,0:0:0
188,200,23486,2,0,B|232:216|256:272|256:272|276:216|324:200,1,200,8|0,0:0|0:0,0:0:0
256,124,23923,1,8,0:0:0
184,288,24069,2,0,B|196:364|316:364|328:288,1,200,8|0,0:0|0:0,0:0:0
256,124,24506,1,8,0:0:0
188,200,24652,1,0,0:0:0
92,172,24798,6,0,B|24:108|24:108|48:52|108:48,1,200,4|8,0:0|0:0,0:0:0
16,208,25235,2,0,B|68:120|184:104,1,200
276,128,25672,1,8,0:0:0
344,200,25817,2,0,B|392:140|360:68|360:68|420:36,1,200
488,104,26254,1,8,0:0:0
472,204,26400,1,0,0:0:0
400,272,26546,2,2,B|324:312|268:244|268:244|220:268,1,200,2|2,0:1|0:1,0:1:0
132,312,26983,1,2,0:1:0
40,60,27129,5,10,0:0:0
252,352,27420,1,10,0:0:0
472,60,27711,2,0,B|372:60,2,100,10|0|0,0:0|0:0|0:0,0:0:0
292,60,28148,6,0,B|292:108|256:144|256:144|256:264,1,200,10|0,0:0|0:0,0:0:0
184,164,28585,2,0,B|184:108|220:72,1,100,10|0,0:0|0:0,0:0:0
328,188,28877,1,2,0:0:0
328,188,29168,1,2,0:0:0
144,32,29460,6,0,B|96:40|64:88,1,100,4|0,0:0|0:0,0:0:0
368,32,29751,2,0,B|416:40|448:88,1,100,8|0,0:0|0:0,0:0:0
212,116,30042,2,0,B|256:156|300:116,2,100,0|0|8,0:0|0:0|0:0,0:0:0
164,260,30479,6,0,B|256:192|348:260,1,200
156,168,30916,1,8,0:0:0
356,168,31062,1,0,0:0:0
168,336,31208,2,0,B|112:332|92:280,1,100,2|0,0:0|0:0,0:0:0
420,280,31499,2,0,B|400:332|344:336,1,100,2|0,0:0|0:0,0:0:0
164,260,31791,6,0,B|112:176,1,100
400,174,32082,2,0,B|348:260,1,100,8|0,0:0|0:0,0:0:0
180,128,32373,1,0,0:0:0
256,60,32519,1,0,0:0:0
332,128,32665,1,8,0:0:0
256,196,32810,6,0,B|208:240|208:240|152:196|72:216,1,200,8|0,0:0|0:0,0:0:0
128,304,33247,1,8,0:0:0
256,196,33393,2,0,B|304:240|304:240|360:196|440:216,1,200,8|2,0:0|0:0,0:0:0
384,304,33830,2,0,B|304:360|304:360|256:320|208:360,1,200,2|4,0:0|0:0,0:0:0
412,64,34413,5,8,0:0:0
412,64,34559,2,0,B|528:108|484:224,1,200
416,296,34996,1,8,0:0:0
328,252,35141,2,0,B|316:176|196:176|184:252,1,200
96,296,35578,1,8,0:0:0
28,224,35724,2,0,B|-16:108|100:64,1,200
312,96,36161,5,8,0:0:0
200,96,36307,1,0,0:0:0
332,216,36453,6,0,B|380:216|420:168,1,100
180,216,36744,2,0,B|132:216|92:168,1,100,8|0,0:0|0:0,0:0:0
256,252,37035,2,0,B|256:152,2,100,0|0|8,0:0|0:0|0:0,0:0:0
484,253,37472,5,0,0:0:0
472,175,37618,1,2,0:0:0
432,106,37764,1,0,0:0:0
369,55,37910,1,2,0:0:0
296,28,38055,1,0,0:0:0
214,26,38201,1,2,0:0:0
140,55,38347,1,0,0:0:0
78,106,38492,1,2,0:0:0
38,175,38638,1,0,0:0:0
25,253,38784,6,0,B|88:328|88:328|140:304|184:344,1,200,6|2,0:0|0:0,0:0:0
487,253,39366,2,0,B|424:328|424:328|372:304|328:344,1,200,2|2,0:0|0:0,0:0:0
96,124,39949,6,0,B|172:136|172:256|96:268,1,200,2|2,0:0|0:0,0:0:0
416,124,40532,2,0,B|340:136|340:256|416:268,1,200,2|2,0:0|0:0,0:0:0
56,28,41115,6,0,B|128:40|160:96|160:96|184:64|220:56,1,200,2|2,0:0|0:0,0:0:0
456,28,41697,2,0,B|384:40|352:96|352:96|328:64|292:56,1,200,2|2,0:0|0:0,0:0:0
168,168,42134,6,2,B|256:252|344:168,1,200,6|0,0:0|0:0,0:0:0
256,120,42571,1,0,0:0:0
120,220,42717,2,2,B|256:336|392:220,1,300.000011444092,6|0,0:0|0:0,0:0:0
256,120,43154,5,2,0:0:0
120,220,43300,1,2,0:0:0
120,220,43373,1,2,0:0:0
120,220,43446,1,6,0:0:0
392,220,43737,1,2,0:0:0
36,340,44028,1,2,0:0:0
156,64,44320,1,2,0:0:0
476,340,44611,1,2,0:0:0
356,64,44902,1,2,0:0:0
356,64,45048,1,2,0:0:0
256,136,45194,2,0,B|256:32,2,100,0|2|2,0:0|0:0|0:0,0:0:0
184,208,45631,6,0,B|196:284|316:284|328:208,1,200,4|0,0:0|0:0,0:0:0
94,192,46068,1,2,0:0:0
125,287,46214,1,0,0:0:0
206,345,46359,1,2,0:0:0
306,345,46505,1,0,0:0:0
386,287,46651,1,2,0:0:0
417,191,46796,6,0,B|384:84|276:60,1,200,4|0,0:0|0:0,0:0:0
216,192,47233,2,0,B|271:204|308:163,1,100,8|0,0:0|0:0,0:0:0
160,128,47525,2,0,B|121:169|138:222,1,100,0|8,0:0|0:0,0:0:0
200,300,47816,1,8,0:0:0
296,324,47962,1,8,0:0:0
396,308,48108,6,0,B|460:232,2,100,6|0|0,0:0|0:0|0:0,0:0:0
116,308,48545,2,0,B|52:232,2,100,6|0|0,0:0|0:0|0:0,0:0:0
256,192,48982,1,6,0:0:0
256,192,49127,1,0,0:0:0
116,76,49273,6,0,B|52:152,2,100,6|0|0,0:0|0:0|0:0,0:0:0
396,76,49710,2,0,B|460:152,2,100,6|0|0,0:0|0:0|0:0,0:0:0
256,192,50147,1,6,0:0:0
256,192,50293,1,0,0:0:0
184,224,50439,6,2,B|196:300|316:300|328:224,1,200,6|0,0:0|0:0,0:0:0
256,116,50876,1,2,0:0:0
132,280,51021,2,2,B|168:348|256:376|348:348|380:280,1,300.000011444092,6|0,0:0|0:0,0:0:0
256,116,51458,5,6,0:0:0
256,136,51750,1,6,0:0:0
256,156,52041,1,6,0:0:0
256,156,52187,2,0,B|256:360,1,200,6|0,0:0|0:0,0:0:0
112,76,52770,6,0,B|100:144|32:156,1,119.999996337891,12|0,0:0|0:0,0:0:0
4,40,53061,1,8,0:0:0
120,4,53207,2,0,B|260:40|236:188,1,239.999992675781
64,320,53644,1,8,0:0:0
152,236,53789,1,0,0:0:0
264,284,53935,6,0,B|320:320|380:308,1,119.999996337891,8|0,0:0|0:0,0:0:0
324,128,54226,2,0,B|264:158|245:216,1,119.999996337891,8|0,0:0|0:0,0:0:0
429,257,54518,1,8,0:0:0
429,257,54663,2,0,B|432:190|391:144,1,119.999996337891,0|8,0:0|0:0,0:0:0
304,64,54955,1,0,0:0:0
104,176,55101,6,0,B|40:152|28:84,1,119.999996337891,8|0,0:0|0:0,0:0:0
184,140,55392,2,0,B|195:207|142:251,1,119.999996337891,8|0,0:0|0:0,0:0:0
112,88,55683,2,0,B|164:44|229:68,1,119.999996337891,8|0,0:0|0:0,0:0:0
104,176,55975,2,0,B|40:152|28:84,1,119.999996337891,8|0,0:0|0:0,0:0:0
184,140,56266,5,8,0:0:0
256,356,56412,1,2,0:0:0
72,324,56557,1,0,0:0:0
328,140,56703,1,10,0:0:0
96,208,56849,1,8,0:0:0
440,324,56994,1,2,0:0:0
256,72,57140,1,2,0:0:0
416,208,57286,1,10,0:0:0
144,304,57432,6,0,B|108:248|144:192,1,119.999996337891,4|0,0:0|0:0,0:0:0
256,356,57723,1,8,0:0:0
367,304,57869,2,0,B|392:212|328:140|328:140|268:172,1,239.999992675781
212,272,58306,1,8,0:0:0
432,152,58451,6,0,B|360:40|308:52|232:116,1,239.999992675781
148,192,58888,1,8,0:0:0
16,52,59034,1,0,0:0:0
136,60,59180,2,0,B|208:60|248:120,1,119.999996337891,8|0,0:0|0:0,0:0:0
120,132,59471,2,0,B|156:194|124:258,1,119.999996337891,8|0,0:0|0:0,0:0:0
72,352,59763,5,4,0:0:0
20,208,59908,1,0,0:0:0
248,208,60054,1,8,0:0:0
196,352,60200,1,0,0:0:0
132,128,60345,1,8,0:0:0
240,72,60491,1,8,0:0:0
360,80,60637,1,0,0:0:0
464,136,60782,5,6,0:0:0
256,368,61074,1,6,0:0:0
48,136,61365,1,6,0:0:0
48,136,61511,2,0,B|144:64,1,119.999996337891,6|0,0:0|0:0,0:0:0
164,184,61802,1,8,0:0:0
144,200,61875,1,8,0:0:0
124,216,61948,1,8,0:0:0
104,232,62021,1,8,0:0:0
84,248,62094,6,0,B|96:316|164:344,1,119.999996337891,4|0,0:0|0:0,0:0:0
428,248,62385,2,0,B|416:316|348:344,1,119.999996337891,8|0,0:0|0:0,0:0:0
208,256,62676,1,8,0:0:0
244,140,62822,1,0,0:0:0
336,64,62968,1,8,0:0:0
456,48,63113,1,0,0:0:0
356,168,63259,6,0,B|292:188|244:140,1,119.999996337891,8|0,0:0|0:0,0:0:0
408,92,63550,2,0,B|457:137|439:202,1,119.999996337891,8|0,0:0|0:0,0:0:0
364,296,63842,1,8,0:0:0
252,344,63988,1,0,0:0:0
132,336,64133,1,8,0:0:0
36,264,64279,1,0,0:0:0
4,148,64425,6,0,B|76:148|104:92,1,119.999996337891,8|0,0:0|0:0,0:0:0
508,148,64716,2,0,B|436:148|408:92,1,119.999996337891,8|0,0:0|0:0,0:0:0
164,180,65007,1,0,0:0:0
256,256,65153,1,0,0:0:0
348,180,65299,1,8,0:0:0
256,100,65444,5,6,0:0:0
256,148,65736,1,2,0:0:0
256,196,66027,1,6,0:0:0
256,244,66319,5,2,0:0:0
256,268,66464,1,0,0:0:0
256,292,66610,1,8,0:0:0
256,292,66683,1,8,0:0:0
256,292,66756,2,0,B|204:248|204:248|136:312|40:272,1,239.999992675781,12|8,0:0|0:0,0:0:0
256,292,67338,2,0,B|308:248|308:248|376:312|472:272,1,239.999992675781,0|8,0:0|0:0,0:0:0
144,100,67921,6,0,B|60:180|60:180|112:224|116:292,1,239.999992675781,0|8,0:0|0:0,0:0:0
368,100,68504,2,0,B|452:180|452:180|400:224|396:292,1,239.999992675781,0|8,0:0|0:0,0:0:0
256,136,69087,6,0,B|256:12,2,119.999996337891,4|0|0,0:0|0:0|0:0,0:0:0
256,136,69524,2,0,B|256:384,1,239.999992675781,4|0,0:0|0:0,0:0:0
160,308,69961,1,0,0:0:0
352,308,70106,5,4,0:0:0
376,308,70398,1,4,0:0:0
400,308,70689,1,4,0:0:0
400,308,70835,2,0,B|460:232|460:232|412:164|448:96,1,239.999992675781,4|0,0:0|0:0,0:0:0
123,59,71418,5,4,0:0:0
123,324,71709,1,8,0:0:0
388,324,72000,1,0,0:0:0
388,59,72292,1,8,0:0:0
76,192,72583,5,0,0:0:0
256,372,72874,1,8,0:0:0
436,192,73166,1,0,0:0:0
256,12,73457,1,8,0:0:0
168,276,73749,6,0,B|84:360,2,119.999996337891,4|0|0,0:0|0:0|0:0,0:0:0
344,276,74186,2,0,B|428:360,2,119.999996337891,4|0|0,0:0|0:0|0:0,0:0:0
256,192,74623,1,0,0:0:0
83,360,74768,5,4,0:0:0
428,360,75060,1,4,0:0:0
256,24,75351,1,0,0:0:0
256,24,75497,2,0,B|256:264,1,239.999992675781,4|8,0:0|0:0,0:0:0
440,300,76080,6,0,B|424:352|364:360,1,100,4|0,0:0|0:0,0:0:0
508,248,76371,2,0,B|468:156,1,100,8|0,0:0|0:0,0:0:0
508,248,76662,2,0,B|412:200|312:224,1,200,0|8,0:0|0:0,0:0:0
276,316,77099,2,0,B|192:256|220:144|280:132,1,200
352,112,77536,1,8,0:0:0
444,152,77682,1,0,0:0:0
476,336,77828,2,0,B|376:296,1,100
472,252,78119,2,0,B|372:212,1,100,8|0,0:0|0:0,0:0:0
284,180,78411,5,4,0:0:0
284,180,78556,2,0,B|284:120|336:96,2,100,0|8|0,0:0|0:0|0:0,0:0:0
380,156,78993,2,0,B|424:104|404:48|360:0|280:40,1,200,0|8,0:0|0:0,0:0:0
368,248,79430,2,0,B|468:208|476:88,1,200
336,260,79867,2,0,B|368:300|424:300,1,100,8|0,0:0|0:0,0:0:0
296,248,80159,1,0,0:0:0
188,300,80305,1,0,0:0:0
188,300,80450,2,0,B|144:272|144:216,1,100,8|0,0:0|0:0,0:0:0
264,76,80742,6,0,B|248:128|192:136,1,100,4|0,0:0|0:0,0:0:0
352,240,81033,2,0,B|374:188|337:148,1,100,8|0,0:0|0:0,0:0:0
376,48,81324,2,0,B|430:36|464:81,2,100,0|0|8,0:0|0:0|0:0,0:0:0
284,12,81761,2,0,B|208:80|96:44,1,200
44,200,82198,2,0,B|16:100,1,100,8|0,0:0|0:0,0:0:0
128,164,82490,1,0,0:0:0
128,164,82636,2,0,B|228:176,2,100,0|8|0,0:0|0:0|0:0,0:0:0
324,304,83073,5,0,0:0:0
324,304,83218,2,0,B|420:264,2,100,2|2|0,0:0|0:0|0:0,0:0:0
188,304,83655,1,0,0:0:0
188,304,83801,2,0,B|92:264,1,100,2|2,0:0|0:0,0:0:0
388,68,84092,5,2,0:0:0
124,68,84384,1,2,0:0:0
256,352,84675,1,2,0:0:0
256,352,84821,2,0,B|256:132,1,200,2|0,0:0|0:0,0:0:0
