osu file format v10

[General]
AudioFilename: Koisuru Chikara.mp3
AudioLeadIn: 2000
PreviewTime: 52332
Countdown: 0
SampleSet: Soft
StackLeniency: 0.7
Mode: 0
LetterboxInBreaks: 1

[Editor]
DistanceSpacing: 1
BeatDivisor: 2
GridSize: 4

[Metadata]
Title:Koisuru Chikara (Speed Up Ver.)
TitleUnicode:恋する神通力 (Speed Up Ver.)
Artist:NANA
ArtistUnicode:NANA
Creator:Underflow
Version:Normal
Source:Nekokoi ~ Nekogami Sama to Nekomimi no Tatari ~
Tags:Whirlpool Star Stream
BeatmapID:193514
BeatmapSetID:59391

[Difficulty]
HPDrainRate:3
CircleSize:3
OverallDifficulty:4
ApproachRate:5
SliderMultiplier:0.999999999999999
SliderTickRate:2

[Events]
//Background and Video events
0,0,"neko.jpg"
//Break Periods
//Storyboard Layer 0 (Background)
//Storyboard Layer 1 (Fail)
//Storyboard Layer 2 (Pass)
//Storyboard Layer 3 (Foreground)
//Storyboard Sound Samples
//Background Colour Transformations
3,100,163,162,255

[TimingPoints]
1488,291.375291375291,4,2,3,50,1,0
52770,-100,4,2,3,50,0,1
76080,-100,4,2,3,50,0,0

[Colours]
Combo1 : 255,154,165
Combo2 : 155,176,233
Combo3 : 202,164,215

[HitObjects]
256,192,322,12,0,1488,0:0:0
148,80,2653,5,0,0:0:0
68,264,3236,1,0,0:0:0
268,240,3819,1,0,0:0:0
368,80,4838,6,0,B|424:92|448:156,1,99.9999999999999,4|0,0:0|0:0,0:0:0
348,176,5421,2,0,B|384:220|364:276,1,99.9999999999999,4|2,0:0|0:0,0:0:0
220,236,6150,6,0,B|132:272|132:272|84:248|24:264,2,200,6|8|4,0:0|0:0|0:0,0:0:0
120,128,8481,6,2,B|172:72|260:76,1,150,10|2,0:0|0:0,0:0:0
356,84,9209,2,2,B|420:92,2,50,2|2|6,0:0|0:0|0:0,0:0:0
296,164,9792,6,0,B|280:216|312:272,1,99.9999999999999,4|0,0:0|0:0,0:0:0
328,304,10229,1,4,0:0:0
480,176,10812,6,0,B|496:124|464:68,1,99.9999999999999,4|8,0:0|0:0,0:0:0
388,140,11394,2,0,B|344:180|288:176|288:176|244:208,2,150,0|0|8,0:0|0:0|0:0,0:0:0
308,80,12560,2,0,B|260:80|260:80|216:112,1,99.9999999999999,0|8,0:0|0:0,0:0:0
152,188,13143,6,0,B|184:232|176:300,1,99.9999999999999,0|8,0:0|0:0,0:0:0
80,256,13725,2,0,B|44:200|64:144|64:144|56:96,2,150,0|0|8,0:0|0:0|0:0,0:0:0
176,284,14891,2,0,B|220:308|276:304,1,99.9999999999999,0|8,0:0|0:0,0:0:0
244,208,15474,6,0,B|224:152|244:96,1,99.9999999999999,0|8,0:0|0:0,0:0:0
328,156,16056,2,0,B|384:128|440:144|440:144|484:136,2,150,0|0|8,0:0|0:0|0:0,0:0:0
396,232,17222,2,0,B|424:276|420:332,1,99.9999999999999,0|8,0:0|0:0,0:0:0
324,300,17805,5,4,0:0:0
176,312,18242,1,4,0:0:0
176,312,18387,1,4,0:0:0
236,176,18824,5,8,0:0:0
176,96,19116,1,8,0:0:0
80,72,19407,1,8,0:0:0
80,72,19553,2,0,B|44:116|52:176,1,99.9999999999999
72,264,20136,6,0,B|116:320|180:320|180:320|228:336,2,150,0|0|8,0:0|0:0|0:0,0:0:0
164,224,21301,6,0,B|160:168|192:128,1,99.9999999999999,0|8,0:0|0:0,0:0:0
264,200,21884,2,0,B|324:216,2,50,0|0|8,0:0|0:0|0:0,0:0:0
312,112,22467,6,0,B|364:76|428:88|428:88|476:80,2,150,0|0|0,0:0|0:0|0:0,0:0:0
332,160,23486,2,0,B|364:204|360:272,1,99.9999999999999,8|0,0:0|0:0,0:0:0
264,236,24069,2,0,B|200:288|112:272,1,150,8|8,0:0|0:0,0:0:0
160,180,24798,6,0,B|112:144|108:80,1,99.9999999999999,0|8,0:0|0:0,0:0:0
208,96,25380,2,0,B|256:64,2,50,0|0|8,0:0|0:0|0:0,0:0:0
236,136,25817,6,0,B|264:176|264:176|312:176|360:212,1,150,0|8,0:0|0:0,0:0:0
376,308,26546,2,0,B|320:316|276:272,1,99.9999999999999,0|8,0:0|0:0,0:0:0
184,256,27129,5,0,0:0:0
100,204,27420,1,8,0:0:0
188,156,27711,1,0,0:0:0
328,212,28148,6,0,B|372:324,2,99.9999999999999,0|8|0,0:0|0:0|0:0,0:0:0
308,164,28877,2,0,B|272:60,1,99.9999999999999,8|8,0:0|0:0,0:0:0
200,136,29460,6,0,B|144:112|84:116|36:156|16:204|24:256,2,250,4|0|8,0:0|0:0|0:0,0:0:0
248,224,31208,2,0,B|296:320,1,99.9999999999999,0|8,0:0|0:0,0:0:0
392,308,31791,6,0,B|448:312|488:268,2,99.9999999999999,0|8|0,0:0|0:0|0:0,0:0:0
388,160,32810,6,0,B|336:116|280:132|280:132|240:124,1,150,8|0,0:0|0:0,0:0:0
196,116,33393,1,8,0:0:0
120,244,33830,1,8,0:0:0
208,292,34122,6,0,B|248:336|312:332|312:332|364:352,2,150,0|0|8,0:0|0:0|0:0,0:0:0
164,268,35141,6,0,B|104:270|62:222|62:222|11:200,1,150,0|8,0:0|0:0,0:0:0
68,116,35870,2,0,B|120:136|120:136|156:168,1,99.9999999999999,0|8,0:0|0:0,0:0:0
248,204,36453,6,0,B|316:220|364:180|364:180|408:164,2,150
200,192,37472,6,0,B|136:184|100:128|108:56|164:4|248:8|288:56|284:112,1,350,12|0,0:0|0:0,0:0:0
320,196,38784,6,0,B|356:304,1,99.9999999999999,0|8,0:0|0:0,0:0:0
272,352,39366,2,0,B|240:257,1,99.9999999999999,0|8,0:0|0:0,0:0:0
208,164,39949,6,0,B|176:69,1,99.9999999999999,0|8,0:0|0:0,0:0:0
76,60,40532,2,0,B|108:155,1,99.9999999999999,0|8,0:0|0:0,0:0:0
140,248,41115,6,0,B|240:284,1,99.9999999999999,0|8,0:0|0:0,0:0:0
332,272,41697,2,0,B|388:256|448:268|448:268|472:212,1,150,0|8,0:0|0:0,0:0:0
492,144,42426,6,0,B|512:80,2,50,0|0|12,0:0|0:0|0:0,0:0:0
396,120,43008,2,0,B|381:167,1,50,0|8,0:0|0:0,0:0:0
344,260,43446,6,0,B|224:276,1,99.9999999999999,0|8,0:0|0:0,0:0:0
188,188,44028,2,0,B|287:174,1,99.9999999999999,0|8,0:0|0:0,0:0:0
236,88,44611,6,0,B|136:101,1,99.9999999999999,0|8,0:0|0:0,0:0:0
92,192,45194,2,0,B|56:256,2,50,0|0|8,0:0|0:0|0:0,0:0:0
136,216,45631,6,0,B|172:256|236:252|236:252|284:268,1,150,0|8,0:0|0:0,0:0:0
368,224,46359,2,0,B|428:192,2,50,0|0|8,0:0|0:0|0:0,0:0:0
340,180,46796,6,0,B|308:136|308:136|256:140|204:116,1,150,0|8,0:0|0:0,0:0:0
120,88,47525,1,8,0:0:0
140,288,48108,6,0,B|200:348|284:344,2,150,8|8|8,0:0|0:0|0:0,0:0:0
228,236,49273,2,0,B|312:252|376:208,2,150,8|8|8,0:0|0:0|0:0,0:0:0
260,140,50439,5,4,0:0:0
116,96,50876,1,4,0:0:0
116,96,51021,1,0,0:0:0
144,244,51458,5,8,0:0:0
232,292,51750,1,8,0:0:0
332,284,52041,1,8,0:0:0
332,284,52187,1,8,0:0:0
252,100,52770,6,0,B|336:68|408:104|408:104|468:108,2,200,4|8|8,0:0|0:0|0:0,0:0:0
168,152,54226,1,8,0:0:0
256,200,54518,2,0,B|308:224|328:288,1,99.9999999999999,8|8,0:0|0:0,0:0:0
224,296,55101,6,0,B|184:332|132:332,1,99.9999999999999,8|8,0:0|0:0,0:0:0
52,272,55683,2,0,B|92:236|144:236,1,99.9999999999999,8|8,0:0|0:0,0:0:0
236,200,56266,6,0,B|280:232|344:220,1,99.9999999999999
396,144,56849,2,0,B|352:112|288:124,1,99.9999999999999
200,108,57432,6,0,B|144:60|60:76|60:76|4:64,3,200,4|8|8|8,0:0|0:0|0:0|0:0,0:0:0
124,228,59763,6,0,B|160:264|232:260,1,99.9999999999999,8|8,0:0|0:0,0:0:0
316,260,60345,2,2,B|371:263|407:227,1,99.9999999999999,2|2,0:0|0:0,0:0:0
444,192,60782,5,4,0:0:0
460,92,61074,1,4,0:0:0
364,120,61365,1,4,0:0:0
364,120,61511,1,4,0:0:0
180,40,62094,6,0,B|136:112|172:184|172:184|172:240,2,200,4|8|8,0:0|0:0|0:0,0:0:0
272,76,63550,1,8,0:0:0
272,176,63842,2,0,B|272:288,1,99.9999999999999,8|8,0:0|0:0,0:0:0
176,308,64425,6,0,B|128:328|72:308,1,99.9999999999999,8|8,0:0|0:0,0:0:0
128,224,65007,2,0,B|128:164,2,50,8|0|8,0:0|0:0|0:0,0:0:0
180,224,65444,6,0,B|229:203|277:223,1,99.9999999999999,4|0,0:0|0:0,0:0:0
372,248,66027,2,0,B|420:268|469:247,1,99.9999999999999,4|0,0:0|0:0,0:0:0
432,100,66756,6,0,B|364:40|284:52|284:52|232:40,2,200,4|8|8,0:0|0:0|0:0,0:0:0
356,168,68212,1,8,0:0:0
304,252,68504,2,0,B|308:308|272:352,1,99.9999999999999,8|8,0:0|0:0,0:0:0
212,272,69087,6,2,B|164:252|164:252|112:260|68:228,1,150,14|6,0:0|0:0,0:0:0
44,132,69815,2,2,B|100:124|148:168,1,99.9999999999999,2|6,0:0|0:0,0:0:0
236,176,70398,6,0,B|296:164|324:108,1,99.9999999999999,4|0,0:0|0:0,0:0:0
332,72,70835,1,4,0:0:0
464,224,71418,6,0,B|464:340,1,99.9999999999999,8|8,0:0|0:0,0:0:0
368,356,72000,2,0,B|368:256,1,99.9999999999999,8|8,0:0|0:0,0:0:0
272,224,72583,6,0,B|272:340,1,99.9999999999999,8|8,0:0|0:0,0:0:0
176,300,73166,2,0,B|176:364,2,50,8|0|8,0:0|0:0|0:0,0:0:0
172,200,73749,6,2,B|100:164|76:80,1,150,14|2,0:0|0:0,0:0:0
172,52,74477,2,2,B|184:104|248:128,1,99.9999999999999,2|6,0:0|0:0,0:0:0
328,168,75060,6,2,B|396:256,1,99.9999999999999,6|2,0:0|0:0,0:0:0
420,288,75497,1,6,0:0:0
224,320,76080,6,0,B|172:344|112:324,1,99.9999999999999,4|8,0:0|0:0,0:0:0
164,236,76662,2,0,B|152:188|152:188|108:152|104:88,2,150,0|0|8,0:0|0:0|0:0,0:0:0
252,184,77828,2,0,B|240:136|240:136|204:96,1,99.9999999999999,0|8,0:0|0:0,0:0:0
300,64,78411,6,0,B|344:36|416:48,1,99.9999999999999,0|8,0:0|0:0,0:0:0
368,140,78993,2,0,B|396:192|380:248|380:248|388:288,2,150,0|0|8,0:0|0:0|0:0,0:0:0
284,196,80159,2,0,B|232:204|180:176,1,99.9999999999999,0|8,0:0|0:0,0:0:0
252,104,80742,6,0,B|206:79|154:87,1,99.9999999999999,0|8,0:0|0:0,0:0:0
72,32,81324,2,0,B|48:88|72:136|72:136|60:188,2,150,0|0|8,0:0|0:0|0:0,0:0:0
155,87,82490,2,0,B|172:132|172:132|160:188,1,99.9999999999999,0|8,0:0|0:0,0:0:0
144,280,83073,5,4,0:0:0
340,324,83655,1,4,0:0:0
264,196,84092,5,8,0:0:0
224,104,84384,1,8,0:0:0
324,112,84675,1,8,0:0:0
324,112,84821,1,8,0:0:0
