osu file format v10

[General]
AudioFilename: Koisuru Chikara.mp3
AudioLeadIn: 2000
PreviewTime: 52332
Countdown: 0
SampleSet: Soft
StackLeniency: 0.7
Mode: 0
LetterboxInBreaks: 1

[Editor]
DistanceSpacing: 1.1
BeatDivisor: 4
GridSize: 4

[Metadata]
Title:Koisuru Chikara (Speed Up Ver.)
TitleUnicode:恋する神通力 (Speed Up Ver.)
Artist:NANA
ArtistUnicode:NANA
Creator:Underflow
Version:Insane
Source:Nekokoi ~ Nekogami Sama to Nekomimi no Tatari ~
Tags:Whirlpool Star Stream
BeatmapID:193513
BeatmapSetID:59391

[Difficulty]
HPDrainRate:6
CircleSize:4
OverallDifficulty:7
ApproachRate:9
SliderMultiplier:1.8
SliderTickRate:2

[Events]
//Background and Video events
0,0,"neko.jpg"
//Break Periods
//Storyboard Layer 0 (Background)
//Storyboard Layer 1 (Fail)
//Storyboard Layer 2 (Pass)
//Storyboard Layer 3 (Foreground)
//Storyboard Sound Samples
//Background Colour Transformations
3,100,163,162,255

[TimingPoints]
1488,291.375291375291,4,2,3,50,1,0
52770,-100,4,2,3,50,0,1
76080,-100,4,2,3,50,0,0

[Colours]
Combo1 : 255,154,165
Combo2 : 155,176,233
Combo3 : 202,164,215

[HitObjects]
256,192,322,12,0,1487,0:0:0
336,288,2653,5,0,0:0:0
400,80,3236,1,0,0:0:0
180,316,3819,1,0,0:0:0
428,124,4838,6,0,B|356:64|356:64|312:72|252:44,1,180,4|0,0:0|0:0,0:0:0
84,260,5421,2,0,B|156:320|156:320|200:312|260:340,1,180,4|2,0:0|0:0,0:0:0
336,236,5858,1,2,0:0:0
208,200,6004,1,2,0:0:0
200,160,6077,1,2,0:0:0
200,120,6150,6,0,B|216:60|216:60|272:56|332:16,1,180,6|0,0:0|0:0,0:0:0
388,264,6732,1,8,0:0:0
468,176,6878,1,0,0:0:0
352,156,7024,1,0,0:0:0
160,288,7315,6,0,B|108:212|108:212|60:212|24:172,1,180,4|0,0:0|0:0,0:0:0
104,100,7752,2,0,B|152:80|152:80|216:108|292:68,1,180
264,184,8189,1,0,0:0:0
308,284,8335,1,0,0:0:0
380,204,8481,6,2,B|416:168|416:168|484:160,2,90,10|2|2,0:0|0:0|0:0,0:0:0
448,288,8918,1,2,0:0:0
236,336,9209,2,2,B|200:352,4,22.5
336,300,9500,1,6,0:0:0
180,80,9792,5,4,0:0:0
76,328,10083,1,0,0:0:0
192,228,10229,1,4,0:0:0
376,112,10520,1,8,0:0:0
376,112,10666,1,0,0:0:0
400,216,10812,6,0,B|424:316,2,90,0|0|8,0:0|0:0|0:0,0:0:0
192,228,11394,2,0,B|136:256|136:256|80:236|16:244,1,180,8|8,0:0|0:0,0:0:0
20,243,11831,1,0,0:0:0
104,140,11977,6,0,B|44:40,2,90,8|0|8,0:0|0:0|0:0,0:0:0
100,268,12414,1,0,0:0:0
212,328,12560,2,0,B|276:300|276:300|328:320|400:316,1,180,8|8,0:0|0:0,0:0:0
348,104,13143,6,0,B|412:84|412:84|428:60,2,90,8|0|8,0:0|0:0|0:0,0:0:0
312,316,13725,2,0,B|248:256|248:256|192:256|152:232,1,180,8|8,0:0|0:0,0:0:0
158,235,14162,1,0,0:0:0
128,132,14308,6,0,B|100:36,2,90,8|0|8,0:0|0:0|0:0,0:0:0
158,235,14745,1,0,0:0:0
188,340,14891,2,0,B|248:276|248:276|248:220|272:180,1,180,8|8,0:0|0:0,0:0:0
452,76,15474,5,12,0:0:0
384,192,15619,1,0,0:0:0
308,80,15765,1,8,0:0:0
100,256,16056,2,0,B|156:268|156:268|196:208|272:196,1,180,8|8,0:0|0:0,0:0:0
254,199,16493,1,0,0:0:0
272,332,16639,6,0,B|344:352|344:352|376:340,2,90,8|0|8,0:0|0:0|0:0,0:0:0
324,180,17076,1,0,0:0:0
204,68,17222,2,0,B|180:128|180:128|216:172|208:248,1,180,8|8,0:0|0:0,0:0:0
440,100,17805,5,4,0:0:0
364,264,17950,1,0,0:0:0
364,264,18096,1,8,0:0:0
256,120,18242,5,4,0:0:0
152,88,18387,1,4,0:0:0
152,268,18533,1,0,0:0:0
152,268,18679,1,8,0:0:0
48,120,18824,5,8,0:0:0
256,208,19116,1,8,0:0:0
464,120,19407,1,8,0:0:0
464,120,19553,1,8,0:0:0
256,60,19844,1,8,0:0:0
184,281,20136,6,0,B|204:312|204:312|256:324,1,90
340,256,20427,2,0,B|321:226|321:226|264:212,1,90,8|0,0:0|0:0,0:0:0
172,168,20718,2,0,B|164:64,2,90,0|0|8,0:0|0:0|0:0,0:0:0
348,120,21155,6,0,B|404:152|404:152|404:204|456:268,1,180
332,328,21592,1,8,0:0:0
224,316,21738,2,0,B|196:224,1,90
144,56,22029,1,0,0:0:0
144,56,22175,2,0,B|84:80,2,45,8|0|0,0:0|0:0|0:0,0:0:0
152,144,22467,6,0,B|108:164|108:164|132:228|112:304,1,180,0|8,0:0|0:0,0:0:0
114,293,22904,1,0,0:0:0
228,240,23049,2,0,B|268:288|268:288|304:304,2,90
380,64,23486,6,0,B|440:76|440:76|436:136|464:212,1,180,8|0,0:0|0:0,0:0:0
356,280,23923,1,0,0:0:0
356,280,23996,1,0,0:0:0
356,280,24069,2,0,B|296:212,1,90,8|0,0:0|0:0,0:0:0
216,68,24360,2,0,B|168:116|168:116|168:144,2,90,0|8|0,0:0|0:0|0:0,0:0:0
296,180,24798,6,0,B|384:216|384:216|400:260|444:304,1,180,0|8,0:0|0:0,0:0:0
428,287,25235,1,0,0:0:0
316,324,25380,2,0,B|248:344|248:344|216:336,2,90,0|0|8,0:0|0:0|0:0,0:0:0
232,164,25817,6,0,B|204:120|204:120|144:144|60:136,1,180,0|0,0:0|0:0,0:0:0
76,272,26254,2,0,B|124:276|176:264,1,90,8|0,0:0|0:0,0:0:0
300,288,26546,1,0,0:0:0
416,268,26691,1,0,0:0:0
344,176,26837,1,8,0:0:0
460,156,26983,1,0,0:0:0
256,88,27129,5,0,0:0:0
220,76,27420,1,8,0:0:0
188,64,27711,1,0,0:0:0
104,172,27857,1,0,0:0:0
120,304,28003,1,8,0:0:0
120,304,28148,6,0,B|216:332|216:332|248:304|304:304,1,180,0|8,0:0|0:0,0:0:0
308,188,28585,2,0,B|324:88,1,90
448,48,28877,1,8,0:0:0
448,48,29168,1,8,0:0:0
180,80,29460,6,0,B|140:112|92:120|92:120|72:168|28:192,1,180,4|8,0:0|0:0,0:0:0
41,183,29897,1,0,0:0:0
160,224,30042,2,0,B|180:288|180:288|216:300,2,90,0|0|8,0:0|0:0|0:0,0:0:0
324,212,30479,6,0,B|308:168|308:168|372:152|436:108,1,180
360,28,30916,2,0,B|320:56|272:64,1,90,8|0,0:0|0:0,0:0:0
180,156,31208,1,0,0:0:0
152,260,31353,2,0,B|84:284|84:284|48:276,2,90,0|8|0,0:0|0:0|0:0,0:0:0
288,244,31791,6,0,B|376:284|376:284|420:268|464:268,1,180,0|8,0:0|0:0,0:0:0
457,268,32228,1,0,0:0:0
484,136,32373,1,2,0:0:0
484,136,32446,1,2,0:0:0
484,136,32519,2,0,B|392:104,1,90,2|0,0:0|0:0,0:0:0
228,56,32810,6,0,B|204:104|204:104|144:104|72:152,1,180,8|0,0:0|0:0,0:0:0
180,240,33247,2,0,B|276:268,1,90,0|8,0:0|0:0,0:0:0
444,304,33684,1,2,0:0:0
440,192,33830,1,10,0:0:0
448,152,33903,1,2,0:0:0
440,112,33976,1,2,0:0:0
424,76,34049,1,2,0:0:0
392,52,34122,6,0,B|328:116|328:116|272:108|216:140,1,180,2|8,0:0|0:0,0:0:0
240,127,34559,1,0,0:0:0
128,228,34704,2,0,B|108:288|108:288|72:312,2,90,0|0|8,0:0|0:0|0:0,0:0:0
76,84,35141,6,0,B|108:44|108:44|172:60|244:48,1,180
256,164,35578,2,0,B|276:264,1,90,8|0,0:0|0:0,0:0:0
388,176,35870,2,0,B|370:87,2,90,0|0|8,0:0|0:0|0:0,0:0:0
312,340,36307,1,0,0:0:0
312,340,36453,6,0,B|224:352|224:352|184:328|124:320,1,180,0|8,0:0|0:0,0:0:0
124,188,36889,1,2,0:0:0
124,188,36962,1,2,0:0:0
124,188,37035,2,0,B|116:96,2,90,2|2|0,0:0|0:0|0:0,0:0:0
380,100,37472,5,8,0:0:0
396,208,37618,1,0,0:0:0
344,304,37764,1,0,0:0:0
236,316,37909,1,8,0:0:0
140,264,38055,2,2,B|100:288,2,45
232,208,38346,2,2,B|270:184,2,45
136,156,38638,1,2,0:0:0
256,60,38784,6,0,B|348:44|348:44|400:60|448:64,1,180,0|8,0:0|0:0,0:0:0
256,324,39366,2,0,B|164:340|164:340|112:324|64:320,1,180,0|8,0:0|0:0,0:0:0
416,192,39949,6,0,B|448:280|448:280|424:312|420:360,1,180,0|8,0:0|0:0,0:0:0
96,192,40532,2,0,B|64:104|64:104|88:72|92:24,1,180,0|8,0:0|0:0,0:0:0
396,64,41115,6,0,B|344:92|344:92|328:152|272:192,1,180,0|8,0:0|0:0,0:0:0
124,288,41697,2,0,B|68:320|68:320|40:320,2,90
256,312,42134,6,0,B|348:348|348:348|388:332|428:332,1,180,8|0,0:0|0:0,0:0:0
400,216,42571,2,0,B|380:120,1,90,0|12,0:0|0:0,0:0:0
120,72,43008,2,0,B|138:160,1,90,0|8,0:0|0:0,0:0:0
168,292,43300,1,2,0:0:0
168,292,43373,1,2,0:0:0
168,292,43446,6,0,B|256:316|256:316|300:304|364:312,1,180,6|8,0:0|0:0,0:0:0
264,88,44028,2,0,B|300:192,1,90
428,180,44320,2,0,B|398:94,1,90,8|0,0:0|0:0,0:0:0
384,276,44611,6,0,B|348:316|348:316|288:284|220:280,1,180,0|8,0:0|0:0,0:0:0
227,280,45048,1,0,0:0:0
156,168,45194,2,0,B|120:108|120:108|88:96,2,90,0|0|8,0:0|0:0|0:0,0:0:0
292,164,45631,1,0,0:0:0
292,164,45777,6,0,B|371:121,1,90
196,216,46068,2,0,B|116:258,1,90,8|0,0:0|0:0,0:0:0
192,108,46359,2,0,B|144:24,2,90,0|0|8,0:0|0:0|0:0,0:0:0
292,268,46796,6,0,B|384:320|384:320|424:312|472:332,1,180
472,212,47233,2,0,B|484:112,1,90,8|0,0:0|0:0,0:0:0
360,64,47525,1,8,0:0:0
256,36,47670,1,0,0:0:0
152,56,47816,1,0,0:0:0
76,132,47962,1,0,0:0:0
248,188,48108,6,0,B|184:220|184:220|172:268|128:312,1,180,12|0,0:0|0:0,0:0:0
128,311,48545,1,8,0:0:0
308,308,48690,1,0,0:0:0
416,292,48836,1,0,0:0:0
488,212,48982,2,0,B|504:112,1,90,12|0,0:0|0:0,0:0:0
332,56,49273,6,0,B|236:44,1,90,12|0,0:0|0:0,0:0:0
172,148,49564,2,0,B|261:159,1,90,0|8,0:0|0:0,0:0:0
356,228,49856,1,0,0:0:0
292,312,50001,1,0,0:0:0
184,324,50147,2,0,B|88:312,1,90,12|0,0:0|0:0,0:0:0
68,132,50439,6,0,B|136:72|136:72|184:76|236:48,1,180,4|8,0:0|0:0,0:0:0
444,252,50876,1,4,0:0:0
444,252,51021,2,0,B|376:312|376:312|328:308|276:336,1,180,0|8,0:0|0:0,0:0:0
116,276,51458,5,8,0:0:0
396,108,51750,1,8,0:0:0
328,296,52041,1,8,0:0:0
328,296,52187,1,8,0:0:0
184,88,52478,1,8,0:0:0
256,192,52770,6,0,B|216:236|216:236|152:228|84:272,1,180,4|8,0:0|0:0,0:0:0
100,262,53207,1,0,0:0:0
156,128,53352,2,0,B|220:52,1,90,8|0,0:0|0:0,0:0:0
68,52,53644,2,0,B|10:120,1,90,8|0,0:0|0:0,0:0:0
108,272,53935,6,0,B|180:324|180:324|228:316|280:336,1,180,8|8,0:0|0:0,0:0:0
269,332,54372,1,0,0:0:0
264,208,54518,2,0,B|256:104,2,90,8|0|8,0:0|0:0|0:0,0:0:0
424,288,54955,1,0,0:0:0
424,288,55101,6,0,B|460:252|460:252|444:192|476:124,1,180,8|8,0:0|0:0,0:0:0
474,126,55538,1,0,0:0:0
308,60,55683,1,8,0:0:0
200,48,55829,1,0,0:0:0
96,76,55975,1,8,0:0:0
124,252,56120,1,0,0:0:0
124,252,56266,6,0,B|200:316,1,90,8|0,0:0|0:0,0:0:0
316,280,56557,2,0,B|247:222,1,90,8|0,0:0|0:0,0:0:0
164,116,56849,1,8,0:0:0
256,56,56994,1,0,0:0:0
364,64,57140,1,8,0:0:0
256,336,57432,6,0,B|172:304|172:304|132:324|80:320,1,180,4|8,0:0|0:0,0:0:0
84,320,57869,1,0,0:0:0
84,52,58014,2,0,B|100:156,1,90,8|0,0:0|0:0,0:0:0
220,180,58306,2,0,B|206:91,1,90,8|0,0:0|0:0,0:0:0
97,140,58597,6,0,P|84:200|84:200|120:236|132:316,1,180,8|8,0:0|0:0,0:0:0
130,307,59034,1,0,0:0:0
228,204,59180,2,0,B|244:164|244:164|296:144,2,90,8|0|8,0:0|0:0|0:0,0:0:0
308,312,59617,1,2,0:0:0
340,288,59690,1,2,0:0:0
372,260,59763,6,0,B|412:216|412:216|384:160|392:88,1,180,8|8,0:0|0:0,0:0:0
390,98,60200,1,0,0:0:0
272,180,60345,1,0,0:0:0
208,264,60491,1,0,0:0:0
108,304,60637,1,0,0:0:0
0,296,60782,5,4,0:0:0
156,52,61074,1,4,0:0:0
312,292,61365,1,4,0:0:0
312,292,61511,1,4,0:0:0
152,200,61802,1,8,0:0:0
256,148,61948,1,2,0:0:0
256,148,62021,1,2,0:0:0
256,148,62094,6,0,B|324:96|324:96|372:100|432:80,1,180,12|8,0:0|0:0,0:0:0
417,84,62531,1,0,0:0:0
388,208,62676,2,0,B|480:192,1,90,8|0,0:0|0:0,0:0:0
452,308,62968,2,0,B|363:323,1,90,8|0,0:0|0:0,0:0:0
172,328,63259,6,0,B|116:312|116:312|112:240|68:176,1,180,8|8,0:0|0:0,0:0:0
80,196,63696,1,0,0:0:0
284,120,63842,2,0,B|228:228,2,90,8|0|8,0:0|0:0|0:0,0:0:0
80,56,64279,1,0,0:0:0
80,56,64425,6,0,B|120:76|140:120|140:120|192:124|228:152,1,180,8|8,0:0|0:0,0:0:0
224,149,64862,1,0,0:0:0
356,112,65007,2,0,B|456:76,2,90,8|0|8,0:0|0:0|0:0,0:0:0
464,192,65444,5,6,0:0:0
256,336,65736,1,2,0:0:0
48,192,66027,1,6,0:0:0
256,48,66319,1,2,0:0:0
256,192,66464,1,2,0:0:0
344,272,66610,1,2,0:0:0
344,272,66683,1,2,0:0:0
344,272,66756,6,0,B|396:252|396:252|400:188|452:144,1,180,6|8,0:0|0:0,0:0:0
168,112,67338,2,0,B|116:132|116:132|112:196|60:240,1,180,8|8,0:0|0:0,0:0:0
316,320,67921,6,0,B|380:336|380:336|432:304|504:308,1,180,8|8,0:0|0:0,0:0:0
196,64,68504,2,0,B|132:48|132:48|80:80|8:76,1,180,8|8,0:0|0:0,0:0:0
292,96,69087,6,2,B|336:112|336:112|396:96,2,90,14|2|2,0:0|0:0|0:0,0:0:0
260,200,69524,2,0,B|224:284|224:284|176:296|148:328,1,180,6|2,0:0|0:0,0:0:0
148,328,69888,1,2,0:0:0
148,328,69961,1,2,0:0:0
52,348,70106,1,6,0:0:0
312,328,70398,6,0,B|408:300,1,90,4|0,0:0|0:0,0:0:0
424,188,70689,1,0,0:0:0
424,188,70835,2,0,B|368:204|368:204|336:148|280:120,1,180,4|8,0:0|0:0,0:0:0
96,56,71418,6,0,B|72:136|72:136|96:176|92:236,1,180,8|8,0:0|0:0,0:0:0
416,328,72000,2,0,B|440:248|440:248|416:208|420:148,1,180,8|8,0:0|0:0,0:0:0
208,328,72583,6,0,B|120:348|120:348|88:324|12:316,1,180,8|8,0:0|0:0,0:0:0
304,56,73166,2,0,B|392:36|392:36|424:60|500:68,1,180,8|8,0:0|0:0,0:0:0
208,84,73749,6,2,B|104:116,2,90,14|2|2,0:0|0:0|0:0,0:0:0
212,200,74186,2,0,B|288:168|288:168|332:188|392:188,1,180,6|2,0:0|0:0,0:0:0
384,188,74550,1,2,0:0:0
384,188,74623,1,2,0:0:0
444,268,74768,1,6,0:0:0
216,324,75060,6,0,B|128:296,1,90,4|0,0:0|0:0,0:0:0
212,200,75351,1,0,0:0:0
212,200,75497,2,0,B|296:224|296:224|336:204|400:212,1,180,4|8,0:0|0:0,0:0:0
386,210,75934,1,0,0:0:0
112,168,76080,6,0,B|88:68,2,90,0|0|8,0:0|0:0|0:0,0:0:0
328,160,76662,2,0,B|384:132|384:132|440:152|504:144,1,180,8|8,0:0|0:0,0:0:0
499,144,77099,1,0,0:0:0
408,244,77245,6,0,B|336:320,2,90,8|0|8,0:0|0:0|0:0,0:0:0
412,116,77682,1,0,0:0:0
300,56,77828,2,0,B|236:84|236:84|184:64|112:68,1,180,8|8,0:0|0:0,0:0:0
164,280,78411,6,0,B|100:300|100:300|84:324,2,90,8|0|8,0:0|0:0|0:0,0:0:0
200,68,78993,2,0,B|264:128|264:128|320:128|360:152,1,180,8|8,0:0|0:0,0:0:0
353,148,79430,1,0,0:0:0
384,252,79576,6,0,B|412:348,2,90,8|0|8,0:0|0:0|0:0,0:0:0
353,148,80013,1,0,0:0:0
324,44,80159,2,0,B|264:108|264:108|264:164|240:204,1,180,8|8,0:0|0:0,0:0:0
60,308,80742,5,12,0:0:0
128,192,80887,1,0,0:0:0
204,304,81033,1,8,0:0:0
412,128,81324,2,0,B|356:116|356:116|316:176|240:188,1,180,8|8,0:0|0:0,0:0:0
257,184,81761,1,0,0:0:0
240,52,81907,6,0,B|168:32|168:32|136:44,2,90,8|0|8,0:0|0:0|0:0,0:0:0
188,204,82344,1,0,0:0:0
280,300,82490,2,0,B|308:212,1,90
204,240,82781,1,8,0:0:0
180,268,82854,1,8,0:0:0
148,284,82927,1,8,0:0:0
112,284,83000,1,8,0:0:0
76,276,83073,5,4,0:0:0
148,112,83218,1,0,0:0:0
148,112,83364,1,8,0:0:0
256,256,83510,5,4,0:0:0
360,288,83655,1,4,0:0:0
360,108,83801,1,0,0:0:0
360,108,83947,1,8,0:0:0
464,256,84092,5,8,0:0:0
256,168,84384,1,8,0:0:0
48,256,84675,1,8,0:0:0
48,256,84821,1,8,0:0:0
