osu file format v10

[General]
AudioFilename: Koisuru Chikara.mp3
AudioLeadIn: 2000
PreviewTime: 52332
Countdown: 0
SampleSet: Soft
StackLeniency: 0.7
Mode: 0
LetterboxInBreaks: 1

[Editor]
DistanceSpacing: 1
BeatDivisor: 4
GridSize: 4

[Metadata]
Title:Koisuru Chikara (Speed Up Ver.)
TitleUnicode:恋する神通力 (Speed Up Ver.)
Artist:NANA
ArtistUnicode:NANA
Creator:Underflow
Version:Hard
Source:Nekokoi ~ Nekogami Sama to Nekomimi no Tatari ~
Tags:Whirlpool Star Stream
BeatmapID:193512
BeatmapSetID:59391

[Difficulty]
HPDrainRate:5
CircleSize:4
OverallDifficulty:6
ApproachRate:7
SliderMultiplier:1.5
SliderTickRate:2

[Events]
//Background and Video events
0,0,"neko.jpg"
//Break Periods
//Storyboard Layer 0 (Background)
//Storyboard Layer 1 (Fail)
//Storyboard Layer 2 (Pass)
//Storyboard Layer 3 (Foreground)
//Storyboard Sound Samples
//Background Colour Transformations
3,100,163,162,255

[TimingPoints]
1488,291.375291375291,4,2,3,50,1,0
52770,-100,4,2,3,50,0,1
76080,-100,4,2,3,50,0,0

[Colours]
Combo1 : 255,154,165
Combo2 : 155,176,233
Combo3 : 202,164,215

[HitObjects]
256,192,322,12,0,1488,0:0:0
168,284,2653,5,0,0:0:0
344,284,3236,1,0,0:0:0
256,128,3819,1,0,0:0:0
116,284,4838,6,0,B|184:320|184:320|280:320,1,150,4|0,0:0|0:0,0:0:0
400,268,5421,2,0,B|332:232|332:232|236:232,1,150,4|2,0:0|0:0,0:0:0
188,192,5858,2,2,B|116:148,1,75
120,72,6150,6,0,B|68:64|20:124|48:192,1,150,6|0,0:0|0:0,0:0:0
168,252,6732,2,0,B|248:308,2,75,8|0|0,0:0|0:0|0:0,0:0:0
256,128,7315,6,0,B|256:80|316:36|396:68,1,150,4|0,0:0|0:0,0:0:0
336,140,7752,2,0,B|420:280,1,150
356,332,8189,2,0,B|316:264,1,75
276,196,8481,6,2,B|240:128,2,75,10|2|2,0:0|0:0|0:0,0:0:0
236,268,8918,2,2,B|212:304|152:336|96:328,1,150,2|2,0:0|0:0,0:0:0
144,240,9355,2,2,B|100:252|64:228,1,75,2|6,0:0|0:0,0:0:0
124,92,9792,5,0,0:0:0
264,148,10083,1,0,0:0:0
264,148,10229,1,4,0:0:0
404,92,10520,1,8,0:0:0
404,252,10812,6,0,B|436:328,2,75,4|0|8,0:0|0:0|0:0,0:0:0
256,324,11394,2,0,B|224:352|144:360|100:336,1,150,8|8,0:0|0:0,0:0:0
176,268,11831,6,0,B|132:272|68:236|48:188,1,150
52,196,12268,1,8,0:0:0
184,100,12560,2,0,B|220:32,2,75,8|0|8,0:0|0:0|0:0,0:0:0
256,248,13143,6,0,B|324:108,1,150,8|8,0:0|0:0,0:0:0
472,92,13725,2,0,B|408:232,1,150,8|8,0:0|0:0,0:0:0
321,113,14308,6,0,B|248:84,2,75,8|0|8,0:0|0:0|0:0,0:0:0
409,228,14891,2,0,B|480:256,2,75,8|0|8,0:0|0:0|0:0,0:0:0
280,300,15474,6,0,B|196:336|196:336|112:328,1,150,4|8,0:0|0:0,0:0:0
24,232,16056,2,0,B|180:252,1,150,8|8,0:0|0:0,0:0:0
244,176,16493,6,0,B|84:156,1,150
95,157,16930,1,8,0:0:0
216,68,17222,2,0,B|312:80,2,75,8|0|8,0:0|0:0|0:0,0:0:0
336,160,17805,6,0,B|380:140|456:164|476:236,1,150,4|8,0:0|0:0,0:0:0
380,236,18242,1,4,0:0:0
380,236,18387,2,0,B|416:260|436:324|408:376,1,150,4|8,0:0|0:0,0:0:0
340,316,18824,5,8,0:0:0
192,328,19116,1,8,0:0:0
72,236,19407,1,8,0:0:0
72,236,19553,1,8,0:0:0
208,176,19844,1,8,0:0:0
308,64,20136,6,0,B|412:100|412:100|428:144,1,150,0|8,0:0|0:0,0:0:0
348,164,20573,1,0,0:0:0
348,164,20718,2,0,B|264:136,2,75,0|0|8,0:0|0:0|0:0,0:0:0
384,240,21155,6,0,B|400:284|380:352|336:368,1,150
308,284,21592,1,8,0:0:0
308,284,21738,2,0,B|272:328|212:336|164:312,1,150
171,315,22175,1,8,0:0:0
212,172,22467,6,0,B|304:136|304:136|324:84,1,150,0|8,0:0|0:0,0:0:0
240,72,22904,2,0,B|148:108|148:108|128:160,1,150
24,264,23486,6,0,B|56:304|108:324|180:312,1,150,8|0,0:0|0:0,0:0:0
158,314,23923,1,0,0:0:0
120,228,24069,2,0,B|170:218|222:238|254:278,1,150,8|0,0:0|0:0,0:0:0
252,360,24506,2,0,B|296:364|320:328,1,75,8|0,0:0|0:0,0:0:0
360,260,24798,6,0,B|436:128,1,150,0|8,0:0|0:0,0:0:0
384,56,25235,2,0,B|309:185,1,150
308,185,25672,1,8,0:0:0
268,260,25817,6,0,B|236:288|164:300|120:268,1,150
126,272,26254,1,8,0:0:0
184,136,26546,2,0,B|176:48,3,75,0|0|8|0,0:0|0:0|0:0|0:0,0:0:0
260,88,27129,5,0,0:0:0
324,224,27420,1,8,0:0:0
472,252,27711,1,0,0:0:0
404,120,28003,5,8,0:0:0
404,120,28148,2,0,B|360:184|360:184|276:196,1,150,0|8,0:0|0:0,0:0:0
232,120,28585,2,0,B|308:112,1,75
260,40,28877,2,0,B|100:56,1,150,8|8,0:0|0:0,0:0:0
100,204,29460,6,0,B|72:288|72:288|88:352,1,150,4|8,0:0|0:0,0:0:0
86,347,29897,1,0,0:0:0
156,292,30042,2,0,B|180:220,2,75,0|0|8,0:0|0:0|0:0,0:0:0
236,308,30479,6,0,B|400:340,1,150
383,336,30916,1,8,0:0:0
460,268,31062,1,0,0:0:0
460,268,31208,2,0,B|312:239,1,150,0|8,0:0|0:0,0:0:0
392,112,31791,6,0,B|320:60|320:60|248:60,1,150,0|8,0:0|0:0,0:0:0
212,128,32228,1,0,0:0:0
268,188,32373,2,0,B|340:244|340:244|348:304,1,150
256,292,32810,6,0,B|224:332|176:348|116:340,1,150,8|0,0:0|0:0,0:0:0
121,340,33247,1,0,0:0:0
168,260,33393,2,0,B|112:268|60:256|32:204,1,150,8|0,0:0|0:0,0:0:0
35,210,33830,1,8,0:0:0
136,100,34122,6,0,B|188:56|188:56|284:48,1,150,0|8,0:0|0:0,0:0:0
269,49,34559,1,0,0:0:0
228,132,34704,2,0,B|324:124,2,75,0|0|8,0:0|0:0|0:0,0:0:0
204,212,35141,6,0,B|180:304|180:304|200:360,1,150
198,355,35578,1,8,0:0:0
320,280,35870,2,0,B|340:204,2,75,0|0|8,0:0|0:0|0:0,0:0:0
172,260,36453,6,0,B|84:244|84:244|32:184,1,150,0|8,0:0|0:0,0:0:0
44,198,36890,1,0,0:0:0
136,172,37035,2,0,B|284:196,1,150
364,208,37472,6,0,B|448:220,2,75,8|0|0,0:0|0:0|0:0,0:0:0
412,132,37909,2,0,B|337:121,1,75,8|0,0:0|0:0,0:0:0
392,48,38201,2,2,B|466:58,2,75
244,52,38784,6,0,B|148:60|148:60|96:104,1,150,0|8,0:0|0:0,0:0:0
244,156,39366,2,0,B|340:148|340:148|392:104,1,150,0|8,0:0|0:0,0:0:0
320,252,39949,6,0,B|220:260|220:260|172:304,1,150,0|8,0:0|0:0,0:0:0
32,296,40532,2,0,B|88:240,2,75,0|0|8,0:0|0:0|0:0,0:0:0
172,344,41115,6,0,B|220:368|272:368|332:344,1,150,0|8,0:0|0:0,0:0:0
317,349,41552,1,0,0:0:0
248,280,41697,2,0,B|292:280|320:248,2,75
256,196,42134,6,0,B|276:148|268:88|232:52,1,150,12|0,0:0|0:0,0:0:0
160,24,42571,2,0,B|144:64|168:100,1,75,0|12,0:0|0:0,0:0:0
144,244,43008,2,0,B|70:256,2,75,0|8|0,0:0|0:0|0:0,0:0:0
136,328,43446,6,0,B|282:297,1,150,4|8,0:0|0:0,0:0:0
360,168,44028,2,0,B|213:198,1,150,0|8,0:0|0:0,0:0:0
92,108,44611,6,0,B|238:77,1,150,0|8,0:0|0:0,0:0:0
216,164,45048,2,0,B|168:168|136:232|156:284,1,150
154,281,45485,1,8,0:0:0
236,248,45631,6,0,B|376:300,1,150
448,240,46068,2,0,B|376:212,1,75,8|0,0:0|0:0,0:0:0
372,120,46359,2,0,B|441:147,2,75,0|0|8,0:0|0:0|0:0,0:0:0
308,172,46796,6,0,B|224:224|224:224|164:208,1,150,0|0,0:0|0:0,0:0:0
220,128,47233,2,0,B|284:88,1,75,8|0,0:0|0:0,0:0:0
208,40,47525,2,0,B|144:80,1,75,8|0,0:0|0:0,0:0:0
116,156,47816,1,0,0:0:0
88,232,47962,1,0,0:0:0
56,308,48108,5,8,0:0:0
204,324,48399,2,0,B|288:336,1,75,0|8,0:0|0:0,0:0:0
336,260,48690,2,0,B|261:249,3,75,0|0|8|0,0:0|0:0|0:0|0:0,0:0:0
180,236,49273,6,0,B|105:225,1,75,8|0,0:0|0:0,0:0:0
72,136,49564,2,0,B|147:147,1,75,0|8,0:0|0:0,0:0:0
132,60,49856,2,0,B|207:71,3,75,0|0|8|0,0:0|0:0|0:0|0:0,0:0:0
228,152,50439,6,0,B|248:200|304:224|356:212,1,150,4|8,0:0|0:0,0:0:0
316,132,50876,1,4,0:0:0
316,132,51021,2,0,B|240:280,1,150,0|8,0:0|0:0,0:0:0
204,332,51458,5,8,0:0:0
68,264,51750,1,8,0:0:0
20,120,52041,1,8,0:0:0
20,120,52187,1,8,0:0:0
164,168,52478,1,8,0:0:0
256,52,52770,6,0,B|332:64|332:64|384:120,1,150,4|8,0:0|0:0,0:0:0
236,152,53352,2,0,B|161:140,1,75,8|0,0:0|0:0,0:0:0
104,212,53644,2,0,B|178:223,1,75,8|0,0:0|0:0,0:0:0
260,232,53935,6,0,B|280:308|280:308|352:344,1,150,8|8,0:0|0:0,0:0:0
480,276,54518,2,0,B|408:240,2,75,8|0|8,0:0|0:0|0:0,0:0:0
392,152,55101,6,0,B|372:92|372:92|280:56,1,150,8|8,0:0|0:0,0:0:0
280,208,55683,2,0,B|204:244,2,75,8|0|8,0:0|0:0|0:0,0:0:0
196,84,56266,6,0,B|112:56,1,75,8|0,0:0|0:0,0:0:0
128,148,56557,2,0,B|52:144,1,75,8|0,0:0|0:0,0:0:0
88,228,56849,2,0,B|16:268,2,75,8|0|8,0:0|0:0|0:0,0:0:0
240,228,57432,6,0,B|280:212|344:224|376:272,1,150,4|8,0:0|0:0,0:0:0
292,308,57869,2,0,B|332:144,1,150
327,162,58306,1,8,0:0:0
224,52,58597,6,0,B|188:197,1,150,8|8,0:0|0:0,0:0:0
48,280,59180,2,0,B|66:207,2,75,8|0|8,0:0|0:0|0:0,0:0:0
124,320,59617,1,0,0:0:0
124,320,59763,6,0,B|192:352|192:352|272:344,1,150,4|8,0:0|0:0,0:0:0
266,344,60200,1,0,0:0:0
300,260,60345,2,2,B|220:268,2,75
348,328,60782,5,4,0:0:0
412,192,61074,1,4,0:0:0
348,56,61365,1,4,0:0:0
348,56,61511,1,4,0:0:0
200,84,61802,1,8,0:0:0
200,84,61948,2,8,P|144:96,2,37.5
184,232,62385,6,0,B|100:248,1,75,8|0,0:0|0:0,0:0:0
84,332,62676,2,0,B|157:317,2,75,8|0|8,0:0|0:0|0:0,0:0:0
32,192,63259,6,0,B|12:132|12:132|44:52,1,150,8|8,0:0|0:0,0:0:0
192,36,63842,2,0,P|159:116,2,75,8|0|8,0:0|0:0|0:0,0:0:0
332,92,64425,6,0,B|412:80,1,75,8|0,0:0|0:0,0:0:0
388,164,64716,2,0,B|464:180,1,75,8|0,0:0|0:0,0:0:0
416,252,65007,2,0,B|472:308,2,75,8|0|8,0:0|0:0|0:0,0:0:0
336,232,65444,6,0,B|280:280|280:280|196:292,1,150,4|0,0:0|0:0,0:0:0
56,260,66027,2,0,B|112:212|112:212|196:200,1,150,4|0,0:0|0:0,0:0:0
216,116,66464,2,0,B|128:128,1,75
187,201,66756,6,0,B|220:252|220:252|308:284,1,150,4|8,0:0|0:0,0:0:0
448,240,67338,2,0,B|295:181,1,150,8|8,0:0|0:0,0:0:0
232,56,67921,6,0,B|371:109,1,150,8|8,0:0|0:0,0:0:0
228,156,68504,2,0,B|144:124,2,75,8|0|8,0:0|0:0|0:0,0:0:0
124,260,69087,6,2,B|40:228,2,75,14|2|2,0:0|0:0|0:0,0:0:0
200,284,69524,2,2,B|244:308|300:308|348:288,1,150,6|2,0:0|0:0,0:0:0
376,212,69961,2,2,P|336:196|300:216|300:216,1,75,2|6,0:0|0:0,0:0:0
168,148,70398,6,2,B|92:100,1,75,6|2,0:0|0:0,0:0:0
188,64,70689,1,2,0:0:0
188,64,70835,2,2,B|315:142,1,150,6|2,0:0|0:0,0:0:0
392,272,71418,6,0,B|348:324|348:324|264:332,1,150,8|8,0:0|0:0,0:0:0
144,244,72000,2,0,B|293:232,1,150,8|8,0:0|0:0,0:0:0
400,124,72583,6,0,B|250:135,1,150,8|8,0:0|0:0,0:0:0
132,44,73166,2,0,B|57:50,2,75,8|0|8,0:0|0:0|0:0,0:0:0
28,152,73749,6,2,B|102:145,2,75,14|2|2,0:0|0:0|0:0,0:0:0
52,232,74186,2,2,B|68:288|68:288|156:320,1,150,6|2,0:0|0:0,0:0:0
232,260,74623,2,2,B|161:235,1,75,2|6,0:0|0:0,0:0:0
280,140,75060,6,2,B|350:164,1,75,6|2,0:0|0:0,0:0:0
340,76,75351,1,2,0:0:0
340,76,75497,2,2,B|198:27,1,150,6|10,0:0|0:0,0:0:0
116,152,76080,6,0,B|84:76,2,75,4|0|8,0:0|0:0|0:0,0:0:0
264,80,76662,2,0,B|296:52|376:44|420:68,1,150,8|8,0:0|0:0,0:0:0
344,136,77099,6,0,B|388:132|452:168|472:216,1,150
467,207,77536,1,8,0:0:0
336,304,77828,2,0,B|300:372,2,75,8|0|8,0:0|0:0|0:0,0:0:0
264,156,78411,6,0,B|196:296,1,150,8|8,0:0|0:0,0:0:0
48,312,78993,2,0,B|112:172,1,150,8|8,0:0|0:0,0:0:0
199,291,79576,6,0,B|272:320,2,75,8|0|8,0:0|0:0|0:0,0:0:0
111,176,80159,2,0,B|40:148,2,75,8|0|8,0:0|0:0|0:0,0:0:0
240,104,80742,6,0,B|324:68|324:68|408:76,1,150,4|8,0:0|0:0,0:0:0
496,172,81324,2,0,B|340:152,1,150,8|8,0:0|0:0,0:0:0
276,228,81761,6,0,B|436:248,1,150
424,246,82198,1,8,0:0:0
304,336,82490,2,0,B|208:324,2,75,8|0|8,0:0|0:0|0:0,0:0:0
184,244,83073,6,0,B|140:264|64:240|44:168,1,150,4|8,0:0|0:0,0:0:0
140,168,83510,1,4,0:0:0
140,168,83655,2,0,B|104:144|84:80|112:28,1,150,4|8,0:0|0:0,0:0:0
180,88,84092,5,8,0:0:0
328,76,84384,1,8,0:0:0
448,168,84675,1,8,0:0:0
448,168,84821,1,8,0:0:0
