osu file format v10

[General]
AudioFilename: Koisuru Chikara.mp3
AudioLeadIn: 2000
PreviewTime: 52332
Countdown: 0
SampleSet: Soft
StackLeniency: 0.7
Mode: 0
LetterboxInBreaks: 1

[Editor]
DistanceSpacing: 1
BeatDivisor: 2
GridSize: 4

[Metadata]
Title:Koisuru Chikara (Speed Up Ver.)
TitleUnicode:恋する神通力 (Speed Up Ver.)
Artist:NANA
ArtistUnicode:NANA
Creator:Underflow
Version:Easy
Source:Nekokoi ~ Nekogami Sama to Nekomimi no Tatari ~
Tags:Whirlpool Star Stream
BeatmapID:178613
BeatmapSetID:59391

[Difficulty]
HPDrainRate:2
CircleSize:3
OverallDifficulty:2
ApproachRate:3
SliderMultiplier:0.799999999999999
SliderTickRate:2

[Events]
//Background and Video events
0,0,"neko.jpg"
//Break Periods
//Storyboard Layer 0 (Background)
//Storyboard Layer 1 (Fail)
//Storyboard Layer 2 (Pass)
//Storyboard Layer 3 (Foreground)
//Storyboard Sound Samples
//Background Colour Transformations
3,100,163,162,255

[TimingPoints]
1488,291.375291375291,4,2,3,50,1,0
52770,-100,4,2,3,50,0,1
76080,-100,4,2,3,50,0,0

[Colours]
Combo1 : 255,154,165
Combo2 : 155,176,233
Combo3 : 202,164,215

[HitObjects]
80,236,1488,1,0,0:0:0
280,224,2653,6,0,B|360:212|360:212|424:152,2,160
48,64,4838,6,2,B|32:160,1,79.9999999999999,6|2,0:0|0:0,0:0:0
32,224,5421,2,2,B|48:312,1,79.9999999999999,6|2,0:0|0:0,0:0:0
152,248,6150,6,0,B|232:272|232:272|312:248,2,160,6|8|4,0:0|0:0|0:0,0:0:0
432,92,8481,6,2,B|312:140,1,120,10|2,0:0|0:0,0:0:0
168,188,9500,2,0,B|108:196|60:168|40:108|56:60,1,200,6|4,0:0|0:0,0:0:0
216,64,10812,6,0,B|288:32|376:48,2,160,4|8|8,0:0|0:0|0:0,0:0:0
144,96,12268,1,8,0:0:0
208,144,12560,2,0,B|236:176|232:228,1,79.9999999999999,8|8,0:0|0:0,0:0:0
152,204,13143,6,0,B|100:192|36:240|36:296,2,160,8|8|8,0:0|0:0|0:0,0:0:0
176,280,14599,1,8,0:0:0
232,224,14891,2,0,B|260:192|308:192,1,79.9999999999999,8|8,0:0|0:0,0:0:0
380,176,15474,6,0,B|424:184|504:140|520:84,2,160,4|8|8,0:0|0:0|0:0,0:0:0
356,252,16930,1,8,0:0:0
300,192,17222,2,0,B|252:192|224:152,1,79.9999999999999,8|8,0:0|0:0,0:0:0
296,112,17805,5,4,0:0:0
152,44,18387,1,4,0:0:0
40,88,18824,2,0,B|0:112|-20:172|-20:244|16:288,1,200,8|8,0:0|0:0,0:0:0
160,220,20136,6,0,B|192:264|264:280|332:260,1,160
396,188,21155,2,0,B|352:136|284:152,1,120,0|8,0:0|0:0,0:0:0
208,168,21884,2,0,B|108:192,1,79.9999999999999,0|8,0:0|0:0,0:0:0
164,260,22467,6,0,B|268:232|268:232|352:248,2,160
268,320,24069,2,0,B|144:352,1,120,8|8,0:0|0:0,0:0:0
92,296,24798,6,0,B|28:292|-8:228|4:184,1,160,0|0,0:0|0:0,0:0:0
124,176,25817,2,0,B|120:136|160:84|224:88,1,120,0|8,0:0|0:0,0:0:0
204,172,26546,2,0,B|220:212|268:220,1,79.9999999999999,0|8,0:0|0:0,0:0:0
280,140,27129,6,0,B|304:88|368:52|436:56,1,160,0|0,0:0|0:0,0:0:0
392,176,28148,2,0,B|440:204|464:296|448:360,1,200,0|8,0:0|0:0,0:0:0
368,368,29168,1,8,0:0:0
288,352,29460,6,0,B|219:380|154:328|85:293|1:333,2,280,4|0|8,0:0|0:0|0:0,0:0:0
256,276,31791,6,0,B|182:265|151:188|109:123|16:116,2,280,0|8|8,0:0|0:0|0:0,0:0:0
272,196,34122,6,0,B|216:152|220:76,2,120,0|0|8,0:0|0:0|0:0,0:0:0
328,256,35287,2,0,B|384:300|380:376,2,120,0|0|8,0:0|0:0|0:0,0:0:0
248,276,36453,6,0,B|216:316|140:336|88:316,1,160
148,208,37472,2,0,B|112:156|128:104|164:68|212:60|272:80|288:144,1,280,8|0,0:0|0:0,0:0:0
324,208,38784,6,0,B|360:228|368:272,1,79.9999999999999,0|8,0:0|0:0,0:0:0
332,344,39366,2,0,B|296:324|288:280,1,79.9999999999999,0|8,0:0|0:0,0:0:0
240,216,39949,2,0,B|196:224|160:204,1,79.9999999999999,0|8,0:0|0:0,0:0:0
136,128,40532,2,0,B|180:120|216:140,1,79.9999999999999,0|8,0:0|0:0,0:0:0
292,152,41115,6,0,B|312:112|360:108,2,79.9999999999999,0|8|0,0:0|0:0|0:0,0:0:0
392,216,42134,2,0,B|448:220|504:168|508:116,1,160,8|8,0:0|0:0,0:0:0
312,68,43446,6,0,B|280:40|232:48,1,79.9999999999999,0|8,0:0|0:0,0:0:0
184,108,44028,2,0,B|216:136|264:128,1,79.9999999999999,0|8,0:0|0:0,0:0:0
336,144,44611,2,0,B|376:160|388:204,1,79.9999999999999,0|8,0:0|0:0,0:0:0
360,276,45194,2,0,B|320:260|308:216,1,79.9999999999999,0|8,0:0|0:0,0:0:0
236,252,45777,6,0,B|188:292|104:292|48:268|8:240|-8:180,2,280
296,196,48108,6,0,B|388:104,2,120,8|8|8,0:0|0:0|0:0,0:0:0
244,132,49273,2,0,B|159:216,2,120,8|8|8,0:0|0:0|0:0,0:0:0
180,80,50439,5,4,0:0:0
32,144,51021,1,4,0:0:0
116,228,51458,2,0,B|144:268|192:296|252:300|300:284,1,200,8|8,0:0|0:0,0:0:0
240,136,52770,6,0,B|248:84|304:32|376:20|444:48,2,240,4|8|8,0:0|0:0|0:0,0:0:0
224,216,54809,1,0,0:0:0
300,192,55101,6,0,B|348:180|412:188|464:224,1,160,8|8,0:0|0:0,0:0:0
512,272,55975,1,8,0:0:0
436,296,56266,2,0,B|412:336|368:340,1,79.9999999999999,8|8,0:0|0:0,0:0:0
364,260,56849,2,0,B|324:276|284:256,1,79.9999999999999,8|8,0:0|0:0,0:0:0
328,188,57432,6,0,B|336:136|304:60|240:24|148:40,2,240,4|8|8,0:0|0:0|0:0,0:0:0
312,268,59471,1,8,0:0:0
252,212,59763,6,0,B|200:244|152:248|80:220,1,160,8|0,0:0|0:0,0:0:0
156,120,60782,2,0,B|212:80|284:80|352:120,1,200,4|4,0:0|0:0,0:0:0
272,260,62094,6,0,B|324:296|388:308|456:304|508:272,2,240,4|8|8,0:0|0:0|0:0,0:0:0
208,212,64133,1,8,0:0:0
196,292,64425,6,0,B|164:340|88:368|28:340,1,160,8|8,0:0|0:0,0:0:0
84,232,65444,2,0,B|44:212|40:164,1,79.9999999999999,4|0,0:0|0:0,0:0:0
76,96,66027,2,0,B|116:116|120:164,1,79.9999999999999,4|0,0:0|0:0,0:0:0
240,184,66756,6,0,B|232:120|268:64|332:32|400:44,2,240,4|8|8,0:0|0:0|0:0,0:0:0
248,264,68795,1,0,0:0:0
316,220,69087,6,2,B|368:256|432:236,1,120,10|2,0:0|0:0,0:0:0
380,84,70106,2,0,B|320:44|248:36|172:72,1,200,6|4,0:0|0:0,0:0:0
184,224,71418,6,0,B|192:284|160:352|84:364,2,160,8|8|8,0:0|0:0|0:0,0:0:0
172,144,72874,1,8,0:0:0
248,172,73166,2,0,B|284:200|332:188,1,79.9999999999999,8|8,0:0|0:0,0:0:0
304,112,73749,6,2,B|276:56|204:48,1,120,2|2,0:0|0:0,0:0:0
184,208,74768,2,0,B|200:252|236:284|280:312|344:312,1,200,6|4,0:0|0:0,0:0:0
328,152,76080,6,0,B|384:168|448:144|472:88,2,160,4|8|8,0:0|0:0|0:0,0:0:0
248,136,77536,1,8,0:0:0
276,212,77828,2,0,B|284:256|260:292,1,79.9999999999999,8|8,0:0|0:0,0:0:0
200,236,78411,6,0,B|140:248|100:188|40:188,2,160,8|8|8,0:0|0:0|0:0,0:0:0
184,156,79867,1,8,0:0:0
260,180,80159,2,0,B|284:144|332:148,1,79.9999999999999,8|8,0:0|0:0,0:0:0
324,228,80742,6,0,B|356:264|436:284|496:268,2,160,8|8|8,0:0|0:0|0:0,0:0:0
260,180,82198,1,8,0:0:0
184,156,82490,1,8,0:0:0
108,176,82781,1,8,0:0:0
256,192,83073,12,8,84821,0:0:0
