osu file format v9

[General]
AudioFilename: 08.koisuruchikara.mp3
AudioLeadIn: 750
PreviewTime: 61222
Countdown: 0
SampleSet: Soft
StackLeniency: 0.7
Mode: 0
LetterboxInBreaks: 1

[Editor]
Bookmarks: 1137,7102,12557,20739,23466,45284,53296,56193,91648,94375,99830,116193,124205,127102
DistanceSpacing: 1
BeatDivisor: 4
GridSize: 4

[Metadata]
Title:Koisuru Chikara
Artist:NANA
Creator:Mixagji
Version:Normal
Source:Nekokoi ~ Nekogami Samato Nekomimi no Tatari ~
Tags:Whirlpool houten8 Fiya

[Difficulty]
HPDrainRate:3
CircleSize:3
OverallDifficulty:3
ApproachRate:4
SliderMultiplier:0.8
SliderTickRate:2

[Events]
//Background and Video events
0,0,"sd006.jpg"
//Break Periods
2,94660,98595
//Storyboard Layer 0 (Background)
//Storyboard Layer 1 (Fail)
//Storyboard Layer 2 (Pass)
//Storyboard Layer 3 (Foreground)
//Storyboard Sound Samples
//Background Colour Transformations
3,100,0,0,0

[TimingPoints]
370,340.909090909091,4,2,1,70,1,0
16392,-100,4,2,2,70,0,0
16563,-100,4,2,1,70,0,0
17074,-100,4,2,2,70,0,0
17245,-100,4,2,1,70,0,0
18097,-100,4,2,2,70,0,0
18267,-100,4,2,1,70,0,0
19120,-100,4,2,2,70,0,0
19290,-100,4,2,1,70,0,0
19801,-100,4,2,2,70,0,0
19972,-100,4,2,1,70,0,0
23551,-100,4,2,2,70,0,0
23722,-100,4,2,1,70,0,0
29006,-100,4,2,2,70,0,0
29176,-100,4,2,1,70,0,0
34460,-100,4,2,2,70,0,0
34631,-100,4,2,1,70,0,0
36165,-100,4,2,2,70,0,0
36335,-100,4,2,1,70,0,0
39915,-100,4,2,2,70,0,0
40085,-100,4,2,1,70,0,0
40171,-100,4,2,2,70,0,0
40341,-100,4,2,1,70,0,0
45370,-100,4,2,2,70,0,0
45540,-100,4,2,1,70,0,0
50824,-100,4,2,2,70,0,0
50995,-100,4,2,1,70,0,0
61733,-100,4,2,1,70,0,1
69915,-100,4,2,2,70,0,1
70085,-100,4,2,1,70,0,1
71960,-100,4,2,1,70,0,0
72642,-100,4,2,1,70,0,1
86279,-100,4,2,1,70,0,0
94460,-100,4,2,2,70,0,0
100085,-100,4,2,1,70,0,0
105370,-100,4,2,2,70,0,0
105540,-100,4,2,1,70,0,0
110824,-100,4,2,2,70,0,0
110995,-100,4,2,1,70,0,0
116279,-100,4,2,2,70,0,0
116449,-100,4,2,1,70,0,0
121733,-100,4,2,2,70,0,0
121904,-100,4,2,1,70,0,0
129915,-100,4,2,2,70,0,0
130085,-100,4,2,1,70,0,0
132642,-100,4,2,1,70,0,1
139716,-100,4,2,2,70,0,1
139887,-100,4,2,1,70,0,1
140824,-100,4,2,2,70,0,1
140995,-100,4,2,1,70,0,1
142870,-100,4,2,1,70,0,0
143551,-100,4,2,1,70,0,1
145171,-100,4,2,2,70,0,1
145341,-100,4,2,1,70,0,1
157188,-100,4,2,1,70,0,0

[Colours]
Combo1 : 128,255,128
Combo2 : 255,128,128
Combo3 : 255,255,128
SliderBorder : 255,255,255

[HitObjects]
80,93,1733,2,0,B|95:136|149:142,1,80,4|2
149,220,2415,1,0
137,299,2756,2,0,B|186:311|245:253|228:198,1,160,0|2
256,123,3779,2,0,B|347:95|398:180,1,160
367,332,5142,5,0
248,347,5654,2,0,B|216:316|214:268,1,80,4|4
270,219,6335,2,0,B|264:175|232:147,1,80,4|4
154,60,7188,6,0,B|63:78|54:174,1,160,4|8
62,248,8210,1,0
88,323,8551,2,0,B|126:378|206:357,1,120,4|0
272,343,9404,2,0,B|335:335|354:264,1,120,0|8
471,244,10426,6,0,B|437:155|340:157,1,160,0|2
298,95,11449,2,0,B|248:143|285:211,1,120,2|0
348,248,12301,1,2
287,299,12642,6,0,B|217:345,1,80,4|8
183,271,13324,2,0,B|101:286,1,80,0|8
111,205,14006,2,0,B|30:193,2,80,0|8|0
99,125,15029,1,8
155,68,15370,6,0,B|186:98|177:143,1,80,0|8
256,132,16051,2,0,B|256:206|189:218,1,120
111,201,16904,2,0,B|105:274|173:296,1,120
320,346,18097,6,0,B|363:332|370:286,1,80,4|8
448,301,18779,2,0,B|447:227|382:212,1,120
308,240,19631,2,0,B|292:170|355:138,1,120
432,134,20483,1,8
387,67,20824,6,0,B|337:58|337:58|309:75|283:49|283:49|227:52,1,160,0|2
114,34,22017,2,0,B|105:77|127:119,1,80,0|2
200,134,22699,2,0,B|194:174,1,40,0|2
121,207,23210,2,0,B|77:214|47:176,1,80,0|4
40,100,23892,5,2
118,114,24233,2,0,B|159:113|195:69,1,80
265,62,24915,2,0,B|269:104|300:139,1,80,2|2
374,118,25597,1,0
436,168,25938,6,0,B|469:261|400:313,1,160,0|2
321,311,26960,2,0,B|268:343|207:315,1,120,0|8
168,243,27813,2,0,B|131:266|123:308,1,80,0|8
58,116,29006,6,0,B|107:45|195:40,1,160,4|2
246,147,30199,2,0,B|292:184|363:170,1,120,0|2
400,101,31051,2,0,B|440:122|445:170,1,80,0|2
437,246,31733,6,0,B|411:281|368:288,2,80,8|0|8
319,222,32926,2,0,B|275:268|302:347,1,120,0|8
217,330,33779,2,0,B|171:320|139:345,1,80,0|8
77,295,34460,5,4
146,255,34801,2,0,B|153:211|127:180,1,80,8|0
71,121,35483,1,8
148,101,35824,2,0,B|212:56|312:73,1,160
351,133,36847,1,8
332,211,37188,6,0,B|324:257|348:291,1,80,0|8
417,323,37870,2,0,B|472:288|462:216,1,120,0|8
470,139,38722,2,0,B|424:138|395:172,1,80,0|8
384,247,39404,2,0,B|340:235,1,40,8|8
270,263,39915,6,0,B|254:195|314:162,1,120,4|0
298,83,40767,1,2
223,111,41108,2,0,B|135:150|103:103,1,120,0|8
32,130,41960,1,0
61,205,42301,6,0,B|64:251|34:286,2,80,8|2|8
141,199,43324,2,0,B|206:236|207:299,1,120,0|4
260,353,44176,2,0,B|295:330,1,40,0|8
295,250,44688,2,0,B|340:254|366:295,1,80,0|2
423,340,45370,6,0,B|450:306|437:259,1,80,4|8
401,193,46051,2,0,B|383:153|400:111,1,80,0|8
318,115,46733,2,0,B|273:110|248:77,1,80,0|8
197,139,47415,2,0,B|166:171|118:172,1,80,0|8
154,246,48097,6,0,B|161:290|136:325,1,80,0|8
211,353,48779,1,0
288,332,49120,2,0,B|266:285,1,40,0|4
255,217,49631,1,0
263,137,49972,1,4
262,55,50313,6,0,B|209:18|149:39,1,120,0|4
99,102,51165,1,8
157,158,51506,2,0,B|189:185|184:231,1,80,0|8
261,207,52188,2,0,B|322:183|329:115,1,120,0|2
485,150,53381,6,0,B|517:255|419:328,1,200
303,324,54745,2,0,B|300:288|300:288|267:240|216:248,1,120,4|0
153,266,55597,2,0,B|148:222|172:191,1,80
256,192,56279,12,4,59006
253,191,59688,5,4
307,298,60199,2,0,B|270:321|231:314,1,80,4|4
158,349,60881,2,0,B|133:311,1,40,0|4
84,163,61733,6,0,B|92:119|138:100,1,80,4|8
197,56,62415,1,0
276,65,62756,1,8
238,135,63097,2,0,B|234:200|306:232,1,120,0|2
368,270,63949,1,0
432,318,64290,6,0,B|384:368|316:332,1,120,0|10
255,293,65142,2,0,B|222:264|167:275,1,80,0|8
100,280,65824,2,0,B|72:243|72:191,1,80,0|8
114,137,66506,1,2
171,81,66847,1,10
251,74,67188,6,0,B|280:150|339:150,1,120,4|0
412,132,68040,1,10
401,211,68381,2,0,B|371:279|307:277,1,120,0|8
230,289,69233,2,0,B|136:296|93:217,1,160,0|4
70,144,70256,6,0,B|91:82|91:82|137:55|157:89,1,120
204,125,71108,2,0,B|251:138|297:114,1,80,2|2
327,54,71790,2,0,B|362:80,1,40,0|4
424,223,72642,6,0,B|427:264|388:301,1,80,4|8
329,341,73324,1,0
249,335,73665,1,8
272,259,74006,2,0,B|260:208|260:208|234:183|187:199,1,120,0|2
93,257,75029,1,8
121,182,75370,6,0,B|149:144|140:101,1,80,0|8
143,26,76051,2,0,B|83:23|41:45|46:86,1,120,0|2
53,154,76904,1,2
58,233,77245,2,0,B|90:265|137:260,1,80,0|2
211,349,78097,6,0,B|251:329|258:282,1,80,4|8
252,207,78779,1,0
196,149,79120,1,8
119,171,79460,2,0,B|110:127|130:85|176:72,1,120,0|8
249,81,80313,6,0,B|302:113|337:100|362:66,1,120,0|4
396,185,81335,2,0,B|327:233|352:332,1,160,0|2
272,345,82358,2,0,B|216:337|177:272,1,120
126,215,83210,1,2
70,157,83551,6,0,B|86:119|126:97,1,80,4|8
203,98,84233,2,0,B|240:119|282:103,1,80,0|8
350,64,84915,2,0,B|392:82|413:125,1,80,0|8
430,194,85597,2,0,B|428:237|394:264,1,80,0|8
355,332,86279,6,0,B|309:341|278:311,1,80,0|8
222,258,86960,2,0,B|176:255|143:287,1,80,0|8
80,325,87642,2,0,B|51:294|52:252,1,80,0|8
58,173,88324,2,0,B|66:126|99:104,1,80,0|8
171,77,89006,6,0,B|212:96|220:139,1,80,4|8
281,187,89688,2,0,B|279:232|244:265,1,80,0|8
185,306,90370,1,0
257,338,90710,1,8
336,341,91051,2,0,B|378:326|392:282,1,80,0|2
421,211,91733,6,0,B|407:120|321:91,1,160,4|4
257,191,92926,2,0,B|234:230|188:235,1,80,4|4
182,154,93608,2,0,B|155:114,1,40,0|4
114,274,94460,1,4
454,268,99915,6,0,B|430:332|341:330,1,120,4|2
280,342,100767,1,2
199,340,101108,2,0,B|132:356|66:297|100:213,1,200,0|2
177,202,102301,5,2
255,222,102642,2,0,B|281:187|324:184,2,80,0|8|8
160,147,103835,6,0,B|204:101|177:22,1,120,0|2
260,45,104688,2,0,B|306:55|338:30,1,80,0|2
410,62,105369,5,4
366,129,105710,2,0,B|360:172|394:208,1,80,8|2
450,254,106392,1,8
410,323,106733,6,0,B|375:353|323:340,1,80,0|8
266,300,107415,2,0,B|290:223,1,80,2|2
300,144,108097,6,0,B|310:74|253:34,1,120,0|10
178,45,108949,1,2
98,56,109290,2,0,B|18:98|39:204,1,160,8|8
85,255,110313,2,0,B|129:267,1,40,0|8
150,340,110824,6,0,B|215:314|199:236,1,120,4|8
194,163,111676,1,2
268,193,112017,2,0,B|292:249|358:276,1,120,0|8
431,256,112870,1,0
451,179,113210,6,0,B|448:133|478:98,2,80,0|0|8
371,185,114233,2,0,B|306:148|305:85,1,120,0|2
245,38,115085,2,0,B|220:77,1,40,0|8
202,149,115597,2,0,B|158:135|146:91,1,80
85,44,116279,6,0,B|58:78|71:125,1,80,4|8
111,191,116960,2,0,B|129:231|112:273,1,80,0|8
194,269,117642,2,0,B|239:274|264:307,1,80,0|8
315,245,118324,2,0,B|346:213|394:212,1,80,0|8
358,138,119006,6,0,B|351:94|376:59,1,80,0|8
301,31,119688,1,2
220,31,120029,2,0,B|173:32,1,40,0|8
114,78,120540,2,0,B|54:137,1,80
44,213,121222,6,0,B|66:277|123:301,1,120,0|4
201,300,122074,1,8
277,322,122415,2,0,B|285:281|258:243,1,80,0|8
308,181,123097,2,0,B|243:150|197:196,1,120,0|2
52,263,124290,6,0,B|10:153|90:81,1,200
209,60,125654,2,0,B|212:96|212:96|245:144|296:136,1,120,0|2
359,118,126506,2,0,B|364:162|340:193,1,80
302,265,127188,6,0,B|376:302,1,80,4|8
429,243,127869,2,0,B|466:204,2,40,2|0|2
383,178,128551,1,8
399,100,128892,2,0,B|354:78|299:81|299:81|251:133,1,160,2|2
245,203,129915,6,0,B|166:224|94:163,1,160,4|2
176,75,131108,2,0,B|213:52|252:59,1,80,0|2
322,100,131790,2,0,B|347:138,1,40,0|2
381,205,132301,1,0
429,270,132642,6,0,B|421:314|375:333,1,80,4|8
301,330,133324,1,0
223,310,133665,1,8
274,249,134006,6,0,B|278:184|206:152,1,120,0|2
141,119,134858,1,0
74,64,135199,6,0,B|122:16|192:45,1,120,0|10
257,91,136051,2,0,B|302:143|379:125,1,120,2|8
425,181,136904,2,0,B|442:224|416:270,1,80,8|2
380,327,137585,1,2
261,310,138097,6,0,B|247:255|206:239,1,80,4|8
138,237,138779,1,2
97,167,139120,1,8
149,106,139460,2,0,B|213:38|306:72,1,160
365,105,140483,1,8
418,164,140824,5,4
442,240,141165,2,0,B|421:302|421:302|375:329|355:295,1,120,2|0
308,259,142017,2,0,B|261:246|215:270,1,80,4|4
185,330,142699,2,0,B|150:304,1,40,4|4
88,161,143551,6,0,B|85:120|124:83,1,80,4|8
192,59,144233,1,0
272,52,144574,1,8
238,124,144915,2,0,B|250:175|250:175|279:214|359:178,1,160,0|0
375,258,145938,1,8
297,274,146279,6,0,B|260:300|259:351,1,80,0|8
339,341,146960,2,0,B|385:358|429:344|453:296,1,120,2|4
462,231,147813,1,0
454,151,148154,2,0,B|422:119|375:124,1,80,4|4
301,35,149006,6,0,B|261:55|254:102,1,80,4|8
260,177,149688,1,0
316,235,150029,1,8
393,213,150369,2,0,B|402:257|382:299|336:312,1,120,2|0
263,303,151222,6,0,B|210:271|175:284|150:318,1,120,2|8
116,199,152244,2,0,B|185:151|160:52,1,160,2|2
239,39,153267,6,0,B|312:50|337:108,1,120
330,182,154120,1,4
256,192,154460,12,0,157188
