osu file format v9

[General]
AudioFilename: 08.koisuruchikara.mp3
AudioLeadIn: 750
PreviewTime: 61222
Countdown: 0
SampleSet: Soft
StackLeniency: 0.7
Mode: 0
LetterboxInBreaks: 1

[Editor]
Bookmarks: 1137,7102,20739,23466,45284,53296,56193,91648,94375,99830,116193,124205,127102
DistanceSpacing: 1.1
BeatDivisor: 4
GridSize: 8

[Metadata]
Title:Koisuru Chikara
Artist:NANA
Creator:Mixagji
Version:Insane
Source:Nekokoi ~ Nekogami Samato Nekomimi no Tatari ~
Tags:Whirlpool houten8 Fiya

[Difficulty]
HPDrainRate:7
CircleSize:4
OverallDifficulty:8
ApproachRate:8
SliderMultiplier:1.6
SliderTickRate:2

[Events]
//Background and Video events
0,0,"sd006.jpg"
//Break Periods
2,94660,99165
//Storyboard Layer 0 (Background)
//Storyboard Layer 1 (Fail)
//Storyboard Layer 2 (Pass)
//Storyboard Layer 3 (Foreground)
//Storyboard Sound Samples
//Background Colour Transformations
3,100,0,0,0

[TimingPoints]
370,340.909090909091,4,2,1,70,1,0
6762,-100,4,2,1,50,0,0
7188,-100,4,2,1,70,0,0
12557,-100,4,2,2,70,0,0
12727,-100,4,2,1,70,0,0
16648,-100,4,2,2,70,0,0
16818,-100,4,2,1,70,0,0
18012,-100,4,2,2,70,0,0
18182,-100,4,2,1,70,0,0
19375,-100,4,2,2,70,0,0
19546,-100,4,2,1,70,0,0
20824,-100,4,2,2,70,0,0
20909,-100,4,2,1,70,0,0
21421,-100,4,2,2,70,0,0
21591,-100,4,2,1,70,0,0
23466,-100,4,2,2,70,0,0
23637,-100,4,2,1,70,0,0
26279,-100,4,2,2,70,0,0
26364,-100,4,2,1,70,0,0
28921,-100,4,2,2,70,0,0
29091,-100,4,2,1,70,0,0
34460,-100,4,2,2,70,0,0
34546,-100,4,2,1,70,0,0
39830,-100,4,2,2,70,0,0
40000,-100,4,2,1,70,0,0
45370,-100,4,2,2,70,0,0
45455,-100,4,2,1,70,0,0
50739,-100,4,2,2,70,0,0
50909,-100,4,2,1,70,0,0
61733,-100,4,2,1,70,0,1
62330,-100,4,2,2,70,0,1
62500,-100,4,2,1,70,0,1
66762,-100,4,2,2,70,0,1
66932,-100,4,2,1,70,0,1
68466,-100,4,2,2,70,0,1
68637,-100,4,2,1,70,0,1
69915,-100,4,2,2,70,0,1
70000,-100,4,2,1,70,0,1
71960,-100,4,2,1,70,0,0
72642,-100,4,2,1,70,0,1
73239,-100,4,2,2,70,0,1
73409,-100,4,2,1,70,0,1
83466,-100,4,2,2,70,0,1
83637,-100,4,2,1,70,0,1
86279,-100,4,2,2,70,0,0
86364,-100,4,2,1,70,0,0
87557,-100,4,2,2,70,0,0
87727,-100,4,2,1,70,0,0
88921,-100,4,2,2,70,0,0
89091,-100,4,2,1,70,0,0
90284,-100,4,2,2,70,0,0
90455,-100,4,2,1,70,0,0
91733,-100,4,2,2,70,0,0
91818,-100,4,2,1,70,0,0
92415,-100,4,2,2,70,0,0
92500,-100,4,2,1,70,0,0
94375,-100,4,2,2,70,0,0
94546,-100,4,2,1,70,0,0
99830,-100,4,2,2,70,0,0
100000,-100,4,2,1,70,0,0
105370,-100,4,2,2,70,0,0
105455,-100,4,2,1,70,0,0
110739,-100,4,2,2,70,0,0
110909,-100,4,2,1,70,0,0
116279,-100,4,2,2,70,0,0
116364,-100,4,2,1,70,0,0
121648,-100,4,2,2,70,0,0
121818,-100,4,2,1,70,0,0
132642,-100,4,2,1,70,0,1
133239,-100,4,2,2,70,0,1
133409,-100,4,2,1,70,0,1
134602,-100,4,2,2,70,0,1
134773,-100,4,2,1,70,0,1
137671,-100,4,2,2,70,0,1
137841,-100,4,2,1,70,0,1
139375,-100,4,2,2,70,0,1
139546,-100,4,2,1,70,0,1
140824,-100,4,2,2,70,0,1
140909,-100,4,2,1,70,0,1
142870,-100,4,2,1,70,0,0
143551,-100,4,2,1,70,0,1
144148,-100,4,2,2,70,0,1
144318,-100,4,2,1,70,0,1
157188,-100,4,2,1,70,0,0

[Colours]
Combo1 : 128,255,128
Combo2 : 255,128,128
Combo3 : 255,255,128
SliderBorder : 255,255,255

[HitObjects]
343,155,1222,1,2
307,74,1392,1,2
394,84,1563,1,2
294,228,1733,6,0,B|206:222|166:125,1,160,4|2
201,54,2245,2,0,B|105:51|50:114,1,160,2|0
37,238,2756,2,0,B|43:280|80:301,1,80,2|0
211,317,3097,2,0,B|199:273|160:252,1,80,2|0
89,145,3438,1,2
173,167,3608,2,0,B|259:165|294:76,1,160
372,38,4120,1,2
432,101,4290,5,2
454,185,4460,2,0,B|456:232|429:267,1,80
300,264,4801,1,2
300,264,4971,1,0
192,340,5142,2,0,B|149:340|124:306,1,80,2|0
65,239,5483,1,2
145,82,5654,6,0,B|184:98|201:148,1,80,4|0
249,307,5995,2,0,B|289:288|302:250,1,80,4|0
360,83,6335,2,0,B|433:114|449:209,1,160,4|8
390,326,6847,1,8
347,338,6932,1,8
303,341,7017,1,8
258,335,7103,1,8
221,310,7188,6,0,B|162:258|175:162,1,160,4|0
304,44,7870,2,0,B|360:106|349:205,1,160,8|0
144,96,8551,6,0,B|58:89,2,80,0|2|0
207,158,9063,2,0,B|298:164,2,80,2|0|2
123,185,9574,2,0,B|118:266,1,80
202,292,9915,5,10
356,245,10085,1,0
310,92,10256,1,10
156,138,10426,1,0
156,138,10512,1,0
156,138,10597,1,2
256,192,10767,1,8
310,92,10938,1,10
226,65,11108,6,0,B|218:103|242:140,1,80,4|0
356,245,11449,2,0,B|341:289|302:301,1,80,4|0
213,300,11790,1,2
356,245,11960,2,0,B|372:206|355:166,2,80,4|0|0
143,149,12472,1,4
168,64,12642,6,0,B|209:76|226:125,1,80,4|2
212,205,12983,2,0,B|184:238|135:236,1,80,8|2
76,105,13324,2,0,B|57:138|70:183,1,80,8|2
209,283,13665,2,0,B|224:245|212:205,1,80,8|2
188,119,14006,2,0,B|220:86|265:82,1,80,8|0
345,71,14347,1,8
406,235,14517,1,2
426,149,14688,1,10
338,156,14858,1,2
299,235,15029,2,0,B|295:279|326:308,1,80,8|0
200,351,15370,6,0,B|164:379|118:374,1,80,8|2
133,199,15710,2,0,B|164:175|213:181,1,80,8|2
238,97,16051,2,0,B|275:116|284:170,2,80,8|2|8
111,57,16563,2,0,B|30:96|39:194,1,160
72,269,17074,2,0,B|106:297|159:286,1,80,10|2
278,271,17415,2,0,B|306:236,1,40,2|2
305,195,17585,2,0,B|296:144,1,40,2|2
306,112,17756,2,0,B|280:80|236:75,1,80,2|0
352,140,18097,6,0,B|376:173|375:217,1,80,4|2
378,126,18438,2,0,B|423:129|444:171,1,80,8|2
391,95,18779,2,0,B|426:69|472:71,2,80,8|2|8
303,80,19290,2,0,B|260:110|273:196|323:215,1,160,2|0
385,275,19801,2,0,B|360:311|317:318,1,80,10|2
231,315,20142,1,8
158,264,20313,1,8
150,351,20483,1,8
264,324,20654,5,0
289,288,20739,1,0
293,248,20824,2,0,B|267:210|228:199,1,80,4|2
100,182,21165,1,2
177,140,21335,1,0
98,100,21506,2,0,B|54:101|27:140,1,80,4|2
170,242,21847,1,2
242,192,22017,2,0,B|296:141|265:37,2,160,4|4|4
170,242,22870,1,4
418,330,23210,6,0,B|343:361|250:344,1,160,0|4
170,242,23722,1,0
85,216,23892,1,8
100,302,24063,1,0
183,328,24233,2,0,B|225:320|254:277,1,80
261,197,24574,1,8
248,109,24745,2,0,B|319:68|406:87,1,160
411,174,25256,6,0,B|379:199|330:197,1,80,8|0
165,151,25597,1,2
172,238,25767,1,2
249,279,25938,2,8,B|294:282|322:244,1,80
256,192,26279,1,4
173,325,26449,5,0
173,325,26620,2,0,B|195:360|246:366,1,80,8|0
320,332,26960,2,0,B|343:294|330:251,1,80
256,192,27301,1,0
179,147,27472,2,0,B|83:168|78:256,1,160,8|0
84,342,27983,1,0
208,296,28154,2,0,B|200:341|164:363,1,80,8|0
84,342,28495,1,0
208,296,28665,2,0,B|223:256|203:214,1,80,8|0
154,96,29006,6,0,B|226:46|319:59,1,160,4|8
415,131,29517,2,0,B|356:194|265:182,1,160
181,185,30029,1,8
97,159,30199,2,0,B|68:129|66:86,2,80
174,266,30710,2,0,B|203:302|250:303,1,80,8|0
375,301,31052,5,2
409,273,31137,1,2
424,231,31222,1,2
428,187,31307,1,2
416,144,31392,2,0,B|402:102|366:84,1,80,10|0
262,166,31733,6,0,B|226:189|184:189,1,80,2|0
169,57,32074,2,0,B|132:35|85:44,1,80,10|0
33,108,32415,1,0
33,108,32756,5,8
33,108,32926,2,0,B|6:187|30:271,1,160,4|0
103,313,33438,2,0,B|148:328|186:313,1,80,8|0
197,222,33779,2,0,B|287:222|310:321,1,160,0|8
390,349,34290,5,0
390,349,34460,2,4,B|433:333|447:291,1,80,4|0
474,217,34801,2,0,B|471:171|443:142,1,80,8|0
380,94,35142,1,0
293,112,35313,1,0
352,176,35483,1,8
326,46,35654,2,0,B|237:40|174:87,1,160,0|8
121,207,36165,2,0,B|80:192|66:145,1,80,8|0
100,68,36506,5,2
100,68,36676,1,2
205,209,36847,1,8
205,209,37017,1,2
29,221,37188,1,0
29,221,37358,6,0,B|80:149,1,80,0|8
161,135,37699,1,0
248,122,37870,2,0,B|297:54,2,80
138,195,38381,2,0,B|128:286|202:344,1,160,8|0
282,340,38892,2,0,B|328:336|355:309,1,80,0|8
365,222,39233,1,0
359,133,39404,5,2
431,293,39574,1,8
431,293,39915,6,0,B|353:312|276:267,1,160,4|8
258,136,40426,2,0,B|169:119|102:168,1,160
64,244,40938,1,8
135,294,41108,2,0,B|219:309|296:262,1,160
341,194,41620,2,0,B|356:155|340:107,1,80,8|0
291,44,41960,1,0
210,80,42131,1,0
265,199,42301,1,8
282,126,42472,5,0
207,249,42642,1,2
341,194,42813,1,0
199,159,42983,1,2
298,269,43154,2,0,B|339:303|414:280|423:214,1,160,2|0
282,126,43665,5,0
199,159,43835,2,0,B|153:150|138:111,1,80,8|0
144,24,44176,1,0
68,70,44347,2,0,B|32:106|42:151,1,80,8|0
42,185,44602,1,0
59,227,44688,1,8
117,292,44858,1,0
203,308,45029,1,8
277,261,45199,1,0
314,238,45284,1,0
358,240,45370,6,0,B|401:250|427:294,1,80,4|0
277,261,45710,2,0,B|252:220|267:176,1,80,8|0
334,71,46051,2,0,B|297:91|253:86,1,80,2|0
138,27,46392,2,0,B|104:50|100:95,1,80,8|0
75,224,46733,2,0,B|157:256|231:199,1,160,2|8
254,118,47245,1,0
310,184,47415,2,0,B|343:264|301:341,1,160,2|8
216,357,47926,1,0
140,311,48097,6,0,B|168:279|212:277,1,80
121,274,48438,2,0,B|132:229|176:213,1,80,8|0
88,247,48779,2,0,B|88:198|107:165,2,80
68,333,49290,6,0,B|147:370|229:339,1,160,8|0
257,212,49801,2,0,B|264:254|302:282,1,80,0|8
380,308,50142,1,0
308,360,50313,1,0
352,235,50483,2,0,B|335:195|299:178,1,80,8|0
185,110,50824,6,0,B|208:70|258:57,1,80,4|0
376,42,51165,2,0,B|417:54|438:94,1,80,8|0
461,220,51506,2,0,B|438:296|347:323,1,160,2|8
265,291,52017,1,0
177,276,52188,2,0,B|139:299|125:340,2,80,2|0|8
259,191,52699,2,0,B|236:102|133:89,1,160
76,144,53210,1,8
63,231,53381,6,0,B|69:327|168:353,1,160,4|0
242,350,53892,2,0,B|284:340|304:295,1,80,8|0
240,183,54233,1,0
327,190,54404,1,0
373,264,54574,1,8
240,183,54745,6,0,B|247:92|331:64,1,160,4|0
417,81,55256,2,0,B|452:106|462:160,1,80,8|0
463,235,55597,1,8
339,341,55767,1,8
388,190,55938,1,8
412,319,56108,1,8
348,261,56279,6,0,B|303:258|275:294,1,80,4|0
144,343,56620,1,2
144,343,56790,2,0,B|102:341|74:309,1,80,8|0
128,188,57131,1,2
128,188,57301,2,0,B|135:145|115:110,1,80,8|2
46,165,57642,6,0,B|38:206|66:246,1,80,8|0
146,268,57983,1,2
146,268,58154,2,0,B|200:264|234:194|204:141,1,160,8|2
156,71,58665,2,0,B|115:61|76:80,1,80,8|0
125,153,59006,6,0,B|209:176|277:114,1,160,0|8
381,40,59517,1,0
381,40,59688,2,0,B|430:112|396:199,1,160,0|8
338,257,60199,6,0,B|298:260|263:223,1,80,4|0
108,146,60540,2,0,B|186:102|260:159,1,160,8|8
240,332,61051,1,0
206,250,61222,5,2
151,319,61392,1,2
240,332,61563,1,2
169,170,61733,6,0,B|130:192|124:237,1,80,4|0
151,319,62074,1,8
240,332,62245,2,0,B|307:280|294:180,1,160
206,91,62756,2,0,B|163:81|127:98,1,80,8|0
68,162,63097,1,8
54,292,63267,1,0
145,196,63438,1,8
165,326,63608,1,0
230,211,63779,2,0,B|273:209|302:177,1,80,8|0
298,90,64120,1,8
383,71,64290,5,0
415,100,64375,1,0
429,141,64460,2,0,B|433:187|409:221,1,80,4|0
397,349,64801,2,0,B|355:353|325:322,1,80,8|0
194,299,65142,2,0,B|153:309|136:351,2,80,8|0|8
276,266,65654,2,0,B|284:224|264:177,1,80,0|8
307,108,65995,6,0,B|320:66|355:45,1,80,2|8
205,108,66335,2,0,B|192:66|157:45,1,80,2|8
77,151,66676,2,0,B|83:236|175:272,1,160,2|0
258,263,67188,6,0,B|274:299|261:342,1,80,4|0
174,358,67529,1,8
258,263,67699,1,0
238,176,67870,1,8
170,232,68040,1,0
258,263,68210,1,8
222,90,68381,6,0,B|138:104|93:185,1,160
92,267,68892,2,0,B|97:310|135:335,1,80,8|0
215,363,69233,2,0,B|261:367|294:340,1,80,8|0
351,279,69574,1,8
408,159,69745,5,0
408,159,69830,1,0
408,159,69915,1,4
424,245,70085,1,2
484,127,70256,1,0
377,48,70426,1,2
324,118,70597,2,0,B|313:159|331:205,1,80,0|2
262,256,70938,1,0
236,172,71108,6,0,B|226:128|181:104,1,80,4|0
101,114,71449,2,0,B|62:131|44:171,1,80,4|0
50,256,71790,2,0,B|66:301|111:312,1,80,4|4
262,256,72131,5,2
237,171,72301,1,2
176,234,72472,1,2
347,272,72642,6,0,B|347:230|316:192,1,80,4|0
237,171,72983,1,8
176,234,73154,2,0,B|160:287|215:353|281:338,1,160
390,340,73665,6,0,B|427:314|426:272,1,80,8|0
448,198,74006,1,8
458,110,74176,1,0
390,52,74347,1,8
313,181,74517,1,0
386,137,74688,1,8
386,137,74773,1,0
386,137,74858,1,0
377,224,75029,1,8
311,98,75199,5,0
258,169,75370,2,0,B|233:206|193:212,1,80,8|0
91,259,75710,2,0,B|76:217|91:180,1,80,8|0
126,92,76051,2,0,B|108:51|70:38,2,80,8|0|8
152,176,76563,6,0,B|201:171|224:136,1,80,4|0
300,34,76904,2,0,B|341:40|368:79,1,80,4|0
461,167,77245,2,0,B|431:247|338:262,1,160,4|0
228,330,77756,1,2
184,336,77841,1,2
140,325,77927,1,2
107,295,78012,1,2
84,257,78097,6,0,B|60:174|107:98,1,160,4|8
217,35,78608,1,0
217,35,78779,2,0,B|267:98|366:89,1,160,0|8
473,157,79290,1,0
473,157,79460,2,0,B|456:195|421:218,1,80
334,228,79801,1,8
247,208,79972,2,0,B|168:238|151:330,1,160
234,356,80483,1,8
247,208,80654,1,0
120,139,80824,6,0,B|82:158|65:195,1,80,2|0
63,283,81165,1,2
120,139,81335,2,0,B|187:92|278:94,1,160,0|2
270,93,81762,1,0
270,93,81847,1,2
372,118,82017,6,0,B|348:157|311:171,1,80,4|0
252,305,82358,2,0,B|238:264|256:220,1,80,4|0
270,93,82699,1,0
206,154,82870,2,0,B|164:168|116:155,1,80,4|0
60,271,83210,2,0,B|99:292|144:281,1,80,4|4
257,225,83551,6,0,B|296:240|322:284,1,80,4|0
430,343,83892,2,0,B|456:309|456:268,1,80,8|0
453,180,84233,1,8
355,90,84404,1,0
340,220,84574,1,8
233,141,84745,1,0
355,90,84915,2,0,B|345:135|304:152,1,80,8|0
186,203,85256,2,0,B|175:245|197:288,1,80,8|0
318,322,85597,2,0,B|249:373|162:353,1,160,8|8
55,282,86108,5,0
55,282,86279,2,0,B|45:239|63:203,1,80,4|0
176,137,86620,2,0,B|168:90|132:71,1,80,8|0
54,108,86960,1,8
137,210,87131,1,0
224,57,87301,1,8
176,137,87472,2,0,B|248:190|340:159,1,160
360,80,87983,2,0,B|402:84|432:121,1,80,8|0
437,204,88324,1,8
374,266,88495,1,0
456,295,88665,1,8
437,204,88835,1,0
395,329,89006,6,0,B|360:354|311:345,1,80,4|0
117,300,89347,2,0,B|152:275|201:284,1,80,8|0
277,257,89688,1,8
327,185,89858,1,0
303,100,90029,1,8
231,48,90199,6,0,B|136:54|92:124,1,160
157,236,90710,2,0,B|205:225|230:194,1,80,8|0
327,185,91051,2,0,B|371:190|392:231,2,80,8|0|8
258,129,91563,5,0
258,129,91648,1,0
258,129,91733,2,0,B|237:164|244:207,1,80,4|2
272,289,92074,1,2
359,303,92245,1,0
359,303,92330,1,0
359,303,92415,2,0,B|389:277|388:229,1,80,4|2
379,143,92756,1,2
336,64,92926,6,0,B|256:40|176:64,1,160,4|4
60,192,93608,1,0
60,192,93779,1,4
176,320,94120,2,0,B|256:344|336:320,1,160,0|4
355,59,99915,6,0,B|302:121|204:109,1,160,4|8
145,50,100426,2,0,B|64:86|51:176,1,160
61,259,100938,1,8
112,329,101108,2,0,B|195:356|275:295,1,160
395,285,101620,2,0,B|392:234|365:205,1,80,8|0
301,97,101960,5,2
258,87,102045,1,2
214,90,102130,1,2
175,110,102215,1,2
143,141,102301,2,0,B|120:177|125:216,1,80,10|0
226,301,102642,6,0,B|270:299|304:265,1,80,8|0
275,140,102983,2,0,B|230:144|201:173,1,80,8|0
226,301,103324,1,8
226,301,103665,5,8
226,301,103835,2,0,B|138:319|74:261,1,160,4|0
55,177,104347,1,8
134,214,104517,1,8
83,91,104688,2,0,B|115:60|156:49,1,80
236,53,105029,1,0
223,184,105198,5,0
223,184,105284,1,0
223,184,105370,2,0,B|186:163|175:118,1,80,4|0
236,53,105710,1,8
236,53,105881,1,0
304,107,106051,2,0,B|343:113|385:86,1,80
457,132,106392,1,8
448,219,106563,2,0,B|399:284|310:288,1,160,0|8
198,358,107074,2,0,B|162:336|158:291,1,80,8|0
126,209,107415,5,2
94,80,107585,1,2
199,160,107756,1,10
183,28,107926,1,2
277,120,108097,1,0
199,160,108267,5,0
126,209,108438,2,0,B|91:237|87:283,1,80,8|0
150,346,108779,2,0,B|196:354|230:332,2,80
126,209,109290,2,0,B|210:188|304:216,1,160,8|0
389,300,109801,1,0
389,300,109972,2,0,B|450:240|429:148,1,160,8|0
255,124,110483,1,8
255,124,110824,6,0,B|188:71|99:89,1,160,4|8
135,217,111335,2,0,B|199:274|285:252,1,160
353,197,111847,1,8
379,113,112017,2,0,B|370:70|332:44,2,80
421,238,112529,2,0,B|417:282|392:314,1,80,8|0
295,268,112870,1,0
225,322,113040,1,0
306,354,113210,1,8
220,235,113381,5,2
341,183,113551,1,0
249,87,113722,1,2
283,214,113892,1,8
213,159,114063,1,2
140,209,114233,2,0,B|131:249|159:289,1,80,0|2
372,175,114574,2,0,B|381:135|353:95,1,80,0|8
281,51,114915,5,0
281,51,115085,2,0,B|235:61|194:55,1,80,0|8
116,30,115426,1,0
116,30,115512,1,0
116,30,115597,1,8
53,145,115767,1,0
53,145,115852,1,0
53,145,115938,1,8
126,253,116107,1,0
126,253,116193,1,0
126,253,116279,6,0,B|170:248|200:209,1,80,4|0
256,99,116620,2,0,B|302:106|324:145,1,80,8|0
309,272,116960,2,0,B|327:313|364:328,1,80,2|0
230,333,117301,2,0,B|205:366|160:371,1,80,8|0
57,290,117642,2,0,B|75:212|165:175,1,160,2|8
293,177,118154,1,0
293,177,118324,2,0,B|277:98|186:64,1,160,2|8
101,78,118835,1,0
84,164,119006,6,0,B|59:196|14:203,1,80
104,199,119347,2,0,B|101:240|69:267,1,80,8|0
141,218,119688,2,0,B|152:262|140:299,2,80,0|0|8
174,136,120199,2,0,B|256:102|333:134,1,160,8|8
399,245,120710,2,0,B|397:289|360:316,1,80,0|8
284,352,121051,1,0
195,345,121222,1,0
293,257,121392,2,0,B|299:213|279:175,1,80,8|0
174,256,121733,6,0,B|132:270|114:307,1,80,6|0
284,352,122074,2,0,B|329:356|360:325,1,80,8|0
368,195,122415,2,0,B|333:103|232:104,1,160,2|8
164,133,122926,1,0
149,220,123097,2,0,B|174:303|272:314,1,160,2|8
200,371,123608,2,0,B|199:288|281:232,1,160,2|0
357,205,124120,1,8
444,194,124290,6,0,B|504:126|463:43,1,160,4|0
332,28,124801,2,0,B|338:71|382:91,1,80,8|0
357,205,125142,1,0
276,240,125313,1,0
282,152,125483,1,8
329,321,125654,6,0,B|245:338|169:296,1,160,4|0
73,212,126165,2,0,B|82:164|123:146,1,80,8|0
195,108,126506,1,8
200,195,126676,1,8
313,263,126847,1,8
308,175,127017,1,8
195,108,127188,6,0,B|151:116|128:151,1,80,4|0
127,281,127529,1,10
127,281,127699,2,0,B|143:319|192:328,1,80,8|0
313,263,128040,1,2
313,263,128210,2,0,B|357:271|374:313,1,80,8|2
457,208,128551,2,0,B|447:164|414:145,1,80,8|0
342,32,128892,1,2
342,32,129063,2,0,B|259:64|275:165,1,160,8|2
313,263,129574,2,0,B|271:281|230:267,1,80,8|0
111,221,129915,6,0,B|122:136|214:101,1,160,0|8
336,135,130426,1,0
336,135,130597,2,0,B|379:206|356:292,1,160,0|8
228,320,131108,2,0,B|212:282|233:235,1,80,4|0
255,66,131449,2,0,B|318:122|292:218,1,160,8|8
135,290,131960,1,0
209,242,132131,5,2
130,202,132301,1,2
135,290,132472,1,2
209,242,132642,6,0,B|218:199|205:159,1,80,4|0
130,117,132983,1,8
64,176,133154,2,0,B|38:259|88:340,1,160
212,350,133665,2,0,B|258:349|288:320,1,80,8|0
323,243,134006,1,8
259,127,134176,1,0
142,188,134347,1,8
209,301,134517,2,0,B|287:342|368:297,1,160
464,155,135029,1,8
421,231,135199,5,0
352,174,135370,1,8
335,87,135540,1,0
265,199,135710,2,0,B|226:278,1,80,8|0
159,158,136051,2,0,B|119:87,2,80,8|0|8
96,274,136563,1,0
96,274,136733,1,8
208,344,136904,6,0,B|245:317|248:271,1,80,2|8
363,213,137245,2,0,B|354:168|319:149,1,80,2|8
257,32,137585,2,0,B|161:46|136:135,1,160,2|0
146,211,138097,6,0,B|123:248|75:257,2,80,4|0|8
223,168,138608,1,0
294,115,138779,2,0,B|318:150|310:195,1,80,8|0
248,254,139120,1,8
261,340,139290,2,0,B|349:354|410:282,1,160
429,157,139801,2,0,B|414:114|378:94,1,80,8|0
299,60,140142,1,8
225,108,140313,1,0
243,193,140483,1,8
326,222,140654,5,0
326,222,140739,1,0
326,222,140824,1,4
225,108,140995,1,2
182,253,141165,1,0
91,131,141335,1,2
225,108,141506,2,0,B|249:140|246:190,1,80,0|2
246,315,141847,1,0
246,315,142017,6,0,B|288:333|329:324,1,80,4|0
443,268,142358,2,0,B|452:224|437:184,1,80,4|0
393,113,142699,1,4
255,222,142870,1,4
285,139,143040,5,2
198,150,143210,1,2
255,222,143381,1,2
306,53,143551,6,0,B|263:50|227:73,1,80,4|0
198,150,143892,1,8
173,234,144063,2,0,B|80:245|34:171,1,160
48,85,144574,2,0,B|77:52|120:44,1,80,8|0
202,60,144915,5,8
287,160,145085,1,0
157,133,145256,1,8
279,82,145426,1,0
211,195,145597,1,8
211,195,145682,1,0
211,195,145767,1,0
320,120,145938,2,0,B|361:132|381:173,1,80,8|0
443,230,146279,5,8
416,313,146449,1,0
335,348,146620,2,0,B|291:362|251:348,1,80,8|0
211,195,146960,2,0,B|253:201|281:238,2,80,8|0|8
125,93,147472,6,0,B|83:110|66:155,1,80,4|0
125,291,147813,2,0,B|83:274|66:229,1,80,4|0
125,93,148154,2,0,B|199:58|286:88,1,160,4|0
404,133,148665,1,2
426,170,148750,1,2
437,212,148836,1,2
437,255,148921,1,2
419,295,149006,6,0,B|360:348|267:341,1,160,4|8
174,250,149517,1,0
174,250,149688,2,0,B|241:199|333:207,1,160,0|8
370,82,150199,1,0
251,22,150370,2,0,B|247:65|222:97,1,80,0|0
130,112,150710,1,8
130,112,150881,2,0,B|63:169|92:261,1,160
149,323,151392,2,0,B|191:329|227:302,1,80,8|0
309,202,151733,6,0,B|353:211|373:251,1,80,2|0
389,334,152074,1,2
309,202,152245,2,0,B|220:175|148:222,1,160,0|2
154,217,152671,1,0
154,217,152756,1,2
115,296,152926,6,0,B|154:312|196:292,1,80,4|0
201,117,153267,2,0,B|238:97|297:106,1,80,4|0
364,124,153608,1,0
407,200,153779,2,0,B|408:243|381:279,1,80,4|0
303,312,154120,1,0
215,312,154290,1,4
256,192,154375,12,0,157188
