osu file format v9

[General]
AudioFilename: 08.koisuruchikara.mp3
AudioLeadIn: 750
PreviewTime: 61222
Countdown: 0
SampleSet: Soft
StackLeniency: 0.7
Mode: 0
LetterboxInBreaks: 1

[Editor]
Bookmarks: 1137,7102,12557,20739,23466,45284,53296,56193,91648,94375,99830,116193,124205,127102
DistanceSpacing: 0.9
BeatDivisor: 2
GridSize: 4

[Metadata]
Title:Koisuru Chikara
Artist:NANA
Creator:Mixagji
Version:Easy
Source:Nekokoi ~ Nekogami Samato Nekomimi no Tatari ~
Tags:Whirlpool houten8 Fiya

[Difficulty]
HPDrainRate:2
CircleSize:3
OverallDifficulty:2
ApproachRate:3
SliderMultiplier:0.6
SliderTickRate:2

[Events]
//Background and Video events
0,0,"sd006.jpg"
//Break Periods
2,94660,98475
//Storyboard Layer 0 (Background)
//Storyboard Layer 1 (Fail)
//Storyboard Layer 2 (Pass)
//Storyboard Layer 3 (Foreground)
//Storyboard Sound Samples
//Background Colour Transformations
3,100,0,0,0

[TimingPoints]
370,340.909090909091,4,2,1,70,1,0
23381,-100,4,2,2,70,0,0
23722,-100,4,2,1,70,0,0
39915,-100,4,2,2,70,0,0
40085,-100,4,2,1,70,0,0
59006,-100,4,2,2,70,0,0
59176,-100,4,2,1,70,0,0
61733,-100,4,2,1,70,0,1
71960,-100,4,2,1,70,0,0
72642,-100,4,2,1,70,0,1
83551,-100,4,2,2,70,0,1
83722,-100,4,2,1,70,0,1
86279,-100,4,2,2,70,0,0
86449,-100,4,2,1,70,0,0
89006,-100,4,2,2,70,0,0
89176,-100,4,2,1,70,0,0
94460,-100,4,2,2,70,0,0
100085,-100,4,2,1,70,0,0
110824,-100,4,2,2,70,0,0
110995,-100,4,2,1,70,0,0
129915,-100,4,2,2,70,0,0
130085,-100,4,2,1,70,0,0
132642,-100,4,2,1,70,0,1
142870,-100,4,2,1,70,0,0
143551,-100,4,2,1,70,0,1
157188,-100,4,2,1,70,0,0

[Colours]
Combo1 : 128,255,128
Combo2 : 255,128,128
Combo3 : 255,255,128
SliderBorder : 255,255,255

[HitObjects]
256,44,1733,1,4
152,73,2415,1,2
82,155,3097,2,0,B|74:220|108:282,1,120,0|2
187,337,4460,6,0,B|252:363|318:336,1,120,0|2
383,357,5654,2,0,B|478:305|455:200,1,180,4|2
408,142,7188,6,0,B|335:145|290:106,1,120,4|8
188,123,8551,2,0,B|131:161|144:232,1,120
196,320,9915,1,4
268,355,10426,2,0,B|341:342|363:268,1,120,0|2
356,229,11449,2,0,B|343:157|343:157|426:99,1,150,0|8
439,70,12642,5,4
330,70,13324,1,8
224,92,14006,2,0,B|182:137|209:204,1,120,8|8
235,309,15370,5,2
127,307,16051,1,8
190,219,16733,2,0,B|164:152|85:152,1,120,8|8
84,45,18097,5,4
191,33,18779,1,8
267,108,19460,2,0,B|283:170|253:234,1,120,8|8
201,318,20824,6,0,B|260:349|320:315,1,120,4|2
394,336,22017,2,0,B|403:278|355:233|305:238,1,150,8|2
209,192,23551,5,4
108,230,24233,1,2
139,333,24915,2,0,B|185:371|264:348,1,120,0|2
331,276,26279,5,0
378,179,26960,1,2
336,108,27472,2,0,B|276:86|214:106,1,120,8|8
110,186,29006,6,0,B|166:214|227:190,1,120,0|2
278,285,30370,2,0,B|343:261|347:191,1,120,0|2
338,87,31733,6,0,B|405:88|439:148,1,120,8|8
436,225,32926,2,0,B|413:347|286:364,1,210,0|8
189,352,34801,5,8
102,286,35483,1,8
95,178,36165,1,8
108,125,36506,2,0,B|179:81,1,60,0|8
254,145,37529,6,0,B|305:156|355:109,1,90,8|0
387,101,38381,2,0,B|342:43|280:55,1,120,8|0
206,80,39574,1,0
164,114,39915,6,0,B|139:153|167:215,1,90,4|2
200,237,40767,1,0
249,260,41108,2,0,B|322:288|407:269,1,150,8|2
440,239,42301,1,0
455,187,42642,6,0,B|441:123|357:106,1,120
317,114,43665,2,0,B|263:148|191:138,1,120,8|8
103,94,45029,1,0
58,124,45370,6,0,B|39:155|41:185,1,60,4|8
62,284,46392,1,8
142,355,47074,1,8
250,357,47756,1,8
329,283,48438,5,8
338,175,49120,2,0,B|421:162|462:245,1,150,2|8
413,308,50483,5,0
386,355,50824,2,0,B|322:375|259:366,1,120,2|2
183,299,52188,2,0,B|249:302|302:260,1,120,0|2
335,194,53381,6,0,B|330:149|305:111,1,90,0|8
256,88,54233,1,0
189,134,54745,2,0,B|153:165|96:157,1,90
37,242,55938,6,0,B|48:278|80:290,1,60,0|4
175,325,56960,1,8
283,327,57642,2,0,B|333:289|323:220,1,120,0|8
411,158,59006,6,0,B|395:90|328:67,1,120,4|8
256,54,60199,2,0,B|221:52|192:69,1,60,2|0
146,48,60881,2,0,B|90:103|105:187,1,150,0|4
105,239,62074,5,8
153,335,62756,1,8
260,348,63438,1,8
360,308,64120,6,0,B|387:279|384:244,1,60,0|4
380,200,64801,1,8
317,111,65483,1,8
209,121,66165,2,0,B|174:174|208:246,1,120,2|2
230,283,67188,6,0,B|223:319|190:335,1,60,4|8
89,339,68210,1,8
69,232,68892,1,8
164,181,69574,2,0,B|229:216|286:153|351:202,1,180
397,250,71108,6,0,B|429:233|438:200,1,60,2|0
437,152,71790,2,0,B|419:112,1,30,2|4
350,48,72642,6,0,B|312:38|287:53,1,60,4|8
216,128,73665,1,8
240,233,74347,1,8
330,291,75029,1,8
294,331,75370,6,0,B|260:361|233:364,1,60,4|8
137,340,76392,2,0,B|71:308|60:212,1,150,2|0
66,165,77585,1,2
84,86,78097,6,0,B|131:47|202:55,1,120,4|8
254,145,79460,2,0,B|321:146|358:93,1,120,0|8
430,173,80824,6,0,B|429:297|312:335,1,210,4|2
265,342,82358,2,0,B|180:366|124:300,1,150,0|2
98,260,83551,6,0,B|79:228|88:197,1,60,4|8
111,97,84574,1,8
215,69,85256,1,8
312,115,85938,1,8
287,163,86279,6,0,B|271:194|286:235,1,60,4|8
329,318,87301,1,8
434,341,87983,1,8
475,241,88665,1,8
469,187,89006,6,0,B|464:157|439:135,1,60,4|8
338,97,90029,1,8
230,88,90710,1,8
147,157,91392,1,8
142,210,91733,6,0,B|141:276,1,60,2|8
169,315,92415,2,0,B|204:347|258:338,1,90,0|8
306,332,93267,2,0,B|362:330|385:288,1,90,2|8
419,190,94460,1,4
383,206,99915,6,0,B|326:174|266:202,1,120,4|2
234,99,101279,2,0,B|169:123|165:193,1,120,0|2
174,297,102642,6,0,B|107:296|73:236,1,120,2|2
76,159,103835,2,0,B|99:37|226:20,1,210,0|8
323,32,105710,5,8
410,98,106392,1,8
417,206,107074,1,8
351,292,107756,1,8
258,239,108438,6,0,B|169:235|138:323,1,150,8|0
248,325,109972,2,0,B|303:333|349:285|344:221,1,150,8|4
312,131,111506,5,10
209,97,112188,2,0,B|140:118|122:183,1,120,0|8
85,246,113381,6,0,B|108:300|168:304,1,90,0|8
200,284,114233,2,0,B|240:256|308:264,1,90,0|8
323,334,115256,2,0,B|356:353|385:331,1,60,0|8
427,307,115938,1,0
456,262,116279,6,0,B|467:229|456:197,1,60,4|8
457,94,117301,1,8
370,29,117983,1,8
262,27,118665,1,8
183,101,119347,5,8
200,207,120029,2,0,B|146:228|93:196|85:139,1,150,2|0
115,68,121392,5,8
157,35,121733,2,0,B|216:21|282:43,1,120,4|8
340,127,123097,2,0,B|281:141|215:119,1,120,0|10
178,220,124460,5,0
256,296,125142,1,2
323,250,125654,2,0,B|359:219|416:227,1,90,0|8
447,189,126506,1,0
474,142,126847,6,0,B|463:106|431:94,1,60,2|8
337,59,127869,1,2
229,57,128551,2,0,B|179:95|189:164,1,120,8|2
101,226,129915,6,0,B|117:294|184:317,1,120,4|8
256,330,131108,2,0,B|291:332|320:315,1,60,2|0
366,336,131790,2,0,B|422:281|407:197,1,150,0|4
407,145,132983,5,8
359,49,133665,1,8
252,36,134347,1,8
152,76,135029,6,0,B|125:105|128:140,1,60,0|4
132,184,135710,1,8
195,273,136392,1,8
303,263,137074,2,0,B|338:210|304:138,1,120,2|2
282,101,138097,6,0,B|289:65|322:49,1,60,4|8
423,45,139119,1,8
443,152,139801,1,8
348,203,140483,2,0,B|283:168|226:231|161:182,1,180
115,134,142017,6,0,B|83:151|74:184,1,60,2|0
72,232,142699,2,0,B|90:272,1,30,2|4
162,336,143551,6,0,B|200:346|225:331,1,60,4|8
296,256,144574,1,8
272,151,145256,1,8
182,93,145938,1,8
218,53,146279,6,0,B|252:23|279:20,1,60,4|8
375,41,147301,1,10
432,99,147813,2,0,B|455:158|437:221,1,120,2|2
427,298,149006,6,0,B|380:337|309:329,1,120,4|8
258,239,150369,2,0,B|191:238|154:291,1,120,0|8
82,211,151733,6,0,B|83:87|200:49,1,210,0|2
247,42,153267,2,0,B|332:18|388:84,1,150,0|4
256,192,154460,12,0,157188
