osu file format v9

[General]
AudioFilename: Concerto Note - NANA.mp3
AudioLeadIn: 0
PreviewTime: 60739
Countdown: 0
SampleSet: Normal
StackLeniency: 0.7
Mode: 0
LetterboxInBreaks: 1

[Editor]
Bookmarks: 6210,18482,40300,62119,83937
DistanceSpacing: 0.8
BeatDivisor: 2
GridSize: 8

[Metadata]
Title:Concerto Note
Artist:NANA
Creator:ElxBeta
Version:Normal
Source:Concerto Note
Tags:aplique soft aenna verdisphena lalarun

[Difficulty]
HPDrainRate:2
CircleSize:4
OverallDifficulty:3
ApproachRate:4
SliderMultiplier:1.2
SliderTickRate:1

[Events]
//Background and Video events
Video,0,"video.avi"
0,0,"BG.jpg"
//Break Periods
//Storyboard Layer 0 (Background)
//Storyboard Layer 1 (Fail)
//Storyboard Layer 2 (Pass)
//Storyboard Layer 3 (Foreground)
//Storyboard Sound Samples
//Background Colour Transformations
3,100,163,162,255

[TimingPoints]
6194,340.909090909091,4,1,0,69,1,0
62119,-100,4,1,0,69,0,1
83580,-100,4,1,0,69,0,0

[Colours]
Combo1 : 255,70,255
Combo2 : 255,131,6
Combo3 : 45,255,255

[HitObjects]
112,304,6194,1,4
168,224,6534,1,8
248,168,6875,2,0,B|248:48,2,120,0|8|0
328,224,7898,1,8
384,304,8239,1,0
440,224,8580,1,8
384,144,8921,6,2,B|384:88|384:88|352:120|320:136|280:112|264:72|288:32,1,240
240,32,9773,2,2,B|266:75|250:115|210:139|178:123|146:91|146:91|146:147,1,240,2|10
144,248,10796,1,0
224,296,11137,2,0,B|296:296,1,60,0|2
368,240,11648,5,4
288,184,11989,2,0,B|264:64,1,120,8|0
264,66,12671,2,0,B|240:192,1,120,8|0
176,112,13353,1,8
264,64,13693,1,0
352,112,14034,1,8
352,208,14375,6,12,B|352:344|232:344,1,180,12|4
184,280,15228,1,4
232,200,15568,1,12
256,192,15909,12,4,18466
64,64,19318,6,0,B|256:64,1,180,0|2
336,64,20171,2,0,B|368:96|328:128,1,60
304,208,20682,1,8
232,144,21023,1,8
136,144,21364,1,2
72,216,21705,1,2
72,312,22046,6,0,B|144:312,3,60,0|0|8|8
228,312,22898,2,0,B|292:312|348:312|340:192,1,180,0|2
472,160,23921,1,2
416,80,24262,1,8
328,40,24603,1,8
242,84,24944,1,8
176,152,25285,1,8
200,344,26137,6,0,B|272:344,2,60
160,208,26989,1,2
224,136,27330,1,2
320,136,27671,1,2
384,208,28012,1,2
296,328,28523,2,0,B|216:328,1,60
184,248,29034,2,0,B|120:248,2,60,0|8|0
360,128,30228,6,0,B|280:128,3,60,0|0|0|2
224,72,31080,2,0,B|168:104,1,60
144,192,31591,2,10,B|144:312,1,120
480,344,33125,6,0,B|416:344,1,60
376,328,33466,1,8
312,256,33807,2,0,B|392:256,1,60,8|0
344,160,34318,1,2
272,104,34659,1,2
176,120,35000,2,2,B|48:120,1,120
24,208,35682,1,2
72,208,35853,1,2
128,288,36193,1,0
224,288,36534,1,8
56,72,37216,6,0,B|136:72,1,60
176,72,37557,1,2
232,152,37898,2,2,B|152:152,1,60
80,152,38409,1,2
128,232,38750,2,2,B|88:280|112:336|208:368|280:320|296:264|248:208,1,300
360,232,39943,5,2
336,328,40284,2,0,B|456:328,2,120,14|0|0
256,272,41307,1,10
184,328,41648,2,0,B|56:328,2,120,2|0|0
256,272,42671,1,10
200,192,43012,2,2,B|200:160|200:160|200:128|216:88|264:28|264:28|304:88|320:128|320:168|320:168|320:216,1,360
256,272,44375,5,0
80,192,45057,1,0
256,112,45739,2,0,B|368:152,1,120,0|8
344,64,46421,1,0
256,24,46762,6,0,B|136:24,1,120,8|0
80,104,47443,1,8
72,200,47784,2,0,B|144:152|192:216|256:248|312:184,1,240
248,112,48807,5,8
344,112,49148,2,0,B|416:112|448:56,2,120,0|8|0
344,208,50171,1,8
344,304,50512,2,0,B|416:304|448:360,2,120,4|8|4
248,304,51534,6,0,B|128:304|128:304|48:304|80:224,1,240
144,224,52387,2,2,B|136:176|120:152|64:144|24:168|8:208,1,180
13,196,53068,1,10
272,48,53921,6,0,B|416:48|416:48,1,120,4|8
440,128,54603,1,0
344,136,54943,2,2,B|272:136,1,60
256,280,55625,2,2,B|320:280,1,60
408,312,56137,5,0
448,288,56307,1,0
488,264,56478,2,2,B|488:108|488:108|440:12|268:-52|64:12|32:108|32:108|32:268|32:268,1,840
256,192,59375,12,0,62103
48,88,62443,6,0,B|176:88,1,120,8|0
264,112,63125,1,10
360,136,63466,2,0,B|440:120|448:208,1,120,0|8
352,224,64148,2,8,B|312:296,1,60
272,360,64659,2,0,B|240:408|136:408|72:336|64:224|112:152|224:152,1,420,0|10
295,144,66193,5,0
376,88,66534,1,8
432,168,66875,2,0,B|456:232,1,60,0|8
464,320,67387,1,0
368,296,67728,2,0,B|304:296,1,60
256,216,68239,1,0
216,304,68580,2,8,B|216:344|176:344,1,60
40,96,69773,5,0
80,64,69943,1,12
120,96,70114,1,0
80,128,70284,2,12,B|80:272,1,120
80,296,70796,1,4
176,296,71137,2,0,B|176:168,1,120,0|2
176,80,71819,1,2
336,136,72330,5,0
336,136,72500,1,0
256,88,72841,2,2,B|168:168|304:320|416:224,1,300
248,352,74375,1,0
216,264,74716,1,8
120,264,75057,1,0
136,216,75228,1,8
40,240,75569,2,2,B|0:168|16:80|72:24|184:8|272:32|288:112,1,420
200,136,77103,5,0
136,208,77444,1,8
208,272,77784,2,0,B|272:216,1,60
320,304,78296,1,8
416,312,78637,1,0
416,312,78807,2,0,B|416:72,1,240,0|2
416,72,79659,1,2
72,336,81194,6,0,B|16:224|72:104,1,240
160,64,82216,1,2
248,24,82557,2,2,B|304:136|248:256,1,240
328,312,83580,1,0
424,312,83921,6,0,B|472:264|448:200,1,120,0|8
360,248,84603,2,0,B|344:184|272:184,1,120,0|8
272,184,85114,2,0,B|272:288|136:288,1,180,8|2
88,216,85966,1,0
136,136,86307,1,8
224,96,86648,6,0,B|320:96|320:96|384:144|320:248,1,240,4|0
285,235,87500,1,0
236,235,87671,1,8
188,235,87841,2,2,B|180:147|92:131|28:179|36:259,1,240
256,376,89375,5,0
312,296,89716,1,0
256,216,90057,5,0
192,144,90398,1,0
256,72,90739,5,0
320,144,91080,1,0
256,216,91421,5,0
168,256,91762,2,0,B|112:232,1,60
224,328,92444,5,8
312,296,92784,2,0,B|312:216|360:184,1,120,0|8
400,176,93296,1,0
328,112,93637,1,0
232,112,93978,2,0,B|112:112,1,120
80,152,94489,1,8
112,192,94659,6,2,B|240:192,2,120
144,280,95682,1,0
224,328,96023,2,0,B|344:360|384:248,1,180,10|0
464,160,97046,6,2,B|456:152|456:152|448:160|448:160|440:152|440:152|432:160|432:160|424:152|424:152|416:160|416:160|408:152|408:152|400:160|400:160|392:152|392:152|384:160|384:160|376:152,1,120,2|6
240,120,97898,6,2,B|192:80,1,60,2|6
192,224,98580,6,2,B|248:272,1,60,2|6
