osu file format v10

[General]
AudioFilename: Be_Natural.mp3
AudioLeadIn: 0
PreviewTime: 75392
Countdown: 0
SampleSet: Soft
StackLeniency: 0.7
Mode: 0
LetterboxInBreaks: 0

[Editor]
DistanceSpacing: 1.2
BeatDivisor: 4
GridSize: 4

[Metadata]
Title:Be_Natural (Short Ver.)
TitleUnicode:Be_Natural (Short Ver.)
Artist:NANA
ArtistUnicode:NANA
Creator:Melophobia
Version:Insane
Source:Konna Ko ga Itara Boku wa Mou ... !!
Tags:AKABEiSOFT2 rare r_a_r_e swish hentai eroge game visual novel
BeatmapID:129496
BeatmapSetID:40898

[Difficulty]
HPDrainRate:7
CircleSize:4
OverallDifficulty:7
ApproachRate:9
SliderMultiplier:1.8
SliderTickRate:2

[Events]
//Background and Video events
0,0,"BG.jpg"
//Break Periods
2,31502,32969
//Storyboard Layer 0 (Background)
//Storyboard Layer 1 (Fail)
//Storyboard Layer 2 (Pass)
//Storyboard Layer 3 (Foreground)
//Storyboard Sound Samples
//Background Colour Transformations
3,100,163,162,255

[TimingPoints]
2000,348.837209302326,4,2,1,70,1,0
13947,-100,4,1,0,60,0,0
14122,-100,4,1,0,70,0,0
14296,-100,4,1,0,80,0,0
14558,-100,4,2,1,80,0,1
15430,-100,4,2,1,60,0,1
15691,-100,4,2,1,80,0,1
16738,-100,4,2,1,60,0,1
17087,-100,4,2,1,80,0,1
17348,-100,4,2,1,80,0,1
17448,-100,4,2,1,80,0,1
17548,-100,4,2,1,80,0,1
17648,-100,4,2,1,80,0,1
17748,-100,4,2,1,80,0,1
17848,-100,4,2,1,80,0,1
17948,-100,4,2,1,80,0,1
18048,-100,4,2,1,80,0,1
18148,-100,4,2,1,80,0,1
18248,-100,4,2,1,80,0,1
18348,-100,4,2,1,80,0,1
18448,-100,4,2,1,80,0,1
18548,-100,4,2,1,80,0,1
18648,-100,4,2,1,80,0,1
18748,-100,4,2,1,80,0,1
18848,-100,4,2,1,80,0,1
18948,-100,4,2,1,80,0,1
19048,-100,4,2,1,80,0,1
19148,-100,4,2,1,80,0,1
19248,-100,4,2,1,80,0,1
19348,-100,4,2,1,80,0,1
19448,-100,4,2,1,80,0,1
19529,-100,4,2,1,60,0,1
19548,-100,4,2,1,80,0,1
19648,-100,4,2,1,80,0,1
19748,-100,4,2,1,80,0,1
19848,-100,4,2,1,80,0,1
19877,-100,4,2,1,80,0,1
19948,-100,4,2,1,80,0,1
20048,-100,4,2,1,80,0,1
20148,-100,4,2,1,80,0,1
20248,-100,4,2,1,80,0,1
20348,-100,4,2,1,80,0,1
20448,-100,4,2,1,80,0,1
20548,-100,4,2,1,80,0,1
20648,-100,4,2,1,80,0,1
20748,-100,4,2,1,80,0,1
20848,-100,4,2,1,80,0,1
24325,-100,4,2,1,80,0,0
24936,-100,4,2,1,50,0,0
25633,-100,4,2,1,70,0,0
30081,-100,4,2,1,50,0,0
31302,-100,4,2,1,5,0,0
33482,-100,4,2,1,60,0,0
44994,-100,4,2,1,80,0,0
50052,-100,4,2,1,60,0,0
51098,-100,4,2,1,80,0,0
75953,-100,4,2,1,80,0,1
76738,-100,4,2,1,60,0,1
77087,-100,4,2,1,80,0,1
78133,-100,4,2,1,60,0,1
78482,-100,4,2,1,80,0,1
80837,-100,4,2,1,60,0,1
81273,-100,4,2,1,80,0,1
86418,-100,4,2,1,70,0,0
86505,-100,4,1,1,60,0,0
86680,-100,4,1,1,70,0,0
86854,-100,4,1,1,80,0,0
87116,-100,4,2,1,80,0,1
87901,-100,4,2,1,60,0,1
88250,-100,4,2,1,80,0,1
89296,-100,4,2,1,60,0,1
89645,-100,4,2,1,80,0,1
92087,-100,4,2,1,60,0,1
92610,-100,4,2,1,80,0,1
97058,-100,4,2,1,60,0,1
97319,-100,4,2,1,80,0,1
97668,-100,4,2,1,60,0,1
98279,-100,4,2,1,70,0,0
100372,-100,4,2,1,50,0,0
100982,-100,4,2,1,80,0,0
103250,-100,4,2,1,50,0,0
103598,-100,4,2,1,70,0,0
104122,-100,4,2,1,60,0,0
106563,-100,4,2,1,70,0,0

[Colours]
Combo1 : 128,255,128
Combo2 : 128,128,255
Combo3 : 255,128,64

[HitObjects]
136,268,2872,2,0,B|120:220|68:192,2,90,0|2|0,0:0|0:0|0:0,0:0:0
232,300,3395,2,0,B|296:232|404:248,1,180,4|2,0:0|0:0,0:0:0
464,172,3918,2,0,B|416:92|308:68,1,180
320,71,4441,1,2,0:0:0
124,92,4790,6,0,B|136:192|64:256,1,180,0|2,0:0|0:0,0:0:0
32,160,5313,2,0,B|132:148|196:220,1,180
292,244,5837,2,0,B|296:292|328:336,2,90,2|0|0,0:0|0:0|0:0,0:0:0
340,156,6360,5,0,0:0:0
436,143,6534,2,0,B|488:136|507:95,1,90,2|0,0:0|0:0,0:0:0
360,44,6883,2,0,B|308:52|284:100,1,90
244,184,7232,1,2,0:0:0
148,164,7406,2,0,B|108:140|40:140,2,90
196,252,7930,2,0,B|280:312|384:296,2,180,2|0|2,0:0|0:0|0:0,0:0:0
284,76,8976,6,0,B|208:24|108:40,2,180,0|2|0,0:0|0:0|0:0,0:0:0
384,60,9848,1,0,0:0:0
428,148,10023,1,2,0:0:0
364,224,10197,1,0,0:0:0
272,184,10372,2,0,B|224:176|184:216,1,90
116,276,10720,1,2,0:0:0
52,200,10895,2,0,B|76:104|180:72,1,180
256,124,11418,2,0,B|296:156|364:132,1,90,2|0,0:0|0:0,0:0:0
424,192,11767,6,0,B|400:288|292:316,1,180,0|2,0:0|0:0,0:0:0
108,272,12465,2,0,B|64:276|24:320,2,90,0|0|2,0:0|0:0|0:0,0:0:0
208,272,12988,2,0,B|292:220|300:108,1,180,0|0,0:0|0:0,0:0:0
200,104,13511,2,0,B|188:152|148:184,1,90,2|0,0:0|0:0,0:0:0
408,64,14034,5,0,0:0:0
364,152,14209,1,0,0:0:0
408,240,14383,1,0,0:0:0
364,328,14558,5,4,0:0:0
364,328,14645,1,0,0:0:0
364,328,14732,1,0,0:0:0
448,164,14906,1,8,0:0:0
264,176,15081,2,0,B|216:152|200:80,1,90
272,32,15430,5,8,0:0:0
60,120,15604,2,0,B|36:160|48:224,1,90,8|0,0:0|0:0,0:0:0
112,276,15953,6,0,B|160:288|200:332,1,90,4|0,0:0|0:0,0:0:0
280,360,16302,1,8,0:0:0
364,304,16476,2,0,B|432:240|408:128,1,180,0|8,0:0|0:0,0:0:0
360,52,17000,1,8,0:0:0
260,44,17174,1,0,0:0:0
200,124,17348,5,4,0:0:0
200,124,17436,1,0,0:0:0
200,124,17523,1,0,0:0:0
160,32,17697,1,8,0:0:0
304,140,17872,1,0,0:0:0
139,208,18046,2,0,B|92:208|53:186,1,90,4|0,0:0|0:0,0:0:0
204,284,18395,2,0,B|252:284|296:308,1,90,8|0,0:0|0:0,0:0:0
336,80,18744,6,0,B|416:136|400:240,1,180,4|8,0:0|0:0,0:0:0
176,304,19267,2,0,B|96:248|112:144,1,180,4|8,0:0|0:0,0:0:0
144,52,19790,1,8,0:0:0
328,124,20139,5,4,0:0:0
424,140,20313,1,0,0:0:0
388,48,20488,1,8,0:0:0
364,216,20662,5,4,0:0:0
364,216,20750,1,0,0:0:0
364,216,20837,1,0,0:0:0
308,296,21011,1,8,0:0:0
468,232,21186,1,4,0:0:0
468,232,21273,1,0,0:0:0
468,232,21360,1,0,0:0:0
328,124,21534,5,4,0:0:0
232,108,21709,1,0,0:0:0
176,24,21883,1,8,0:0:0
181,203,22058,5,4,0:0:0
181,203,22145,1,0,0:0:0
181,203,22232,1,0,0:0:0
88,164,22406,1,8,0:0:0
102,265,22581,2,0,B|134:301|218:305,1,90,4|0,0:0|0:0,0:0:0
432,272,22930,6,0,B|372:188|276:200,1,180,4|0,0:0|0:0,0:0:0
181,203,23453,1,0,0:0:0
102,265,23627,1,0,0:0:0
277,199,23802,1,0,0:0:0
99,148,23977,1,4,0:0:0
215,297,24151,1,0,0:0:0
208,107,24325,1,4,0:0:0
416,189,25023,6,0,B|448:254|428:330,2,135
321,160,25720,2,0,B|226:136|182:39,1,180,4|0,0:0|0:0,0:0:0
86,48,26244,2,0,B|0:102|0:216,1,180
143,297,26767,5,0,0:0:0
236,265,26941,2,0,B|331:232|422:300,1,180
405,119,27465,2,0,B|436:148|447:197,1,90
307,118,27813,2,0,B|276:89|265:39,1,90
365,37,28162,1,0,0:0:0
166,304,28511,6,0,B|80:254|79:156,2,180,4|0|4,0:0|0:0|0:0,0:0:0
258,266,29383,1,0,0:0:0
345,312,29558,1,0,0:0:0
392,296,29645,1,0,0:0:0
428,258,29732,1,0,0:0:0
448,160,29906,1,4,0:0:0
256,192,30081,12,0,31302,0:0:0
147,279,33569,6,0,B|109:246|99:197,2,90,0|2|0,0:0|0:0|0:0,0:0:0
242,307,34093,2,0,B|270:270|350:254,1,90,4|0,0:0|0:0,0:0:0
416,257,34441,2,0,B|451:169|394:75,1,180,2|0,0:0|0:0,0:0:0
203,59,34965,5,0,0:0:0
112,97,35139,2,0,B|68:124|50:193,1,90,2|0,0:0|0:0,0:0:0
67,312,35488,2,0,B|111:286|121:243,1,90
208,196,35837,2,0,B|306:188|378:271,1,180,2|0,0:0|0:0,0:0:0
428,60,36534,5,2,0:0:0
334,99,36709,2,0,B|233:128|155:69,1,180
69,39,37232,1,2,0:0:0
2,123,37406,1,0,0:0:0
64,212,37581,1,0,0:0:0
168,180,37755,2,0,B|213:194|248:239,1,90,0|2,0:0|0:0,0:0:0
304,308,38104,6,0,B|396:276|420:168,1,180,0|0,0:0|0:0,0:0:0
320,48,38627,2,0,B|228:80|204:188,1,180,2|0,0:0|0:0,0:0:0
184,276,39151,2,0,B|152:320|80:316,2,90,0|2|0,0:0|0:0|0:0,0:0:0
280,296,39674,2,0,B|312:252|384:256,1,90
448,216,40023,2,0,B|436:112|336:72,1,180,2|0,0:0|0:0,0:0:0
260,124,40546,5,0,0:0:0
168,92,40720,1,2,0:0:0
72,120,40895,2,0,B|36:156|36:216,1,90
64,296,41244,1,0,0:0:0
164,288,41418,2,0,B|252:240|348:280,2,180,2|0|2,0:0|0:0|0:0,0:0:0
104,208,42290,5,0,0:0:0
176,140,42465,2,0,B|208:96|188:28,1,90
292,32,42813,1,2,0:0:0
392,40,42988,1,0,0:0:0
452,120,43162,1,0,0:0:0
448,220,43337,6,0,B|444:272|400:320,1,90,0|2,0:0|0:0,0:0:0
316,300,43686,2,0,B|264:288|200:344,2,90
328,200,44209,2,0,B|320:152|240:120,1,90,2|0,0:0|0:0,0:0:0
172,152,44558,1,0,0:0:0
108,238,44732,5,8,0:0:0
152,336,44906,1,8,0:0:0
256,345,45081,1,0,0:0:0
256,345,45168,1,0,0:0:0
256,345,45255,1,4,0:0:0
329,265,45430,1,0,0:0:0
316,156,45604,6,0,B|296:104|240:88,1,90,8|0,0:0|0:0,0:0:0
166,144,45953,2,0,B|120:144|88:182,1,90,0|0,0:0|0:0,0:0:0
164,240,46302,1,8,0:0:0
176,60,46476,2,0,B|76:56|12:140,1,180
16,230,47000,2,0,B|120:246|160:362,1,180,8|0,0:0|0:0,0:0:0
248,356,47523,5,0,0:0:0
332,305,47697,1,8,0:0:0
436,304,47872,1,0,0:0:0
471,212,48046,1,0,0:0:0
448,115,48220,1,0,0:0:0
352,88,48395,2,0,B|304:120|232:108,1,90,8|0,0:0|0:0,0:0:0
176,68,48744,5,0,0:0:0
80,92,48918,1,0,0:0:0
36,180,49093,1,8,0:0:0
56,276,49267,2,0,B|76:324|140:336,1,90
220,348,49616,1,0,0:0:0
284,228,49790,2,0,B|264:180|200:168,1,90,8|0,0:0|0:0,0:0:0
196,268,50139,5,8,0:0:0
372,200,50313,1,8,0:0:0
216,88,50488,1,8,0:0:0
256,192,50837,5,4,0:0:0
56,96,51186,5,8,0:0:0
464,172,51534,1,2,0:0:0
64,300,51883,1,8,0:0:0
256,268,52232,6,0,B|308:248|316:188,1,90,2|0,0:0|0:0,0:0:0
344,108,52581,1,8,0:0:0
248,88,52755,2,0,B|196:80|168:36,1,90,2|0,0:0|0:0,0:0:0
29,67,53104,2,0,B|80:75|104:112,1,90,0|8,0:0|0:0,0:0:0
132,208,53453,2,0,B|220:256|304:208,1,180,2|0,0:0|0:0,0:0:0
404,220,53976,1,8,0:0:0
404,220,54063,1,0,0:0:0
404,220,54151,2,0,B|432:172|432:124,1,90
384,48,54500,5,0,0:0:0
292,84,54674,1,8,0:0:0
192,76,54848,2,0,B|84:96|56:204,1,180
160,204,55372,2,0,B|256:248|256:360,2,180,8|0|8,0:0|0:0|0:0,0:0:0
100,124,56244,1,0,0:0:0
132,32,56418,1,4,0:0:0
436,48,56767,6,0,B|480:136|468:228,1,180,4|0,0:0|0:0,0:0:0
424,312,57290,1,0,0:0:0
324,328,57465,1,8,0:0:0
167,267,57639,2,0,B|223:248|256:256,1,90,4|0,0:0|0:0,0:0:0
348,228,57988,1,0,0:0:0
104,181,58162,2,0,B|186:141|280:156,2,180,4|0|8,0:0|0:0|0:0,0:0:0
80,276,59034,1,0,0:0:0
176,256,59209,2,0,B|224:180|188:80,1,180,4|8,0:0|0:0,0:0:0
104,28,59732,1,0,0:0:0
36,100,59906,6,0,B|44:148|32:200,1,90
20,288,60255,1,8,0:0:0
120,300,60430,2,0,B|216:272|296:328,1,180
384,284,60953,2,0,B|420:328|484:320,2,90,8|0|0,0:0|0:0|0:0,0:0:0
352,188,61476,1,0,0:0:0
276,124,61651,1,8,0:0:0
240,160,61738,1,0,0:0:0
192,176,61825,1,0,0:0:0
144,160,61912,1,0,0:0:0
108,124,62000,1,0,0:0:0
408,72,62348,6,0,B|464:152|440:268,1,180,4|0,0:0|0:0,0:0:0
368,308,62872,1,0,0:0:0
272,284,63046,2,0,B|224:276|184:296,2,90,8|4|0,0:0|0:0|0:0,0:0:0
332,204,63569,1,0,0:0:0
236,176,63744,2,0,B|148:120|160:20,1,180,4|0,0:0|0:0,0:0:0
476,232,64441,5,8,0:0:0
408,308,64616,1,0,0:0:0
308,296,64790,2,0,B|220:256|120:300,1,180,4|8,0:0|0:0,0:0:0
36,268,65313,1,0,0:0:0
36,268,65401,1,0,0:0:0
36,268,65488,2,0,B|20:168,1,90,4|0,0:0|0:0,0:0:0
92,76,65837,1,8,0:0:0
212,108,66011,1,0,0:0:0
212,108,66098,1,0,0:0:0
212,108,66186,2,0,B|260:128|328:104,1,90,4|0,0:0|0:0,0:0:0
412,140,66534,6,0,B|432:192,3,45
412,220,66883,2,0,B|384:280,3,45
368,296,67232,1,0,0:0:0
340,324,67319,1,0,0:0:0
304,340,67406,1,0,0:0:0
264,340,67494,1,0,0:0:0
224,328,67581,5,4,0:0:0
152,260,67755,1,0,0:0:0
64,308,67930,1,0,0:0:0
112,132,68104,1,4,0:0:0
112,132,68191,1,0,0:0:0
112,132,68278,1,0,0:0:0
200,176,68453,1,0,0:0:0
292,144,68627,1,0,0:0:0
383,304,68976,6,0,B|372:264|332:232,1,90,4|0,0:0|0:0,0:0:0
252,292,69325,1,0,0:0:0
156,276,69500,2,0,B|108:192|132:100,1,180,4|0,0:0|0:0,0:0:0
208,40,70023,1,0,0:0:0
424,192,70372,6,0,B|380:212|356:260,1,90,4|0,0:0|0:0,0:0:0
316,340,70720,1,8,0:0:0
316,340,70808,1,0,0:0:0
316,340,70895,1,0,0:0:0
232,296,71069,2,0,B|200:256|140:256,1,90
64,216,71418,2,0,B|48:160|56:112,1,90,8|0,0:0|0:0,0:0:0
120,52,71767,1,0,0:0:0
288,160,72116,5,8,0:0:0
288,160,72290,1,0,0:0:0
360,92,72465,2,0,B|392:136|384:200,1,90
368,276,72813,1,8,0:0:0
292,340,72988,1,0,0:0:0
196,324,73162,2,0,B|128:272|24:280,2,180,4|8|0,0:0|0:0|0:0,0:0:0
292,340,74034,5,0,0:0:0
352,240,74209,1,0,0:0:0
308,132,74383,2,0,B|256:56|120:68,1,180,4|4,0:0|0:0,0:0:0
148,66,74906,1,4,0:0:0
68,272,75430,5,0,0:0:0
152,316,75604,1,0,0:0:0
224,248,75779,1,0,0:0:0
248,344,75953,5,4,0:0:0
248,344,76040,1,0,0:0:0
248,344,76127,1,0,0:0:0
128,212,76302,1,8,0:0:0
252,80,76476,2,0,B|296:56|348:56,1,90
436,60,76825,5,8,0:0:0
416,240,77000,2,0,B|376:272|316:268,1,90,8|0,0:0|0:0,0:0:0
252,208,77348,6,0,B|196:188|172:128,1,90,4|0,0:0|0:0,0:0:0
156,56,77697,1,8,0:0:0
18,279,77872,2,0,B|8:188|72:112,1,180,0|8,0:0|0:0,0:0:0
164,144,78395,1,8,0:0:0
256,176,78569,1,0,0:0:0
348,144,78744,1,0,0:0:0
180,240,78918,5,0,0:0:0
332,240,79093,1,8,0:0:0
256,76,79267,1,0,0:0:0
156,68,79441,5,0,0:0:0
68,112,79616,1,0,0:0:0
28,200,79790,1,8,0:0:0
52,296,79965,2,0,B|64:336|140:384,1,90
176,288,80313,1,0,0:0:0
272,320,80488,2,0,B|352:340|416:252,1,135,8|0,0:0|0:0,0:0:0
428,244,80837,5,8,0:0:0
416,100,81011,1,8,0:0:0
280,56,81186,2,0,B|232:32|176:56,1,90,8|0,0:0|0:0,0:0:0
56,100,81534,6,0,B|44:196|100:276,1,180,4|8,0:0|0:0,0:0:0
176,332,82058,1,0,0:0:0
176,332,82145,1,0,0:0:0
176,332,82232,2,0,B|228:332|268:300,1,90
296,212,82581,1,8,0:0:0
380,160,82755,1,0,0:0:0
212,52,82930,6,0,B|128:120|120:236,1,180,4|8,0:0|0:0,0:0:0
300,332,83453,2,0,B|384:264|392:148,1,180,0|0,0:0|0:0,0:0:0
368,84,83976,1,8,0:0:0
140,100,84151,5,0,0:0:0
84,184,84325,2,0,B|56:228|60:288,1,90,4|0,0:0|0:0,0:0:0
128,344,84674,1,8,0:0:0
128,344,84761,1,0,0:0:0
128,344,84848,1,0,0:0:0
224,328,85023,1,4,0:0:0
288,256,85197,1,0,0:0:0
316,352,85372,1,8,0:0:0
196,228,85546,5,0,0:0:0
204,180,85633,1,0,0:0:0
228,136,85720,2,0,B|280:44|392:44,1,180,4|8,0:0|0:0,0:0:0
434,218,86244,2,0,B|410:179|424:132,1,90,4|0,0:0|0:0,0:0:0
464,40,86593,5,0,0:0:0
332,164,86767,1,0,0:0:0
160,112,86941,1,0,0:0:0
84,176,87116,5,4,0:0:0
84,176,87203,1,0,0:0:0
84,176,87290,1,0,0:0:0
216,296,87465,1,8,0:0:0
392,256,87639,2,0,B|428:228|436:160,1,90
416,80,87988,5,8,0:0:0
348,344,88162,2,0,B|300:368|248:352,1,90,8|0,0:0|0:0,0:0:0
168,320,88511,5,4,0:0:0
168,320,88598,1,0,0:0:0
168,320,88686,1,0,0:0:0
100,156,88860,1,8,0:0:0
260,72,89034,2,0,B|360:96|384:188,1,180,0|8,0:0|0:0,0:0:0
356,292,89558,5,8,0:0:0
250,269,89732,1,0,0:0:0
178,349,89906,1,4,0:0:0
178,349,89994,1,0,0:0:0
178,349,90081,1,0,0:0:0
217,166,90255,1,8,0:0:0
160,76,90430,1,0,0:0:0
260,36,90604,2,0,B|304:48|331:89,1,90,4|0,0:0|0:0,0:0:0
328,196,90953,1,8,0:0:0
328,196,91040,1,0,0:0:0
328,196,91127,1,0,0:0:0
192,324,91302,6,0,B|128:260|140:148,1,180,4|8,0:0|0:0,0:0:0
288,56,91825,2,0,B|352:120|340:232,1,180,4|8,0:0|0:0,0:0:0
312,316,92348,1,8,0:0:0
112,320,92697,5,4,0:0:0
60,236,92872,1,0,0:0:0
64,136,93046,1,8,0:0:0
128,60,93220,5,4,0:0:0
128,60,93308,1,0,0:0:0
128,60,93395,1,0,0:0:0
308,68,93569,1,8,0:0:0
388,228,93744,1,4,0:0:0
388,228,93831,1,0,0:0:0
388,228,93918,1,0,0:0:0
220,292,94093,5,4,0:0:0
219,124,94267,1,0,0:0:0
317,260,94441,1,8,0:0:0
158,207,94616,1,4,0:0:0
158,207,94703,1,0,0:0:0
158,207,94790,1,0,0:0:0
317,156,94965,1,8,0:0:0
472,200,95139,6,0,B|456:304|368:344,1,180,4|4,0:0|0:0,0:0:0
332,356,95575,1,0,0:0:0
288,360,95662,1,0,0:0:0
244,352,95750,1,0,0:0:0
200,336,95837,1,0,0:0:0
164,308,95924,1,0,0:0:0
136,276,96011,1,0,0:0:0
116,236,96098,1,0,0:0:0
104,192,96186,5,0,0:0:0
220,124,96360,1,0,0:0:0
352,152,96534,1,0,0:0:0
396,280,96709,1,0,0:0:0
280,240,96883,5,4,0:0:0
308,40,97145,1,4,0:0:0
468,164,97406,1,4,0:0:0
248,304,97755,1,0,0:0:0
152,276,97930,2,0,B|112:228|104:160,1,90,4|0,0:0|0:0,0:0:0
156,108,98279,6,0,B|128:64|72:56,2,90,4|0|8,0:0|0:0|0:0,0:0:0
232,172,98802,1,0,0:0:0
328,160,98976,2,0,B|376:184|388:244,1,90
356,324,99325,1,8,0:0:0
260,300,99500,2,0,B|188:268|84:300,1,180
28,216,100023,2,0,B|40:128|136:92,1,135,8|0,0:0|0:0,0:0:0
148,88,100372,5,8,0:0:0
308,96,100546,1,8,0:0:0
404,224,100720,2,0,B|424:276|420:332,1,90,8|0,0:0|0:0,0:0:0
268,336,101069,6,0,B|236:304|168:296,1,90,4|0,0:0|0:0,0:0:0
92,320,101418,1,8,0:0:0
56,228,101593,2,0,B|56:156|88:120,1,90
152,84,101941,1,0,0:0:0
252,68,102116,1,8,0:0:0
348,80,102290,6,0,B|436:136|448:248,1,180
436,324,102813,1,8,0:0:0
340,308,102988,2,0,B|256:260|172:292,1,135,0|0,0:0|0:0,0:0:0
168,296,103337,1,8,0:0:0
60,200,103511,1,8,0:0:0
60,200,103598,1,0,0:0:0
60,200,103686,1,0,0:0:0
136,76,103860,1,4,0:0:0
256,316,104209,5,8,0:0:0
149,255,104558,1,8,0:0:0
149,130,104906,1,8,0:0:0
256,68,105255,1,12,0:0:0
364,130,105604,1,8,0:0:0
363,255,105953,1,8,0:0:0
256,316,106302,1,8,0:0:0
256,191,106651,6,0,B|256:51,2,135,4|0|0,0:0|0:0|0:0,0:0:0
256,191,107348,1,4,0:0:0
256,192,107436,12,4,109093,0:0:0
256,192,109441,5,4,0:0:0
256,192,109529,12,4,112232,0:0:0
