osu file format v14

[General]
AudioFilename: run!_run!_run!.mp3
AudioLeadIn: 1700
PreviewTime: 241
Countdown: 0
SampleSet: Soft
StackLeniency: 0.7
Mode: 0
LetterboxInBreaks: 0
WidescreenStoryboard: 0

[Editor]
DistanceSpacing: 1
BeatDivisor: 4
GridSize: 4
TimelineZoom: 2.1

[Metadata]
Title:RUN!RUN!RUN!
TitleUnicode:RUN!RUN!RUN!
Artist:NAMCO
ArtistUnicode:ナムコ
Creator:Doyak
Version:Habi's Easy
Source:風のクロノア2~世界が望んだ忘れもの~
Tags:HabiHolic Natsu Nozhomi Katsuro Tajima Klonoa2: Lunatea's Veil Kaze no Kuronoa Sekai ga Nozonda Wasuremono Jungle Slider Playstation
BeatmapID:926338
BeatmapSetID:323751

[Difficulty]
HPDrainRate:2
CircleSize:3
OverallDifficulty:2
ApproachRate:3
SliderMultiplier:0.899999999999999
SliderTickRate:1

[Events]
//Background and Video events
0,0,"Klonoa 2_03.jpg",0,0
//Break Periods
//Storyboard Layer 0 (Background)
//Storyboard Layer 1 (Fail)
//Storyboard Layer 2 (Pass)
//Storyboard Layer 3 (Foreground)
//Storyboard Sound Samples

[TimingPoints]
324,333.333333333333,4,2,1,70,1,0
27001,333.333333333333,4,2,1,70,1,0

[Colours]
Combo1 : 241,82,14
Combo2 : 0,179,0
Combo3 : 20,228,252
Combo4 : 181,167,38

[HitObjects]
188,80,324,6,0,P|188:124|164:168,1,89.9999999999999,10|0,0:0|0:0,0:0:0:0:
212,243,991,2,0,P|254:232|298:242,1,89.9999999999999,2|0,0:0|0:0,0:0:0:0:
344,164,1657,2,0,P|324:124|324:80,1,89.9999999999999,2|0,0:0|0:0,0:0:0:0:
412,64,2324,2,0,P|432:103|432:148,1,89.9999999999999,2|10,0:0|0:0,0:0:0:0:
404,232,2991,5,6,0:0:0:0:
344,164,3324,1,2,0:0:0:0:
264,204,3657,2,0,L|168:196,1,89.9999999999999,2|2,0:0|0:0,0:0:0:0:
104,144,4324,2,0,B|68:200|100:248|100:248|72:320,1,180,2|2,0:0|0:0,0:0:0:0:
152,360,5324,1,2,0:0:0:0:
228,307,5657,6,0,P|270:294|312:308,1,89.9999999999999,2|2,0:0|0:0,0:0:0:0:
392,348,6324,2,0,P|436:352|476:328,1,89.9999999999999,2|2,0:0|0:0,0:0:0:0:
416,260,6991,2,0,B|408:200|408:200|424:144|424:144|408:72,1,180,10|10,0:0|0:0,0:0:0:0:
336,36,7991,1,10,0:0:0:0:
271,96,8324,6,0,P|190:123|124:68,1,180,2|2,0:0|0:0,0:0:0:0:
208,36,9324,1,2,0:0:0:0:
271,96,9657,2,0,L|264:276,1,180,2|2,0:0|0:0,0:0:0:0:
196,336,10657,1,2,0:0:0:0:
136,272,10991,6,0,L|44:280,1,89.9999999999999,2|2,0:0|0:0,0:0:0:0:
40,192,11657,2,0,L|132:184,1,89.9999999999999,2|2,0:0|0:0,0:0:0:0:
220,183,12324,6,0,P|210:140|179:109,2,89.9999999999999,10|0|10,0:0|0:0|0:0,0:0:0:0:
176,264,13324,1,0,0:0:0:0:
240,328,13657,6,0,L|332:320,1,89.9999999999999,8|0,0:0|0:0,0:0:0:0:
412,360,14324,2,0,P|420:316|404:268,1,89.9999999999999,10|10,0:0|0:0,0:0:0:0:
328,228,14991,6,0,P|268:165|289:81,1,180,2|2,0:0|0:0,0:0:0:0:
356,140,15991,1,2,0:0:0:0:
384,56,16324,2,0,P|443:118|422:202,1,180,2|2,0:0|0:0,0:0:0:0:
396,288,17324,1,2,0:0:0:0:
316,328,17657,6,0,L|220:320,1,89.9999999999999,10|0,0:0|0:0,0:0:0:0:
156,264,18324,1,10,0:0:0:0:
72,296,18657,1,0,0:0:0:0:
88,208,18991,6,0,P|76:164|88:120,1,89.9999999999999,10|0,0:0|0:0,0:0:0:0:
156,64,19657,2,0,L|252:72,1,89.9999999999999,10|10,0:0|0:0,0:0:0:0:
315,127,20324,6,0,P|400:136|460:64,1,180,2|2,0:0|0:0,0:0:0:0:
368,48,21324,1,2,0:0:0:0:
315,127,21657,2,0,L|336:324,1,180,2|2,0:0|0:0,0:0:0:0:
256,356,22657,1,2,0:0:0:0:
177,307,22991,6,0,L|196:127,1,180,2|0,0:0|0:0,0:0:0:0:
256,60,23991,1,2,0:0:0:0:
312,128,24324,6,0,P|360:140|400:128,1,89.9999999999999,10|0,0:0|0:0,0:0:0:0:
468,72,24991,1,10,0:0:0:0:
484,160,25324,1,10,0:0:0:0:
427,232,25657,6,0,P|384:243|339:240,1,89.9999999999999,10|0,0:0|0:0,0:0:0:0:
248,240,26324,2,0,P|203:242|159:231,1,89.9999999999999,10|10,0:0|0:0,0:0:0:0:
72,204,27001,6,0,L|80:296,2,89.9999999999999,10|0|2,0:0|0:0|0:0,0:0:0:0:
140,144,28001,1,0,0:0:0:0:
212,196,28334,2,0,L|304:188,1,89.9999999999999,2|0,0:0|0:0,0:0:0:0:
384,224,29000,2,0,P|392:176|376:132,1,89.9999999999999,2|2,0:0|0:0,0:0:0:0:
456,88,29667,6,0,P|485:171|467:258,1,180,6|2,0:0|0:0,0:0:0:0:
400,320,30667,1,2,0:0:0:0:
328,268,31000,2,0,B|284:256|284:256|232:272,1,89.9999999999999,2|2,0:0|0:0,0:0:0:0:
160,312,31667,2,0,B|117:325|117:325|73:313,1,89.9999999999999,2|2,0:0|0:0,0:0:0:0:
20,240,32334,6,0,L|8:144,1,89.9999999999999,2|2,0:0|0:0,0:0:0:0:
76,87,33000,2,0,P|118:75|160:89,1,89.9999999999999,2|2,0:0|0:0,0:0:0:0:
219,159,33667,6,0,P|302:185|369:131,1,180,10|10,0:0|0:0,0:0:0:0:
288,96,34667,1,10,0:0:0:0:
364,40,35000,6,0,P|408:48|448:84,1,89.9999999999999,2|2,0:0|0:0,0:0:0:0:
480,160,35667,2,0,L|476:264,1,89.9999999999999,2|2,0:0|0:0,0:0:0:0:
420,320,36334,2,0,B|324:340|336:280|240:296,1,180,2|2,0:0|0:0,0:0:0:0:
168,344,37334,1,2,0:0:0:0:
88,300,37667,6,0,L|76:208,1,89.9999999999999,2|2,0:0|0:0,0:0:0:0:
24,140,38334,2,0,P|64:120|112:128,1,89.9999999999999,2|2,0:0|0:0,0:0:0:0:
180,180,39000,6,0,P|224:185|264:166,1,89.9999999999999,10|0,0:0|0:0,0:0:0:0:
348,132,39667,2,0,L|440:140,1,89.9999999999999,10|0,0:0|0:0,0:0:0:0:
432,228,40334,2,0,L|342:220,1,89.9999999999999,10|0,0:0|0:0,0:0:0:0:
276,280,41000,2,0,L|186:272,1,89.9999999999999,10|10,0:0|0:0,0:0:0:0:
112,224,41667,6,0,P|121:136|187:77,1,180,2|2,0:0|0:0,0:0:0:0:
256,20,42667,1,2,0:0:0:0:
324,77,43000,2,0,P|390:136|400:224,1,180,2|2,0:0|0:0,0:0:0:0:
340,292,44000,1,2,0:0:0:0:
264,240,44334,6,0,L|172:232,1,89.9999999999999,10|0,0:0|0:0,0:0:0:0:
96,268,45000,2,0,P|88:220|112:176,1,89.9999999999999,10|0,0:0|0:0,0:0:0:0:
184,140,45667,2,0,L|273:147,1,89.9999999999999,10|0,0:0|0:0,0:0:0:0:
352,196,46334,2,0,P|364:152|352:100,1,89.9999999999999,10|10,0:0|0:0,0:0:0:0:
280,60,47000,6,0,B|220:60|220:60|168:32|168:32|96:32,1,180,2|2,0:0|0:0,0:0:0:0:
56,108,48000,1,2,0:0:0:0:
104,184,48334,2,0,B|164:184|164:184|216:212|216:212|288:212,1,180,2|2,0:0|0:0,0:0:0:0:
348,156,49334,1,2,0:0:0:0:
416,212,49667,6,0,P|432:256|420:304,1,89.9999999999999,2|10,0:0|0:0,0:0:0:0:
348,348,50334,2,0,L|248:336,1,89.9999999999999,0|2,0:0|0:0,0:0:0:0:
256,192,51000,12,2,53500,0:0:0:0:
