osu file format v5

[General]
AudioFilename: 06 INVASION OF GRACEMERIA.mp3
AudioLeadIn: 0
PreviewTime: -1
Countdown: 1
SampleSet: Soft
StackLeniency: 0.7
Mode: 0
EditorBookmarks: 7565,16174,21391,25435,29087,29218,32348,36000,41740,48523,68871,75132,79045,82958,93915,111133,128351,132786,135655,146090,152482,168526,177396,185483,195135,201396,243397,267267

[Metadata]
Title:Invasion of Gracemaria (AC6)
Artist:NAMCO
Creator:Ryusho
Version:Hard

[Difficulty]
HPDrainRate:5
CircleSize:5
OverallDifficulty:5
SliderMultiplier:1.4
SliderTickRate:1

[Events]
//Background and Video events
0,0,"Ace-Combat-6-Fires-of-Liberation-1214.jpg"
//Break Periods
2,35679,40540
2,58636,73932
2,91898,94541
2,96072,98715
2,100246,102889
2,104420,106281
2,108463,111237
2,117072,119585
2,121115,122977
2,245945,251328
//Storyboard Layer 0 (Background)
//Storyboard Layer 1 (Failing)
//Storyboard Layer 2 (Passing)
//Storyboard Layer 3 (Foreground)
//Storyboard Sound Samples
//Background Colour Transformations
3,100,163,162,255

[TimingPoints]
0,521.753,4,2,0,100

[HitObjects]
256,192,8348,1,0
256,192,10435,1,0
256,192,12522,1,0
256,192,14609,1,0
256,192,16696,5,0
256,192,17739,1,0
320,192,18783,1,0
192,192,19826,1,0
256,192,20609,1,0
256,192,20739,1,0
256,192,20870,1,0
256,128,21913,5,0
256,64,22957,1,0
320,64,24000,1,0
320,96,24261,1,0
320,96,24391,1,0
320,128,24522,1,0
320,160,24783,1,0
320,192,25044,1,0
256,192,25826,5,0
256,192,26087,1,0
192,192,26870,1,0
128,192,27131,1,0
128,128,27913,1,0
128,128,28109,1,0
128,128,28435,1,0
128,128,28565,1,0
128,128,28696,1,0
192,128,28957,1,0
256,128,29218,5,0
320,128,29479,2,0,B|320:224,1,70
256,192,30000,1,0
192,192,30261,1,0
128,192,30522,2,0,B|128:128,2,35
128,256,31044,1,0
128,256,31174,1,0
128,256,31305,1,0
192,256,31566,1,0
256,256,31826,1,0
320,256,32087,6,0,B|384:192,4,70
256,256,33392,5,0
256,224,33653,1,0
256,192,33913,1,0
256,160,34174,1,0
256,160,34305,1,0
320,160,34435,5,0
320,192,34696,1,0
320,224,34957,1,0
320,224,35218,1,0
320,224,35348,1,0
320,224,35479,1,4
32,32,41740,5,0
96,96,42261,1,0
160,160,42783,1,0
224,224,43305,1,0
288,256,43827,1,0
352,224,44870,1,0
256,64,45653,5,0
256,96,45914,1,0
256,128,46175,1,0
256,160,46436,1,0
320,192,46957,5,0
384,192,47218,1,0
448,192,47479,1,0
448,128,47740,1,0
448,64,48001,1,2
384,64,48523,6,0,B|288:64,2,70
384,128,49305,6,0,B|320:128,4,35
384,192,50088,1,0
384,256,50870,2,0,B|320:256,2,35
384,320,51653,2,0,B|224:320|224:320|224:192|224:192|384:192,1,420
352,192,53740,1,0
256,192,54262,5,0
128,192,54784,1,0
256,128,55305,1,0
128,128,55827,1,0
256,64,56349,5,0
192,64,56610,1,0
128,64,56871,1,0
128,128,57131,1,0
192,128,57392,1,0
256,128,57653,1,0
256,192,57914,1,0
128,192,58436,1,0
512,384,75132,6,0,B|508:257|512:128|511:1|321:0|194:0|-1:5|0:159|4:259|0:384,1,980
0,352,79306,6,0,B|0:256|0:128|0:0|216:1|315:2|512:0|511:129|512:256|512:384,1,980
448,352,83480,6,0,B|288:352,1,140
256,352,84523,2,0,B|96:352,1,140
128,288,85567,2,0,B|288:288,1,140
320,288,86610,2,0,B|480:288,1,140
416,192,87654,2,0,B|128:192,3,280
256,192,91176,1,2
256,128,91698,1,6
416,96,95741,5,6
416,160,95872,1,6
64,96,99915,5,6
64,160,100046,1,6
256,192,104089,5,6
256,192,104220,1,6
160,64,107481,5,6
256,64,107872,1,6
352,64,108263,1,6
256,192,112437,5,2
32,96,113742,5,0
32,160,113872,1,0
32,224,114003,1,0
480,96,115046,5,0
480,160,115176,1,0
480,224,115307,1,0
256,192,116611,5,4
256,192,116742,1,4
256,192,116872,1,4
256,192,120785,2,4,B|320:192,1,35
160,352,124177,5,4
256,352,124568,1,4
352,352,124959,1,4
256,96,126785,5,2
256,128,126916,1,2
256,160,127046,1,2
256,160,127177,1,2
256,192,127307,1,2
288,192,129133,5,2
256,192,129264,1,2
224,192,129394,1,2
256,256,130438,1,2
320,256,130960,1,2
384,256,131481,2,2,B|384:128|160:96,1,280
160,96,133047,5,2
160,160,133568,2,2,B|160:288,1,105
160,320,134090,2,2,B|320:320|416:192,1,280
352,192,135394,1,2
288,192,135655,6,2,B|288:32|96:32|0:352,1,490
64,352,137742,2,2,B|192:352|192:352|192:224|192:224|320:224|320:224|320:160,1,420
320,187,139568,1,2
320,128,139829,6,2,B|160:128,4,140
256,192,143742,6,2,B|256:128,1,35
256,96,144003,2,2,B|128:96|128:96|128:224|128:224|288:224|288:224|288:256,1,420
288,160,145829,1,2
288,96,146090,6,2,B|416:96|416:96|416:256,2,280
224,96,148699,1,2
160,96,149221,2,2,B|160:256,1,140
160,224,150264,2,2,B|320:224,1,140
352,224,151308,2,2,B|352:96|352:96|192:32,1,280
160,32,152612,6,0,B|160:128,1,70
160,160,153134,2,0,B|256:160,1,70
288,160,153656,2,0,B|288:256,1,70
288,288,154178,2,0,B|192:288,2,70
320,288,154960,1,0
384,288,155221,1,0
384,192,155482,1,0
480,64,156525,6,0,B|192:96|192:96|0:32|0:32|32:192|32:192|0:384|0:384|192:288|192:288|320:352|320:352|480:256|480:256|384:160|384:160|480:96,2,1610
256,224,169047,1,0
320,224,170091,2,0,B|320:64,3,140
192,96,172178,2,0,B|192:256,3,140
256,224,174265,2,0,B|256:64,1,140
192,32,175309,2,0,B|352:32,1,140
320,96,176091,5,0
320,128,176352,1,0
320,192,176874,1,0
256,192,177396,5,0
256,128,178178,1,0
256,96,178309,1,0
256,64,178439,1,0
192,64,179222,1,0
192,96,179352,1,0
192,128,179483,1,0
192,192,180004,1,0
256,192,180265,1,0
320,192,180526,1,0
256,128,181048,5,0
192,128,181570,2,0,B|32:128|32:352,1,280
96,320,183135,1,0
160,320,183657,2,0,B|256:192,1,140
256,192,184700,2,0,B|352:320,1,140
352,288,185744,6,0,B|480:192|288:64,1,280
224,64,187309,1,0
160,64,187831,2,0,B|32:160|256:256,1,280
288,256,189396,1,0
352,256,189918,6,0,B|352:96|352:96|288:32|288:32|256:32,1,280
96,32,191744,1,0
96,32,192005,2,0,B|0:128|128:288|320:320|480:224,1,560
256,32,195657,5,0
256,96,195918,1,0
256,160,196179,1,0
256,224,196700,1,0
320,224,197222,2,0,B|320:64,4,140
256,224,199831,1,0
192,224,200353,1,0
128,224,200874,1,2
352,256,201396,6,2,B|96:96,1,280
32,64,202961,1,0
96,64,203483,2,0,B|256:96,1,140
256,96,204527,2,0,B|416:64,1,140
480,96,205570,2,0,B|352:192,1,140
192,288,206614,6,0,B|64:384,1,140
0,320,207657,2,0,B|64:192,1,140
64,192,208701,2,0,B|0:64,1,140
32,64,209744,1,0
96,96,210005,1,0
160,128,210266,1,0
224,160,210527,6,0,B|288:160,1,35
288,160,210788,2,0,B|416:224,1,140
416,256,211831,2,0,B|288:352,1,140
288,352,212875,2,0,B|160:256,1,140
176,268,213657,1,0
176,268,213918,1,0
224,224,214440,6,0,B|192:192,3,35
224,224,214962,1,6
352,64,216005,5,4
288,64,216397,1,4
224,64,216788,1,4
224,128,218092,2,4,B|224:256,2,105
416,288,220179,5,4
416,224,220571,2,4,B|288:224,1,105
64,32,222266,5,4
128,128,222658,1,4
224,224,223049,1,4
448,32,224223,5,4
448,32,224353,1,4
448,96,224614,1,4
448,96,224745,1,4
448,160,225005,1,4
448,160,225136,1,4
288,192,226440,2,4,B|192:192,3,70
256,96,228527,5,4
256,96,228788,1,4
256,96,228919,1,4
256,96,229180,1,4
256,96,229310,1,4
352,96,230093,1,6
352,192,230484,5,6
320,192,230614,1,6
288,192,230875,1,6
256,192,231006,1,6
224,192,231267,1,6
192,192,231397,1,2
256,128,231658,5,2
256,128,231919,1,2
256,128,232180,1,2
256,128,232440,1,2
256,128,232701,1,2
256,192,234527,5,2
256,192,234614,1,2
256,192,234701,1,2
256,192,234788,1,2
256,192,237919,5,2
256,192,238267,1,2
256,192,238701,1,2
256,192,238962,1,2
256,192,239484,1,2
256,192,240006,1,2
32,32,244180,5,0
256,192,244963,1,0
480,352,245745,1,0
480,32,252528,5,0
288,160,253050,1,2
256,192,253311,1,0
32,352,254093,1,0
256,192,255658,5,2
256,192,257745,1,2
480,32,259832,5,2
32,32,261920,1,2
256,192,263746,5,2
256,192,263811,1,2
256,192,263876,1,2
256,192,263941,1,2
256,192,264007,1,2
192,192,264398,1,2
128,192,264789,1,2
64,64,265833,5,2
256,64,266615,1,2
448,64,267920,2,2,B|256:192,1,210
32,32,270007,2,2,B|192:192,1,210
32,352,272094,2,2,B|192:192,1,210
480,352,274181,2,2,B|288:224,1,210
160,192,276268,6,2,B|288:192,2,105
256,192,278355,6,2,B|256:64,2,105
448,192,280442,6,2,B|224:192,1,210
256,192,282529,1,2
256,192,282790,1,2
256,192,283051,1,2
256,192,283311,1,2
96,64,284616,5,2
96,64,284746,1,2
96,64,284877,1,2
96,64,285138,1,2
96,64,285268,1,2
96,64,285398,1,2
448,320,286703,5,0
448,320,286833,1,0
448,320,286964,1,0
448,320,287094,1,0
448,320,287225,1,0
448,320,287355,1,0
448,320,287485,1,0
480,32,288790,5,0
448,64,288920,1,0
416,96,289051,1,0
384,128,289181,1,0
352,160,289312,1,0
320,192,289442,1,0
288,224,289572,1,0
256,256,289703,1,0
224,288,289833,1,0
192,320,289964,1,0
160,352,290094,1,0
256,64,290877,5,0
256,64,291138,1,0
256,64,291659,1,0
320,192,292964,2,0,B|224:192,1,70
192,192,293486,2,0,B|96:192,1,70
256,192,295051,1,0
256,192,295833,1,0
