osu file format v9

[General]
AudioFilename: Ntrance - Destiny(Nightcore Mix.mp3
AudioLeadIn: 0
PreviewTime: 166241
Countdown: 0
SampleSet: Normal
StackLeniency: 0.7
Mode: 0
LetterboxInBreaks: 1
EpilepsyWarning: 1

[Editor]
DistanceSpacing: 0.6
BeatDivisor: 4
GridSize: 8

[Metadata]
Title:Destiny (Nightcore Mix)
Artist:N-Trance
Creator:jericho2442
Version:Soft Rave
Source:
Tags:Rokodo Rukarioman

[Difficulty]
HPDrainRate:2
CircleSize:3
OverallDifficulty:2
ApproachRate:2
SliderMultiplier:0.999999999999999
SliderTickRate:2

[Events]
//Background and Video events
0,0,"background.jpg"
//Break Periods
2,111964,121168
2,144855,154059
//Storyboard Layer 0 (Background)
//Storyboard Layer 1 (Fail)
//Storyboard Layer 2 (Pass)
//Storyboard Layer 3 (Foreground)
//Storyboard Sound Samples
//Background Colour Transformations
3,100,0,0,0

[TimingPoints]
754,342.622201918684,4,2,0,100,1,0
45980,-100,4,1,1,100,0,1
66537,-100,4,1,1,100,0,0
155277,-100,4,2,0,100,0,0
166583,-100,4,1,1,100,0,1
188510,-100,4,1,1,100,0,0

[Colours]
Combo1 : 255,255,255
Combo2 : 255,0,0
Combo3 : 5,5,240
Combo4 : 0,128,0

[HitObjects]
40,192,13088,2,0,B|160:192|152:56|152:56|360:56|360:56,1,400
472,56,15144,1,2
472,176,15829,6,0,B|384:240|476:351|476:351|256:352|256:352,1,400
160,352,17885,1,2
160,232,18570,38,0,B|270:364|439:194|270:-2|156:157|156:157,2,400,0|2|0
400,192,22682,1,2
256,192,22853,12,4,24052
256,40,26793,6,0,B|384:40|384:168|384:168,1,200,0|2
264,144,28164,2,0,B|341:246|238:323|238:323,1,200,0|2
184,216,29534,1,4
256,192,32275,38,0,B|160:112|64:200|64:200,1,200,0|2
168,272,33646,2,0,B|272:352|360:264|360:264,1,200,0|2
472,272,35016,5,4
472,152,35702,1,0
472,32,36387,2,0,B|352:32|336:152|336:152,1,200,0|2
216,152,37757,37,2
96,152,38443,1,0
160,256,39128,1,0
280,256,39813,1,2
400,256,40498,6,0,B|456:128|336:184|400:56|400:56,2,200,4|0|0
344,360,42554,1,2
256,192,43239,12,4,45295
40,192,45980,38,0,B|32:128|80:104|80:104,1,99.9999999999999,2|0
136,104,46665,1,0
176,64,47008,1,8
200,120,47351,6,0,B|280:184|280:184,1,99.9999999999999,2|0
336,184,48036,1,0
304,240,48379,1,8
296,296,48721,38,0,B|184:296|184:296,1,99.9999999999999,2|0
192,360,49406,2,0,B|80:360|80:360,1,99.9999999999999,0|8
32,360,50092,6,0,B|32:240|32:240,1,99.9999999999999,2|0
96,264,50777,2,0,B|96:160|96:160,1,99.9999999999999,0|8
96,104,51462,38,0,B|152:112|152:176|152:176|264:176|264:176,1,200,2|0
312,176,52490,1,8
368,176,52833,6,0,B|472:176|472:176|488:240|416:256|416:256,1,200,2|0
432,312,53861,1,8
376,312,54203,38,0,B|288:368|288:368,1,99.9999999999999,2|0
231,365,54888,2,0,B|143:309|143:309,1,99.9999999999999,0|8
168,256,55574,6,0,B|80:192|80:192,1,99.9999999999999,2|0
88,136,56259,2,0,B|170:75|170:75,1,99.9999999999999,0|8
232,72,56944,38,0,B|416:24|496:200|496:200,1,300,2|8
488,240,58315,6,0,B|296:328|304:128|80:248|80:248,1,400,2|2
101,119,60370,37,8
216,144,61056,1,2
336,120,61741,1,8
456,144,62426,6,0,B|456:248|456:248,1,99.9999999999999,2|0
395,243,63111,2,0,B|403:315|331:315|331:315,1,99.9999999999999,0|8
281,316,63797,38,0,B|177:316|177:316,1,99.9999999999999,2|0
184,256,64482,2,0,B|64:256|64:256,1,99.9999999999999,0|8
24,256,65167,1,2
256,192,65338,12,4,66538
40,192,67908,5,2
40,128,68251,1,0
72,80,68593,1,8
128,56,68936,1,0
192,56,69279,38,0,B|288:96|280:16|400:56|400:56,1,200,2|8
448,56,70306,1,0
448,120,70649,5,2
424,176,70992,1,0
448,232,71334,1,8
424,288,71677,1,0
448,344,72019,38,0,B|336:344|336:344|240:264|152:352|152:352,1,300,2|8
104,344,73390,6,0,B|104:240|104:240,1,99.9999999999999,2|0
40,248,74075,2,0,B|40:144|40:144,1,99.9999999999999,8|0
104,144,74760,38,0,B|104:40|104:40,1,99.9999999999999,2|0
164,45,75446,2,0,B|164:149|164:149,1,99.9999999999999,8|0
224,144,76131,5,2
224,208,76474,1,0
272,176,76816,1,8
272,240,77159,1,0
272,296,77501,37,2
320,328,77844,1,0
384,328,78187,1,8
435,297,78529,1,0
432,240,78872,6,0,B|488:144|488:144,1,99.9999999999999,2|0
480,96,79557,1,8
480,40,79900,1,0
424,40,80242,38,0,B|352:136|352:136,1,99.9999999999999,2|0
304,120,80928,1,8
248,120,81270,1,0
192,120,81613,6,0,B|192:192|128:192|128:192,2,99.9999999999999,2|0|8
192,56,82641,1,0
136,56,82983,37,2
80,72,83326,1,0
40,120,83669,1,8
40,176,84011,1,0
40,240,84354,6,0,B|168:216|184:344|184:344,1,200,2|8
240,344,85382,1,0
296,344,85724,38,0,B|304:208|447:244|447:244,1,200,2|8
495,243,86752,1,0
496,184,87095,5,2
496,64,87780,1,8
392,120,88465,1,2
272,120,89151,1,8
152,120,89836,1,4
256,192,92577,38,0,B|192:200|192:256|192:256,1,99.9999999999999,2|0
128,256,93262,2,0,B|128:152|128:152,1,99.9999999999999,0|8
128,96,93947,5,2
176,128,94290,1,0
224,96,94633,1,0
272,128,94975,1,8
320,96,95318,38,0,B|456:80|464:216|464:216,1,200,2|0
464,264,96346,1,8
408,232,96688,6,0,B|280:224|280:352|280:352,1,200,2|0
224,352,97716,1,8
160,352,98059,38,0,B|160:248|160:248,1,99.9999999999999,2|0
160,192,98744,2,0,B|96:112|96:112,1,99.9999999999999,0|8
136,64,99429,6,0,B|248:64|248:64,1,99.9999999999999,2|0
280,112,100115,2,0,B|216:200|216:200,1,99.9999999999999,0|8
256,192,100800,12,4,102855
256,192,103541,38,0,B|248:56|392:64|392:64,1,200,2|8
256,192,104911,2,0,B|264:328|120:320|120:320,1,200,2|8
40,192,106282,5,2
40,72,106967,1,8
152,136,107652,1,2
152,256,108337,1,8
256,192,109023,12,4,111764
40,192,122728,53,2
40,136,123070,1,0
40,80,123413,1,8
88,112,123755,1,0
152,112,124098,5,2
200,80,124440,1,0
200,136,124783,1,8
200,192,125125,1,0
200,256,125469,38,0,B|312:256|312:256,1,99.9999999999999,2|0
360,256,126154,2,0,B|432:256|416:336|416:336,1,99.9999999999999,8|0
480,320,126839,6,0,B|480:216|480:216,1,99.9999999999999,2|0
480,160,127524,2,0,B|480:88|424:88|424:88,1,99.9999999999999,8|0
368,88,128210,37,2
368,88,128552,1,0
368,88,128895,1,8
368,88,129237,1,0
304,88,129580,5,2
304,88,129923,1,0
304,88,130265,1,8
304,88,130608,1,0
240,88,130951,38,0,B|104:80|96:208|96:208,1,200,2|8
96,256,131978,1,0
96,320,132321,6,0,B|160:312|160:256|160:256|264:256|264:256,1,200,2|8
320,256,133349,1,0
376,256,133691,37,2
472,184,134377,1,8
376,104,135062,1,2
288,184,135747,1,8
168,184,136432,5,2
48,184,137118,1,8
104,80,137803,2,0,B|224:16|272:136|272:136,1,200,2|8
392,128,139173,38,0,B|352:264|480:296|480:296,1,200,2|8
360,344,140544,2,0,B|152:344|152:344,1,200,2|8
256,192,141914,12,4,143970
256,192,144655,5,4
208,32,155619,38,0,B|86:153|270:306|450:121|282:21|282:21,2,400,2|2|0
88,40,159046,21,2
88,160,159731,1,0
88,280,160416,1,2
192,216,161101,22,0,B|302:84|471:254|302:450|188:291|188:291,2,400,2|2|0
192,96,164527,21,2
312,96,165213,1,0
368,96,165555,1,0
339,39,165898,1,4
256,192,166583,21,2
192,192,166926,1,0
136,192,167268,2,0,B|72:200|80:264|80:264,1,99.9999999999999,0|8
120,312,167954,21,2
176,312,168296,1,0
240,312,168639,2,0,B|304:304|288:240|288:240,1,99.9999999999999,0|8
344,240,169324,22,0,B|344:136|344:136,1,99.9999999999999,2|0
400,136,170009,2,0,B|400:32|400:32,1,99.9999999999999,0|8
336,40,170695,21,2
280,40,171037,1,0
232,72,171380,1,0
184,40,171723,1,8
128,40,172065,22,0,B|-16:64|56:200|56:200,1,200,2|0
32,248,173093,1,8
88,240,173436,22,0,B|224:200|232:360|232:360,1,200,2|0
288,336,174464,1,8
344,336,174806,21,2
456,288,175491,1,8
360,216,176177,1,2
472,168,176862,1,8
376,96,177547,22,0,B|304:24|304:24,1,99.9999999999999,2|0
248,24,178232,2,0,B|168:104|168:104,1,99.9999999999999,0|8
176,152,178918,1,2
176,152,179603,1,8
280,208,180288,22,0,B|280:320|280:320,1,99.9999999999999,2|0
219,308,180973,2,0,B|219:204|219:204,1,99.9999999999999,0|8
160,208,181659,1,2
160,208,182344,1,8
256,136,183029,21,2
256,72,183372,1,0
304,32,183714,1,0
368,32,184057,1,8
416,72,184400,21,2
416,136,184742,1,0
368,176,185085,1,0
312,176,185427,1,8
256,192,185770,12,4,188511
