osu file format v9

[General]
AudioFilename: Ntrance - Destiny(Nightcore Mix.mp3
AudioLeadIn: 0
PreviewTime: 166241
Countdown: 0
SampleSet: Soft
StackLeniency: 0.3
Mode: 0
LetterboxInBreaks: 1
EpilepsyWarning: 1

[Editor]
DistanceSpacing: 1.1
BeatDivisor: 4
GridSize: 8

[Metadata]
Title:Destiny (Nightcore Mix)
Artist:N-Trance
Creator:jericho2442
Version:MADNESS VER3!!!
Source:
Tags:Rokodo Rukarioman

[Difficulty]
HPDrainRate:6
CircleSize:3
OverallDifficulty:8
ApproachRate:8
SliderMultiplier:2.1
SliderTickRate:1

[Events]
//Background and Video events
0,0,"background.jpg"
//Break Periods
2,111963,121977
2,144855,154697
//Storyboard Layer 0 (Background)
//Storyboard Layer 1 (Fail)
//Storyboard Layer 2 (Pass)
//Storyboard Layer 3 (Foreground)
//Storyboard Sound Samples
//Background Colour Transformations
3,100,0,0,0

[TimingPoints]
754,342.622201918684,4,2,0,100,1,0
23367,-100,4,1,1,100,0,0
45980,-100,4,1,1,100,0,1
66537,-100,4,1,1,100,0,0
166583,-100,4,1,1,100,0,1
188510,-100,4,1,1,100,0,0

[Colours]
Combo1 : 255,255,255
Combo2 : 255,0,0
Combo3 : 5,5,240
Combo4 : 0,128,0

[HitObjects]
256,192,13088,6,0,B|256:56|128:32|128:32,1,210,2|0
56,40,13602,1,0
112,104,13773,2,0,B|101:96|264:134|131:308,1,210,2|0
120,344,14287,1,0
200,360,14458,6,0,B|293:271|416:368|416:368,1,210,2|0
480,352,14972,1,0
432,280,15144,2,0,B|320:208|215:251|215:251,1,210,2|0
32,40,15829,38,0,B|80:96|-8:152|40:256|40:256,1,210,2|0
32,328,16343,1,0
120,328,16514,2,0,B|168:272|80:216|128:112|128:112,1,210,2|0
120,40,17028,1,0
200,40,17199,6,0,B|248:96|160:152|224:256|224:256,1,210,2|0
216,328,17713,1,0
296,328,17885,2,0,B|344:272|256:216|304:112|304:112,1,210,2|0
472,40,18570,37,0
384,40,18741,1,0
424,112,18912,2,0,B|440:184|368:200|368:200,1,105,2|0
344,120,19255,2,0,B|240:48|128:120|128:120,1,210,2|0
56,112,19769,1,0
56,192,19940,6,0,B|176:192|176:192|160:256|240:280|240:280,1,210,2|0
256,200,20454,1,0
298,267,20626,2,0,B|296:264|352:256|336:192|336:192|472:192,1,210,2|0
256,192,21311,12,4,22681
40,192,24052,37,0
40,152,24137,1,0
56,112,24223,1,0
80,80,24309,1,0
120,72,24394,1,2
160,80,24480,1,0
192,112,24566,1,0
216,152,24651,1,0
216,192,24737,5,0
120,160,24908,1,0
136,240,25080,1,2
200,288,25251,1,0
280,272,25422,1,0
320,200,25594,1,0
304,120,25765,1,2
256,48,25936,1,0
336,40,26108,37,0
384,104,26279,1,0
400,184,26450,1,2
376,264,26621,1,0
328,336,26793,5,0
288,336,26878,1,0
248,336,26964,1,0
208,336,27050,1,0
168,336,27135,1,2
128,336,27221,1,0
88,328,27307,1,0
56,296,27392,1,0
40,256,27478,37,0
32,176,27649,2,0,B|104:168|120:240|120:240,1,105,0|2
200,224,27992,2,0,B|200:112|200:112,1,105
200,32,28335,2,0,B|264:32|280:88|280:88,1,105,0|2
280,176,28677,6,0,B|352:176|368:104|368:104,1,105
448,120,29020,2,0,B|448:240|448:240,1,105,0|2
448,312,29362,1,0
376,264,29534,37,0
376,264,29619,1,0
376,264,29705,1,0
376,264,29791,1,0
376,264,29876,1,2
376,264,29962,1,0
376,264,30048,1,0
376,264,30133,1,0
376,264,30219,5,0
304,224,30390,1,0
304,304,30562,1,2
240,184,30733,1,0
240,344,30904,1,0
176,144,31076,1,0
176,384,31247,1,2
112,184,31418,1,0
112,344,31589,37,0
48,224,31761,1,0
48,304,31932,1,2
176,264,32103,1,0
256,264,32275,6,0,B|320:264|320:264,1,52.5
308,264,32446,2,0,B|360:248|360:248,1,52.5
358,248,32617,2,0,B|384:200|384:200,1,52.5,2|0
382,201,32789,2,0,B|384:144|384:144,1,52.5
383,149,32960,37,0
304,144,33131,2,0,B|304:32|304:32|304:24,1,105,0|2
224,40,33474,2,0,B|224:152|224:152,1,105
136,144,33817,2,0,B|24:144|24:144,1,105,0|2
32,232,34159,6,0,B|160:232|160:232,1,105
224,232,34502,2,0,B|224:352|224:352,1,105,0|2
312,336,34844,1,0
392,336,35016,37,0
392,336,35101,1,0
392,256,35273,1,2
392,256,35358,1,0
464,296,35530,1,0
464,296,35615,1,0
464,216,35787,1,2
464,216,35872,1,0
392,176,36044,5,0
392,176,36129,1,0
320,216,36301,1,2
320,216,36386,1,0
320,296,36558,1,0
320,296,36643,1,0
248,256,36814,1,2
248,256,36900,1,0
248,176,37071,37,0
248,176,37157,1,0
176,216,37328,1,2
176,216,37414,1,0
176,296,37585,1,2
176,296,37671,1,0
176,296,37757,1,0
176,296,37842,1,2
104,256,38014,5,0
104,256,38099,1,0
104,176,38271,1,0
104,176,38356,1,0
176,136,38528,1,2
176,136,38613,1,0
104,88,38785,1,0
104,88,38870,1,0
176,48,39042,37,2
176,48,39127,1,0
248,88,39298,1,0
248,88,39384,1,0
248,168,39555,1,2
248,168,39641,1,0
184,216,39812,1,0
184,216,39898,1,0
264,248,40069,1,2
264,248,40155,1,0
264,248,40241,1,0
264,248,40326,1,2
328,192,40498,5,0
328,192,40583,1,0
416,104,40755,1,2
416,104,40840,1,0
288,104,41012,1,0
288,104,41097,1,0
416,104,41269,1,0
416,104,41354,1,0
416,232,41526,37,2
416,232,41611,1,0
312,304,41783,1,0
312,304,41868,1,0
184,304,42039,1,2
184,304,42125,1,0
248,200,42296,1,0
248,200,42382,1,0
120,200,42553,5,2
120,200,42639,1,0
184,96,42810,1,2
184,96,42896,1,0
184,96,42982,1,0
184,96,43067,1,2
312,96,43239,1,0
312,96,43324,1,0
376,200,43496,37,0
376,200,43581,1,0
248,200,43753,1,2
248,200,43838,1,0
320,304,44010,1,0
320,304,44095,1,0
432,360,44267,1,2
432,360,44352,1,0
464,240,44523,5,0
464,240,44609,1,0
464,112,44780,1,2
464,112,44866,1,0
336,112,45037,1,0
336,112,45123,1,0
336,240,45294,1,2
336,240,45380,1,0
232,168,45551,37,2
168,168,45637,1,0
104,184,45723,1,0
64,232,45808,1,2
56,360,45980,6,0,B|176:360|176:360,1,105,2|0
168,232,46322,1,8
272,304,46494,1,0
256,40,46665,38,0,B|256:160|256:160,1,105,2|0
384,152,47007,1,8
320,256,47179,1,8
40,192,47350,6,0,B|160:192|160:192,1,105,2|0
152,64,47693,1,8
256,136,47864,1,0
256,344,48035,38,0,B|256:232|256:232,1,105,2|0
384,240,48378,1,8
312,136,48549,1,8
112,352,48721,6,0,B|112:280|32:272|32:272,1,105,2|0
216,352,49063,2,0,B|104:352|104:352,1,105,8|0
284,280,49406,2,0,B|220:296|212:368|212:368,1,105,2|0
389,279,49748,2,8,B|277:279|277:279,1,105
324,56,50091,38,0,B|324:128|404:136|404:136,1,105
220,56,50434,2,0,B|332:56|332:56,1,105,8|0
152,128,50776,2,0,B|216:112|224:40|224:40,1,105,2|0
47,129,51119,2,8,B|159:129|159:129,1,105
216,360,51462,5,2
296,360,51633,1,0
192,288,51804,1,8
320,288,51976,1,0
128,240,52147,1,2
384,240,52318,1,0
72,192,52489,1,8
440,192,52661,1,8
216,24,52832,37,2
296,24,53003,1,0
192,96,53175,1,8
320,96,53346,1,0
128,144,53517,1,2
384,144,53689,1,0
72,192,53860,1,8
440,192,54031,1,8
256,112,54203,5,2
176,192,54374,1,0
256,272,54545,1,8
336,192,54716,1,0
256,272,54888,37,2
176,192,55059,1,0
256,112,55230,1,8
336,192,55402,1,8
256,360,55573,5,2
136,320,55744,1,0
56,224,55916,1,8
96,104,56087,1,0
200,32,56258,37,2
328,32,56430,1,0
264,136,56601,1,8
392,136,56772,1,8
336,248,56944,6,0,B|336:304|392:344|392:344,1,105,2|0
448,232,57286,1,8
144,64,57629,38,0,B|144:128|80:144|80:144,1,105,2|0
24,32,57971,1,8
336,136,58314,6,0,B|336:80|392:40|392:40,1,105,2|0
448,152,58657,1,8
144,320,58999,38,0,B|144:256|80:240|80:240,1,105,2|0
24,352,59342,1,8
256,192,59685,5,2
128,192,59856,1,0
192,80,60027,1,8
192,80,60113,1,0
192,80,60198,1,0
192,80,60284,1,0
192,80,60370,1,10
320,80,60541,1,0
376,192,60712,1,8
32,344,61055,37,2
136,272,61226,1,0
240,344,61398,1,8
240,344,61483,1,0
240,344,61569,1,0
240,344,61655,1,0
240,344,61740,1,10
344,272,61912,1,0
448,344,62083,1,8
32,24,62425,6,0,B|32:144|32:144,1,105,2|0
32,256,62768,1,8
256,192,62939,1,0
480,360,63111,38,0,B|480:240|480:240,1,105,2|0
480,128,63453,1,8
256,192,63625,1,0
32,24,63796,6,0,B|32:144|32:144,1,105,2|0
32,256,64139,1,8
256,192,64310,1,0
480,360,64481,38,0,B|480:240|480:240,1,105,2|0
480,128,64824,1,8
256,192,64995,1,0
32,24,65166,5,2
32,360,65509,1,8
480,360,65852,1,2
480,24,66194,1,8
256,192,66537,1,4
144,40,67907,38,0,B|24:40|24:40,1,105,2|0
203,111,68250,2,0,B|203:31|131:39|131:39,1,105,8|0
274,172,68593,2,0,B|202:172|202:108|202:108,1,105,2|0
334,245,68935,2,0,B|334:165|262:173|262:173,1,105,0|8
40,256,69278,6,0,B|40:376|40:376,1,105,2|8
90,163,69621,2,0,B|34:267|34:267,1,105,0|8
191,134,69963,2,0,B|79:166|79:166,1,105,2|8
295,134,70306,2,0,B|167:134|167:134,1,105
400,280,70648,38,0,B|400:360|480:344|480:344,1,105,2|0
296,280,70991,2,0,B|416:280|416:280,1,105,8|0
296,176,71334,2,0,B|296:288|296:288,1,105,2|0
212,141,71676,2,0,B|292:109|300:197|300:197,1,105,0|8
144,344,72019,6,0,B|24:344|24:344,1,105,2|8
144,240,72362,2,0,B|144:352|144:352,1,105,0|8
40,240,72704,2,0,B|160:240|160:240,1,105,2|8
40,344,73047,2,0,B|40:216|40:216,1,105
256,192,73389,37,2
128,40,73732,2,0,B|16:40|16:40,1,105,8|0
232,40,74075,2,0,B|112:40|112:40,1,105,2|0
336,40,74417,2,8,B|200:40|200:40,1,105
256,192,74760,5,2
384,344,75103,2,0,B|496:344|496:344,1,105,8|0
280,344,75445,2,0,B|400:344|400:344,1,105,2|0
176,344,75788,2,8,B|312:344|312:344,1,105
40,344,76130,37,2
40,40,76473,1,8
120,344,76816,1,2
120,40,77158,1,8
152,192,77330,1,0
200,344,77501,5,2
200,40,77843,1,8
280,344,78186,1,4
472,192,78871,38,0,B|472:120|400:104|400:104,1,105,2|0
344,208,79214,2,0,B|288:176|296:112|296:112,1,105,8|0
168,136,79557,2,0,B|168:264|304:336|304:336,1,210,2|0
144,312,80071,1,8
16,312,80242,2,0,B|116:263|104:120,1,210,2|0
136,16,80756,1,8
248,64,80927,2,0,B|312:112|368:8|472:72|472:72,1,210,2|0
256,344,81612,6,0,B|144:344|144:344,1,105,2|0
256,272,81955,2,0,B|384:272|384:272,1,105,8|0
256,200,82298,2,0,B|184:200|181:281|181:281|80:280|80:280,1,210,2|0
96,152,82812,1,8
200,80,82983,2,0,B|256:128|312:40|424:96|424:96,1,210,2|0
400,216,83497,1,8
408,344,83668,2,0,B|403:344|315:392|259:304|203:352,1,210,2|0
40,24,84353,38,0,B|40:136|40:136,1,105,2|0
40,360,84696,2,0,B|40:240|40:240,1,105,8|0
112,48,85039,2,0,B|112:168|112:168,1,105,2|0
112,336,85381,2,8,B|112:216|112:216,1,105
192,152,85724,6,0,B|192:40|192:40,1,105,2|0
192,232,86066,2,0,B|192:352|192:352,1,105,8|0
264,128,86409,2,0,B|264:8|264:8,1,105,2|0
264,256,86752,2,8,B|264:384|264:384,1,105
320,192,87094,38,0,B|472:200|456:48|456:48,1,210,2|8
320,192,87780,2,0,B|472:184|456:336|456:336,1,210,2|0
320,192,88465,6,0,B|168:200|184:48|184:48,1,210,2|8
320,192,89150,2,0,B|168:184|184:336|184:336,1,210,2|0
191,34,89835,38,4,B|40:104|74:281|90:427|386:411|451:329|482:170|425:56|314:32|314:32,2,840
256,176,92919,1,8
24,32,93261,5,0
496,360,93604,1,4
256,176,93947,37,0
256,176,94289,1,8
488,24,94632,5,0
16,360,94975,1,4
256,176,95317,38,0,B|256:96|176:80|176:80,1,105,2|0
184,168,95660,2,0,B|127:111|59:156|59:156,1,105,8|0
120,208,96002,2,0,B|39:208|24:288|24:288,1,105,2|0
112,280,96345,2,8,B|55:336|100:404|100:404,1,105
312,304,96688,6,0,B|353:372|430:345|430:345,1,105,2|0
377,273,97030,2,0,B|454:292|489:218|489:218,1,105,8|0
412,206,97373,2,0,B|480:164|453:87|453:87,1,105,2|0
381,140,97716,2,8,B|400:62|326:27|326:27,1,105
256,192,98058,38,0,B|192:240|112:120|32:200|32:200,1,210,2|8
48,312,98572,1,0
176,312,98743,1,2
176,312,98829,1,0
176,312,98915,1,0
304,312,99086,2,8,B|416:312|416:312,1,105,8|8
408,184,99429,6,0,B|312:192|352:40|224:64|224:64,1,210,2|8
120,64,99943,1,0
192,168,100114,1,2
192,168,100200,1,0
192,168,100285,1,0
64,168,100457,2,8,B|56:232|112:272|112:272,1,105
184,360,100799,37,2
184,360,100885,1,0
184,360,100970,1,0
312,264,101142,1,8
312,264,101227,1,0
312,264,101313,1,0
432,360,101484,1,2
432,360,101570,1,0
432,360,101656,1,0
312,264,101827,1,8
312,264,101913,1,0
312,264,101998,1,0
184,176,102170,5,2
184,176,102255,1,0
184,176,102341,1,0
24,176,102512,1,8
24,176,102598,1,0
24,176,102684,1,0
112,48,102855,1,2
112,48,102941,1,0
112,48,103026,1,0
272,48,103198,1,8
272,48,103283,1,0
272,48,103369,1,0
352,184,103540,37,2
448,272,103711,1,0
360,360,103883,1,8
264,272,104054,1,0
352,184,104225,5,2
264,272,104397,1,0
360,360,104568,1,8
448,272,104739,1,0
448,144,104911,37,2
352,64,105082,1,0
224,64,105253,1,8
128,144,105425,1,0
80,264,105596,5,2
40,144,105767,1,0
80,264,105939,1,8
192,200,106110,1,0
320,200,106281,38,0,B|464:208|464:344|464:344,1,210,2|8
336,328,106795,1,0
208,328,106966,1,2
208,328,107052,1,0
208,328,107138,1,0
80,328,107309,1,8
80,120,107480,1,0
80,224,107652,6,0,B|144:272|168:160|320:240|320:240,1,210,2|8
408,224,108166,1,0
344,112,108337,1,2
344,112,108423,1,0
344,112,108508,1,0
216,104,108679,1,8
8,104,108851,1,0
112,104,109022,37,2
32,344,109365,1,8
112,104,109707,1,2
192,344,110050,1,8
112,104,110393,1,4
256,192,110564,12,4,111763
256,184,122727,6,0,B|184:192|176:120|176:120,1,105,2|0
24,128,123070,1,8
24,288,123241,1,0
24,128,123412,2,0,B|24:56|96:40|96:40,1,105,2|0
240,48,123755,2,8,B|360:48|360:48,1,105
504,48,124097,5,2
416,184,124269,1,0
504,320,124440,1,8
416,184,124611,1,0
256,184,124783,1,2
112,256,124954,1,0
256,184,125125,1,8
112,112,125297,1,8
256,184,125468,38,0,B|256:296|256:296,1,105,2|0
368,184,125811,2,0,B|368:112|304:96|304:96,1,105,8|0
448,184,126153,2,0,B|448:296|448:296,1,105,2|0
448,128,126496,2,8,B|448:16|448:16,1,105
288,24,126838,5,2
128,24,127010,1,0
48,160,127181,1,8
208,160,127352,1,0
368,160,127524,1,2
352,320,127695,1,0
288,176,127866,1,8
280,336,128038,1,8
144,256,128209,37,2
72,232,128295,1,0
48,160,128380,1,0
80,88,128466,1,0
80,88,128552,1,8
240,88,128723,1,0
400,88,128894,2,0,B|472:88|480:168|480:168,1,105,2|0
336,224,129237,2,8,B|392:176|432:256|432:256,1,105
264,224,129579,5,2
264,304,129665,1,0
200,352,129751,1,0
120,352,129836,1,0
40,352,129922,1,8
136,224,130093,1,0
32,104,130265,2,0,B|104:24|104:24,1,105,2|0
264,32,130607,2,8,B|192:120|192:120,1,105
336,192,130950,37,2
336,192,131036,1,0
336,192,131121,1,0
336,192,131207,1,0
336,192,131293,1,8
336,192,131378,1,0
336,192,131464,1,0
424,192,131635,1,2
424,192,131721,1,0
424,192,131806,1,0
424,192,131892,1,0
424,192,131978,1,8
424,192,132063,1,0
424,192,132149,1,0
384,264,132320,5,2
384,264,132406,1,0
384,264,132492,1,0
384,264,132577,1,0
384,264,132663,1,8
384,264,132749,1,0
384,264,132834,1,0
296,264,133006,1,10
296,264,133091,1,0
296,264,133177,1,0
296,264,133263,1,0
296,264,133348,1,8
296,264,133434,1,0
296,264,133520,1,0
136,264,133691,37,2
136,104,133862,1,0
224,344,134034,1,8
224,40,134205,1,0
408,264,134376,5,2
408,104,134547,1,0
320,344,134719,1,0
320,40,134890,1,8
272,192,135061,38,0,B|152:192|152:192,1,105,2|8
8,192,135404,1,0
168,192,135575,1,8
176,352,135747,6,0,B|296:352|296:352,1,105,2|8
440,352,136089,1,0
280,352,136261,1,0
256,104,136432,37,2
168,192,136603,1,0
256,272,136775,1,8
336,192,136946,1,0
256,272,137117,5,2
168,192,137288,1,0
256,104,137460,1,0
336,192,137631,1,8
256,352,137802,37,2
416,192,137974,1,8
256,24,138145,1,0
88,192,138316,1,8
256,24,138488,5,2
416,192,138659,1,8
256,352,138830,1,0
88,192,139002,1,0
256,192,139173,37,2
256,192,139259,1,0
256,192,139344,1,0
256,24,139515,2,0,B|176:24|160:80|160:80,1,105,8|0
256,192,139858,1,2
256,192,139944,1,0
256,192,140029,1,0
256,360,140201,2,0,B|336:360|352:304|352:304,1,105,8|0
256,192,140543,5,2
256,192,140629,1,0
256,192,140715,1,0
256,24,140886,2,0,B|336:24|352:80|352:80,1,105,8|0
256,192,141229,1,2
256,192,141314,1,0
256,192,141400,1,0
256,360,141571,2,0,B|176:360|160:304|160:304,1,105,8|0
256,192,141914,12,4,143284
256,192,143456,12,4,144655
256,192,155447,5,0
256,192,155619,1,0
24,192,155961,1,2
256,192,156304,1,0
64,64,156647,1,2
256,192,156989,1,0
488,192,157332,1,2
256,192,157674,1,0
448,64,158017,1,2
256,192,158360,21,0
24,192,158702,1,2
256,192,159045,1,0
64,320,159388,1,2
256,192,159730,1,0
488,192,160073,1,2
256,192,160415,1,0
448,320,160758,1,2
256,192,161101,21,0
264,80,161272,1,0
160,128,161443,1,2
160,240,161615,1,0
56,184,161786,1,0
56,296,161957,1,2
152,344,162129,1,0
256,296,162300,1,2
360,344,162471,22,0,B|432:344|440:272|440:272,1,105,0|2
440,168,162814,2,0,B|440:96|376:80|376:80,1,105,0|2
272,80,163156,2,0,B|272:144|328:168|328:168,1,105,0|2
272,80,163499,2,0,B|208:80|192:24|192:24,1,105,0|2
80,24,163842,21,2
32,64,163927,1,0
80,96,164013,1,0
32,136,164099,1,0
80,168,164184,1,2
32,200,164270,1,0
80,232,164356,1,2
32,264,164441,1,0
80,296,164527,21,0
128,264,164613,1,0
152,312,164698,1,2
184,264,164784,1,0
216,312,164870,1,2
240,264,164955,1,0
272,312,165041,1,2
296,264,165127,1,0
328,312,165212,21,4
472,128,165555,1,4
256,56,165897,1,4
32,112,166583,22,0,B|32:40|120:24|120:24,1,105,2|0
32,192,166925,2,0,B|160:192|160:192,1,105,8|0
32,272,167268,2,0,B|32:344|120:360|120:360,1,105,2|0
208,352,167611,1,8
320,352,167782,1,8
384,256,167953,21,2
480,192,168124,1,0
376,136,168296,1,8
472,72,168467,1,0
376,16,168638,1,2
272,72,168810,1,0
264,184,168981,1,8
168,120,169152,1,8
56,120,169324,22,0,B|56:240|56:240,1,105,2|0
168,192,169666,2,0,B|256:264|256:264,1,105,8|0
144,312,170009,2,0,B|48:368|48:368,1,105,2|0
56,224,170351,2,8,B|56:96|56:96,1,105,8|8
144,40,170694,22,0,B|272:40|272:40,1,105,2|0
416,104,171037,2,0,B|304:104|304:104,1,105,8|0
144,168,171379,2,0,B|272:168|272:168,1,105,2|0
416,232,171722,2,8,B|304:232|304:232,1,105
40,152,172065,21,2
40,232,172236,1,0
112,112,172407,1,8
112,272,172579,1,0
184,80,172750,1,2
184,304,172921,1,0
256,112,173092,1,8
256,272,173264,1,8
472,152,173435,21,2
472,232,173606,1,0
400,112,173778,1,8
400,272,173949,1,0
328,80,174120,1,2
328,304,174292,1,0
256,112,174463,1,8
256,272,174634,1,8
256,32,174806,21,2
144,32,174977,1,0
56,112,175148,1,8
32,224,175320,1,0
256,352,175491,21,2
368,352,175662,1,0
456,272,175833,1,8
480,160,176005,1,8
256,32,176176,21,2
368,32,176347,1,0
456,112,176519,1,8
480,224,176690,1,0
256,352,176861,21,2
144,352,177033,1,0
56,272,177204,1,8
32,160,177375,1,8
256,192,177547,21,2
256,192,177889,1,8
256,32,178232,1,2
96,192,178403,1,0
256,352,178574,1,8
416,192,178746,1,0
256,192,178917,21,2
256,192,179260,1,8
256,32,179602,1,2
416,192,179774,1,0
256,352,179945,1,8
96,192,180116,1,0
176,32,180288,21,2
176,352,180630,1,8
256,32,180973,1,2
256,352,181315,1,8
416,32,181658,21,2
416,352,182001,1,8
336,32,182343,1,2
336,352,182686,1,8
256,192,183029,22,0,B|136:192|136:192,1,105,2|0
320,264,183371,2,0,B|320:200|256:192|256:192,1,105,8|0
424,264,183714,2,0,B|312:264|312:264,1,105,2|0
424,160,184056,2,8,B|424:272|424:272,1,105
351,100,184399,22,0,B|431:100|423:172|423:172,1,105,2|0
292,28,184742,2,0,B|292:108|356:100|356:100,1,105,8|0
186,28,185084,2,0,B|306:28|306:28,1,105,2|0
81,28,185427,2,8,B|225:28|225:28,1,105
256,192,185769,12,4,187140
256,192,187311,12,4,188510
