osu file format v6

[General]
AudioFilename: Number 1.mp3
AudioLeadIn: 0
PreviewTime: -1
Countdown: 1
SampleSet: Normal
StackLeniency: 0.7
Mode: 0
LetterboxInBreaks: 1

[Editor]
Bookmarks: 15656,74111,142483,157097,206418
DistanceSpacing: 1.29999995231628
BeatDivisor: 4
GridSize: 32

[Metadata]
Title:Number 1
Artist:N-Dubz
Creator:H-boy
Version:Number One
Source:
Tags:

[Difficulty]
HPDrainRate:7
CircleSize:5
OverallDifficulty:7
SliderMultiplier:1.7
SliderTickRate:2

[Events]
//Background and Video events
//Break Periods
2,67526,73211
2,125981,142627
2,176086,179683
2,194875,197950
//Storyboard Layer 0 (Background)
//Storyboard Layer 1 (Fail)
//Storyboard Layer 2 (Pass)
//Storyboard Layer 3 (Foreground)
//Storyboard Sound Samples
//Background Colour Transformations
3,100,163,162,255

[TimingPoints]
521,521.920668058455,4,1,0,47,1,0
15656,-100,4,1,0,47,0,0
33402,-100,4,1,0,47,0,0
41752,-100,4,1,0,47,0,0
49581,-100,4,1,0,47,0,0
67848,-100,4,1,0,47,0,0
74111,-100,4,1,0,47,0,0
91857,-100,4,1,0,47,0,0
100207,-100,4,1,0,47,0,0
108036,-100,4,1,0,47,0,0
126303,-100,4,1,0,47,0,0
142483,-100,4,2,0,81,0,0
157097,-100,4,1,0,48,0,0
175886,-100,4,1,0,48,0,0
198850,-100,4,2,0,70,0,0
208245,-100,4,1,0,44,0,0

[Colours]
Combo1 : 255,255,255
Combo2 : 241,230,146
Combo3 : 22,71,95
Combo4 : 0,0,0

[HitObjects]
96,256,15656,5,0
128,192,15917,5,0
256,320,16439,1,0
256,320,16570,1,0
256,320,16700,1,0
320,288,16961,1,0
352,224,17222,5,0
352,224,17352,1,0
352,224,17483,1,0
352,128,17744,1,0
352,128,17874,1,0
224,96,18266,1,0
224,96,18396,1,0
224,96,18527,1,0
224,192,18788,1,0
128,192,19049,1,0
224,192,19310,5,0
224,192,19440,1,0
224,192,19571,1,0
224,288,19832,1,0
320,288,20093,1,0
416,288,20353,1,0
416,192,20614,1,0
416,192,20745,1,0
416,192,20875,1,0
352,128,21136,1,0
288,64,21397,5,0
288,64,21528,1,0
288,64,21658,1,0
224,96,21919,5,0
160,160,22180,1,0
96,224,22441,1,0
160,288,22702,1,0
224,352,22963,1,0
256,352,23094,1,0
288,352,23224,1,0
288,256,23485,1,0
320,256,23615,1,0
352,256,23746,1,0
448,256,24007,5,0
448,160,24268,1,0
352,160,24529,1,0
320,160,24659,1,0
288,160,24790,1,0
192,160,25051,1,0
96,160,25312,1,0
192,160,25573,1,0
96,160,25834,1,0
96,256,26095,1,0
128,256,26225,1,0
160,256,26356,1,0
256,256,26617,6,0,B|256:160,1,85
256,96,27138,1,0
416,96,27660,1,0
416,96,27791,1,0
416,96,27921,1,0
416,192,28182,1,0
416,288,28443,1,0
320,288,28704,2,0,B|320:192,1,85
320,128,29226,1,0
224,128,29487,1,0
128,128,29748,5,0
128,128,29879,1,0
128,128,30009,1,0
64,192,30270,1,0
128,256,30531,1,0
224,256,30792,1,0
320,256,31053,1,0
384,192,31314,1,0
256,64,31836,6,0,B|256:160,1,85
256,224,32358,1,0
256,320,32619,1,0
256,320,32749,1,0
256,320,32880,1,0
352,320,33141,1,0
448,320,33402,5,0
448,224,33662,1,0
448,128,33923,1,0
448,128,34054,1,0
448,128,34184,1,0
352,128,34445,1,0
256,128,34706,1,0
352,128,34967,1,0
352,128,35098,1,0
352,128,35228,1,0
352,224,35489,5,0
256,224,35750,1,0
352,224,36011,1,0
352,224,36142,1,0
352,224,36272,1,0
352,320,36533,1,0
192,320,37055,1,0
288,320,37316,1,0
288,224,37577,1,0
288,224,37707,1,0
288,224,37838,1,0
288,128,38099,2,0,B|192:128,1,85
128,128,38621,1,0
0,256,39143,6,0,B|0:352,1,85
96,352,39665,1,0
192,352,39926,1,0
288,320,40186,2,0,B|288:224,1,85
224,192,40708,1,0
256,192,40839,1,0
288,192,40969,1,0
384,192,41230,1,0
288,192,41491,1,0
288,96,41752,5,0
320,64,41883,1,0
352,96,42013,1,0
384,64,42144,1,0
416,96,42274,2,0,B|480:64|512:128|512:128|512:192,1,170
512,256,43057,1,0
416,256,43318,1,0
288,352,43840,1,0
192,352,44101,1,0
96,352,44362,1,0
192,224,44884,5,0
160,192,45014,1,0
128,224,45145,1,0
96,192,45275,1,0
64,224,45406,2,0,B|0:288|32:352|128:352,1,170
192,352,46189,1,0
288,352,46450,1,0
288,256,46710,1,0
320,224,46841,1,0
352,256,46971,1,0
384,224,47102,1,0
416,256,47232,1,0
416,352,47493,1,0
416,192,48015,1,0
416,96,48276,1,0
320,96,48537,2,0,B|224:96|192:160|192:192,1,170
192,256,49320,5,0
32,64,49842,1,0
160,192,50103,1,0
288,320,50364,1,0
160,192,50625,1,0
448,32,51147,5,0
160,192,51669,1,0
320,96,51930,1,0
352,256,52191,1,0
224,128,52452,1,0
352,256,52713,1,0
32,320,53234,5,0
320,160,53756,1,0
160,192,54017,1,0
192,352,54278,1,0
352,320,54539,1,0
448,192,54800,1,0
128,64,55322,5,0
64,128,55453,1,0
128,192,55583,1,0
64,256,55714,1,0
128,320,55844,1,0
288,320,56105,1,0
448,320,56366,1,0
288,224,56627,2,0,B|384:224,1,85
64,64,57410,5,0
384,128,57932,5,0
224,128,58193,1,0
384,224,58454,1,0
224,224,58715,1,0
384,320,58976,1,0
32,320,59498,5,0
320,128,60019,1,0
160,128,60280,1,0
160,288,60541,1,0
320,288,60802,1,0
256,128,61063,1,0
224,288,61585,5,0
288,224,61716,1,0
352,288,61846,1,0
416,224,61977,1,0
480,288,62107,1,0
352,160,62368,2,0,B|352:64,1,85
352,256,62890,2,0,B|448:224|448:128,2,170
64,64,64456,1,0
160,192,64717,1,0
288,320,64978,1,0
160,192,65239,1,0
288,96,65500,2,0,B|192:160,1,85
480,352,66283,5,0
384,224,66543,1,0
256,96,66804,1,0
96,96,67065,1,0
96,256,67326,1,0
448,256,74111,5,0
384,192,74372,5,0
224,192,74894,1,0
224,192,75025,1,0
224,192,75155,1,0
224,288,75416,1,0
128,288,75677,5,0
128,288,75807,1,0
128,288,75938,1,0
128,192,76199,1,0
128,192,76329,1,0
128,64,76721,1,0
128,64,76851,1,0
128,64,76982,1,0
224,64,77243,1,0
320,64,77504,1,0
352,128,77765,5,0
384,160,77895,1,0
352,192,78026,1,0
288,224,78287,1,0
224,256,78548,1,0
288,288,78808,1,0
384,320,79069,1,0
416,288,79200,1,0
384,256,79330,1,0
384,160,79591,1,0
352,96,79852,5,0
320,96,79983,1,0
288,96,80113,1,0
192,96,80374,5,0
128,160,80635,1,0
64,224,80896,1,0
128,288,81157,1,0
192,352,81418,1,0
224,352,81549,1,0
256,352,81679,1,0
256,256,81940,1,0
288,256,82070,1,0
320,256,82201,1,0
416,256,82462,5,0
448,160,82723,1,0
352,160,82984,1,0
320,160,83114,1,0
288,160,83245,1,0
192,160,83506,1,0
96,160,83767,1,0
192,160,84028,1,0
96,160,84289,1,0
96,256,84550,1,0
128,256,84680,1,0
160,256,84811,1,0
160,352,85072,6,0,B|160:256,1,85
160,192,85593,1,0
320,192,86115,1,0
320,192,86246,1,0
320,192,86376,1,0
416,192,86637,1,0
416,288,86898,1,0
320,288,87159,2,0,B|320:192,1,85
320,128,87681,1,0
224,128,87942,1,0
128,128,88203,5,0
128,128,88334,1,0
128,128,88464,1,0
64,192,88725,1,0
128,256,88986,1,0
224,256,89247,1,0
320,256,89508,1,0
384,192,89769,1,0
256,64,90291,6,0,B|256:160,1,85
256,224,90813,1,0
256,320,91074,1,0
256,320,91204,1,0
256,320,91335,1,0
352,320,91596,1,0
448,320,91857,5,0
448,224,92117,1,0
448,128,92378,1,0
448,128,92509,1,0
448,128,92639,1,0
352,128,92900,1,0
256,128,93161,1,0
352,128,93422,1,0
352,128,93553,1,0
352,128,93683,1,0
352,224,93944,5,0
256,224,94205,1,0
352,224,94466,1,0
352,224,94597,1,0
352,224,94727,1,0
352,320,94988,1,0
192,320,95510,1,0
288,320,95771,1,0
288,224,96032,1,0
288,224,96162,1,0
288,224,96293,1,0
288,128,96554,2,0,B|192:128,1,85
128,128,97076,1,0
256,32,97598,6,0,B|256:128,1,85
256,192,98120,1,0
320,256,98381,1,0
384,320,98641,2,0,B|384:224,1,85
384,160,99163,1,0
384,128,99294,1,0
384,96,99424,1,0
288,96,99685,1,0
288,192,99946,1,0
288,96,100207,5,0
320,64,100338,1,0
352,96,100468,1,0
384,64,100599,1,0
416,96,100729,2,0,B|480:64|512:128|512:128|512:192,1,170
512,256,101512,1,0
416,256,101773,1,0
288,352,102295,1,0
192,352,102556,1,0
96,352,102817,1,0
192,224,103339,5,0
160,192,103469,1,0
128,224,103600,1,0
96,192,103730,1,0
64,224,103861,2,0,B|0:288|32:352|128:352,1,170
192,352,104644,1,0
288,352,104905,1,0
288,256,105165,1,0
320,224,105296,1,0
352,256,105426,1,0
384,224,105557,1,0
416,256,105687,1,0
416,352,105948,1,0
416,192,106470,1,0
416,96,106731,1,0
320,96,106992,2,0,B|224:96|192:160|192:192,1,170
192,256,107775,5,0
32,64,108297,1,0
160,192,108558,1,0
288,320,108819,1,0
160,192,109080,1,0
448,32,109602,5,0
160,192,110124,1,0
320,96,110385,1,0
352,256,110646,1,0
224,128,110907,1,0
352,256,111168,1,0
32,320,111689,5,0
320,160,112211,1,0
160,192,112472,1,0
192,352,112733,1,0
352,320,112994,1,0
448,192,113255,1,0
128,64,113777,5,0
64,128,113908,1,0
128,192,114038,1,0
64,256,114169,1,0
128,320,114299,1,0
288,320,114560,1,0
448,320,114821,1,0
288,224,115082,2,0,B|384:224,1,85
64,64,115865,5,0
384,128,116387,5,0
224,128,116648,1,0
384,224,116909,1,0
224,224,117170,1,0
384,320,117431,1,0
32,320,117953,5,0
320,128,118474,1,0
160,128,118735,1,0
160,288,118996,1,0
320,288,119257,1,0
256,128,119518,1,0
224,288,120040,5,0
288,224,120171,1,0
352,288,120301,1,0
416,224,120432,1,0
480,288,120562,1,0
352,160,120823,2,0,B|352:64,1,85
352,256,121345,2,0,B|448:224|448:128,2,170
64,64,122911,1,0
160,192,123172,1,0
288,320,123433,1,0
160,192,123694,1,0
288,96,123955,2,0,B|192:160,1,85
480,352,124738,5,0
384,224,124998,1,0
256,96,125259,1,0
96,96,125520,1,0
96,256,125781,1,0
128,128,143527,5,0
224,32,143788,1,0
320,128,144049,1,0
96,256,144571,5,0
192,352,144832,1,0
288,256,145093,1,0
448,64,145614,5,0
448,192,145875,1,0
448,64,146136,1,0
224,192,146658,5,0
224,320,146919,1,0
224,192,147180,1,0
32,352,147702,1,0
96,256,147963,1,0
32,160,148224,1,0
96,64,148485,1,0
224,64,148746,1,0
352,64,149007,6,0,B|416:128|416:128|352:192,1,170
352,320,149790,1,0
224,320,150051,1,0
96,320,150312,6,0,B|64:288|64:288|64:224|64:224|128:160,1,170,0|0
352,96,151356,5,0
224,96,151617,1,0
352,96,151877,1,0
224,96,152138,1,0
96,96,152399,1,0
96,160,152530,1,0
96,224,152660,1,0
96,352,152921,1,0
352,352,153443,5,0
480,352,153704,1,0
352,352,153965,1,0
480,352,154226,1,0
480,224,154487,1,0
480,160,154618,1,0
480,96,154748,1,0
352,96,155009,1,0
96,96,155531,5,0
32,192,155792,1,0
96,288,156053,1,0
160,192,156314,1,0
224,192,156444,1,0
288,192,156575,1,0
480,32,157097,1,0
480,192,157358,5,0
128,192,157880,1,0
480,192,158402,1,0
320,128,158663,1,0
256,288,158924,1,0
128,160,159185,1,0
448,32,159707,5,0
160,224,160229,1,0
320,128,160490,1,0
416,256,160751,1,0
256,256,161012,1,0
160,128,161273,1,0
480,192,161794,5,0
128,192,162316,1,0
288,192,162577,1,0
160,320,162838,1,0
320,320,163099,1,0
480,320,163360,1,0
256,64,163882,5,0
192,128,164013,1,0
128,64,164143,1,0
64,128,164274,1,0
64,224,164404,1,0
224,224,164665,1,0
352,128,164926,1,0
352,288,165187,2,0,B|448:288,1,85
96,192,165970,5,0
448,192,166492,5,0
288,128,166753,1,0
384,288,167014,1,0
224,288,167275,1,0
384,352,167536,1,0
32,352,168058,5,0
320,160,168579,1,0
160,160,168840,1,0
160,320,169101,1,0
320,320,169362,1,0
480,288,169623,1,0
128,256,170145,5,0
192,192,170276,1,0
256,256,170406,1,0
320,192,170537,1,0
384,256,170667,1,0
256,160,170928,2,0,B|256:64,1,85
352,224,171450,2,0,B|448:192|448:96,2,170
224,128,172754,1,0
64,32,173016,1,0
160,192,173277,1,0
288,320,173538,1,0
160,192,173799,1,0
288,96,174060,2,0,B|192:160,1,85
320,288,174581,2,0,B|416:224,1,85
448,64,175103,5,0
288,64,175364,1,0
128,96,175625,1,0
128,256,175886,1,0
416,192,180583,5,0
416,192,180714,1,0
416,192,180844,1,0
320,192,181105,1,0
320,192,181236,1,0
320,192,181366,1,0
224,192,181627,5,0
128,192,181888,1,0
128,96,182149,2,0,B|192:64|224:96,1,85
320,96,182671,5,0
384,96,182801,1,0
448,96,182932,1,0
448,192,183193,1,0
384,192,183323,1,0
320,192,183454,1,0
320,288,183715,5,0
256,288,183845,1,0
192,288,183976,2,0,B|160:256|192:192,1,85
192,96,184498,2,0,B|224:64|288:64,1,85
384,64,185019,2,0,B|448:64|480:96,1,85
480,192,185541,2,0,B|512:256|480:288,1,85
384,320,186063,2,0,B|320:352|288:320,2,85
448,224,186846,6,0,B|480:192|448:128,1,85
352,128,187368,1,0
320,96,187499,1,0
288,128,187629,1,0
256,96,187760,1,0
224,128,187890,2,0,B|192:160|192:224|224:288|256:288,1,170
352,288,188673,1,0
384,192,188934,5,0
416,224,189064,1,0
448,192,189195,1,0
448,96,189456,1,0
416,64,189586,1,0
384,96,189717,1,0
288,96,189978,6,0,B|224:64|192:128,1,85
160,192,190500,2,0,B|160:256|224:256,1,85
320,224,191022,1,0
352,256,191152,1,0
384,224,191283,1,0
384,128,191543,1,0
352,96,191674,1,0
320,128,191804,1,0
224,128,192065,5,0
224,32,192326,1,0
128,32,192587,1,0
128,128,192848,5,0
96,160,192979,1,0
128,192,193109,1,0
96,224,193240,1,0
128,256,193370,1,0
224,320,193631,1,0
320,320,193892,1,0
320,320,194023,1,0
320,320,194153,2,0,B|416:320,1,85
416,224,194675,1,0
256,96,198850,5,0
96,192,199111,2,0,B|192:192,1,85
416,192,199633,2,0,B|320:192,1,85
96,288,200155,2,0,B|192:288,1,85
416,288,200677,2,0,B|288:288,1,85
256,192,201199,5,0
256,96,201460,1,0
320,96,201590,1,0
384,96,201721,1,0
480,96,201982,1,0
480,192,202243,1,0
416,288,202504,5,0
320,352,202765,1,0
256,352,202895,1,0
192,352,203026,1,0
96,288,203287,1,0
96,288,203548,1,0
128,192,203809,5,0
192,192,203939,1,0
256,192,204070,1,0
352,192,204331,2,0,B|352:96,1,85
352,224,204853,2,0,B|448:192|448:96,2,170
288,256,206027,1,0
224,256,206157,1,0
160,256,206288,1,0
96,256,206418,2,0,B|96:160,1,85
160,256,206940,2,0,B|256:224|256:128,2,170
256,64,208245,5,0
64,192,208506,5,0
256,320,208767,5,0
448,192,209028,5,0
256,192,209289,5,4
