osu file format v6

[General]
AudioFilename: Number 1.mp3
AudioLeadIn: 0
PreviewTime: -1
Countdown: 1
SampleSet: Normal
StackLeniency: 0.7
Mode: 0
LetterboxInBreaks: 1

[Editor]
DistanceSpacing: 1.29999995231628
BeatDivisor: 4
GridSize: 32

[Metadata]
Title:Number 1
Artist:N-Dubz
Creator:H-boy
Version:Master
Source:
Tags:

[Difficulty]
HPDrainRate:6
CircleSize:4
OverallDifficulty:5
SliderMultiplier:1.7
SliderTickRate:2

[Events]
//Background and Video events
//Break Periods
2,67525,72911
//Storyboard Layer 0 (Background)
//Storyboard Layer 1 (Fail)
//Storyboard Layer 2 (Pass)
//Storyboard Layer 3 (Foreground)
//Storyboard Sound Samples
//Background Colour Transformations
3,100,163,162,255

[TimingPoints]
521,521.920668058455,4,1,0,47,1,0
15656,-100,4,1,0,47,0,0
33402,-100,4,1,0,47,0,0
41752,-100,4,1,0,47,0,0
49581,-100,4,1,0,47,0,0
67848,-100,4,1,0,47,0,0
74111,-100,4,1,0,47,0,0
91857,-100,4,1,0,47,0,0
108036,-100,4,1,0,47,0,0
126303,-100,4,1,0,47,0,0

[Colours]
Combo1 : 255,255,255
Combo2 : 241,230,146
Combo3 : 22,71,95
Combo4 : 102,19,19

[HitObjects]
96,96,15656,5,0
192,96,15917,5,0
192,256,16439,1,0
288,256,16700,1,0
384,256,16961,1,0
384,160,17222,5,0
384,160,17352,1,0
384,160,17483,1,0
384,64,17744,1,0
224,64,18266,1,0
224,64,18396,1,0
224,64,18527,1,0
224,160,18788,1,0
224,320,19310,5,0
128,320,19571,1,0
224,320,19832,1,0
384,320,20353,1,0
384,160,20875,1,0
288,160,21136,1,0
192,160,21397,5,0
192,160,21528,1,0
192,160,21658,1,0
256,96,21919,5,0
256,256,22441,1,0
256,160,22702,1,0
256,256,22963,1,0
96,192,23485,1,0
128,192,23615,1,0
160,192,23746,1,0
256,192,24007,5,0
352,192,24268,1,0
448,192,24529,1,0
416,192,24659,1,0
384,192,24790,1,0
288,192,25051,1,0
288,32,25573,1,0
288,128,25834,1,0
288,224,26095,1,0
288,256,26225,1,0
288,288,26356,1,0
192,288,26617,6,0,B|192:192,1,85
192,128,27138,1,0
352,128,27660,1,0
384,128,27791,1,0
416,128,27921,1,0
416,224,28182,1,0
416,320,28443,1,0
320,320,28704,2,0,B|320:224,1,85
320,160,29226,1,0
224,160,29487,1,0
128,160,29748,5,0
96,160,29879,1,0
64,160,30009,1,0
64,256,30270,1,0
224,256,30792,1,0
320,256,31053,1,0
320,160,31314,1,0
480,160,31836,6,0,B|480:256,1,85
480,320,32358,1,0
384,320,32619,1,0
352,320,32749,1,0
320,320,32880,1,0
416,320,33141,1,0
416,224,33402,5,0
320,224,33662,1,0
416,224,33923,1,0
320,96,34445,1,0
224,96,34706,1,0
320,96,34967,1,0
224,256,35489,5,0
128,256,35750,1,0
224,256,36011,1,0
224,96,36533,1,0
288,256,37055,1,0
384,256,37316,1,0
288,256,37577,1,0
288,224,37707,1,0
288,192,37838,1,0
288,96,38099,2,0,B|192:96,1,85
128,96,38621,1,0
0,224,39143,6,0,B|0:320,1,85
64,352,39665,1,0
224,320,40186,2,0,B|224:224,1,85
160,160,40708,1,0
192,160,40839,1,0
224,160,40969,1,0
320,160,41230,1,0
160,224,41752,6,0,B|160:288,2,42.5
192,160,42274,2,0,B|256:128|288:192|288:192|288:256,1,170
224,320,43057,1,0
320,288,43318,1,0
480,192,43840,1,0
352,96,44362,1,0
192,96,44884,6,0,B|128:96,2,42.5
96,96,45406,2,0,B|32:160|64:224|128:256,1,170
160,288,46189,1,0
224,224,46450,1,0
160,160,46710,1,0
288,64,47232,1,0
320,128,47493,1,0
480,64,48015,1,0
384,64,48276,1,0
288,64,48537,2,0,B|192:64|160:128|160:160,1,170
96,256,49320,5,0
320,256,49842,2,0,B|416:256,1,85
288,256,50364,2,0,B|192:256,1,85
288,64,51147,5,0
64,64,51669,2,0,B|32:128|96:160,1,85
160,192,52191,2,0,B|224:160|192:96,1,85
160,32,52713,1,0
192,256,53234,5,0
416,320,53756,2,0,B|480:320|480:256,1,85
416,192,54278,2,0,B|352:192|352:224|352:256,1,85
288,320,54800,1,0
192,128,55322,6,0,B|128:128,2,42.5
288,128,55844,1,0
224,224,56105,1,0
128,288,56366,1,0
224,352,56627,2,0,B|320:352,1,85
480,224,57410,5,0
384,32,57932,5,0
384,32,58193,2,0,B|320:64|320:128|384:160|384:192,1,170
288,256,58976,1,0
96,352,59498,5,0
192,160,60019,2,0,B|128:160|160:224,1,85
256,288,60541,2,0,B|320:288|288:224,1,85
288,128,61063,1,0
480,256,61585,5,0
480,256,61716,1,0
480,256,61846,1,0
416,160,62107,1,0
320,160,62368,2,0,B|288:192|352:256,1,85
384,320,62890,2,0,B|480:288|480:192,2,170
192,256,64456,2,0,B|160:224|224:160,1,85
288,96,64978,2,0,B|320:64|352:128,1,85
416,224,65500,2,0,B|416:288|352:288,1,85
192,160,66283,5,0
288,224,66543,2,0,B|288:320,1,85
288,192,67065,2,0,B|288:96,1,85
384,96,74111,5,0
288,96,74372,5,0
160,192,74894,1,0
256,192,75155,1,0
352,192,75416,1,0
352,288,75677,5,0
448,288,75938,1,0
448,288,76069,1,0
448,288,76199,1,0
448,192,76460,1,0
448,96,76721,1,0
448,96,76851,1,0
448,96,76982,1,0
352,96,77243,1,0
192,96,77765,5,0
96,96,78026,1,0
192,96,78287,1,0
192,256,78808,1,0
352,256,79330,1,0
352,352,79591,1,0
448,352,79852,5,0
448,352,79983,1,0
448,352,80113,1,0
448,256,80374,5,0
448,96,80896,1,0
352,96,81157,1,0
448,96,81418,1,0
288,96,81940,1,0
256,96,82070,1,0
224,96,82201,1,0
128,96,82462,5,0
128,192,82723,1,0
128,288,82984,1,0
160,288,83114,1,0
192,288,83245,1,0
288,288,83506,1,0
448,288,84028,1,0
448,192,84289,1,0
448,96,84550,1,0
448,96,84680,1,0
448,96,84811,1,0
352,96,85072,6,0,B|256:96,1,85
256,192,85593,1,0
256,352,86115,1,0
224,352,86246,1,0
192,352,86376,1,0
96,352,86637,1,0
96,256,86898,1,0
192,256,87159,2,0,B|192:160,1,85
192,96,87681,1,0
288,96,87942,1,0
384,96,88203,5,0
384,128,88334,1,0
384,160,88464,1,0
384,256,88725,1,0
416,256,88856,1,0
448,256,88986,1,0
448,352,89247,1,0
352,352,89508,1,0
256,352,89769,1,0
256,192,90291,6,0,B|256:288,1,85
160,288,90813,1,0
160,192,91074,1,0
160,160,91204,1,0
160,128,91335,1,0
160,224,91596,1,0
256,224,91857,5,0
352,224,92117,1,0
256,224,92378,1,0
416,224,92900,1,0
416,128,93161,1,0
416,32,93422,1,0
256,32,93944,5,0
160,32,94205,1,0
256,32,94466,1,0
96,32,94988,1,0
96,192,95510,1,0
192,192,95771,1,0
96,192,96032,1,0
96,192,96162,1,0
96,192,96293,1,0
96,288,96554,2,0,B|224:288,1,85
256,288,97076,1,0
416,192,97598,6,0,B|416:288,1,85
352,320,98120,1,0
192,288,98641,2,0,B|192:192,1,85
160,128,99163,1,0
192,128,99294,1,0
224,128,99424,1,0
320,128,99685,1,0
192,224,100207,6,0,B|192:288,2,42.5
256,160,100729,2,0,B|320:128|352:192|352:192|352:256,1,170
288,320,101512,1,0
384,320,101773,1,0
224,320,102295,1,0
192,320,102426,1,0
160,320,102556,1,0
64,320,102817,1,0
160,192,103339,6,0,B|96:192,2,42.5
256,192,103861,2,0,B|192:256|224:320|288:352,1,170
352,320,104644,1,0
352,224,104905,1,0
352,128,105165,1,0
352,224,105427,1,0
352,224,105557,1,0
352,224,105687,1,0
256,224,105948,1,0
128,128,106470,1,0
224,128,106731,1,0
128,128,106992,2,0,B|0:96|32:128|32:224,1,170
32,288,107775,5,0
256,288,108297,2,0,B|352:288,1,85
224,288,108819,2,0,B|128:288,1,85
256,96,109602,5,0
64,192,110124,2,0,B|32:256|96:288,1,85
192,288,110646,2,0,B|320:288,1,85
384,288,111168,1,0
224,128,111689,5,0
416,224,112211,2,0,B|480:224|480:160,1,85
384,160,112733,2,0,B|320:160|320:192|320:224,1,85
288,288,113255,1,0
64,224,113777,5,0
64,224,113908,5,0
64,224,114038,1,0
160,224,114299,1,0
160,128,114560,1,0
256,128,114821,1,0
256,224,115082,2,0,B|352:224,1,85
256,32,115865,5,0
480,32,116387,5,0
384,32,116648,2,0,B|320:64|320:128|384:160|384:192,1,170
320,256,117431,1,0
96,256,117953,5,0
256,96,118474,2,0,B|192:96|224:160,1,85
320,192,118996,2,0,B|384:192|352:128,1,85
352,32,119518,1,0
256,224,120040,5,0
256,224,120171,1,0
256,224,120301,1,0
160,160,120562,1,0
64,96,120823,2,0,B|32:160|64:192,1,85
256,192,121345,12,0,122389
128,192,122911,6,0,B|128:288,1,85
128,160,123433,2,0,B|128:64,1,85
192,160,123955,2,0,B|288:160,1,85
512,160,124738,5,0
416,224,124998,2,0,B|416:320,1,85
416,192,125520,2,0,B|416:96,1,85
