osu file format v9

[General]
AudioFilename: [].mp3
AudioLeadIn: 0
PreviewTime: 86631
Countdown: 1
SampleSet: Normal
StackLeniency: 0.4
Mode: 0
LetterboxInBreaks: 1

[Editor]
DistanceSpacing: 1.5
BeatDivisor: 4
GridSize: 8

[Metadata]
Title:Kidudai Ninja
Artist:Myu314
Creator:LaunchedthousandShip
Version:Shadow
Source:
Tags:

[Difficulty]
HPDrainRate:7
CircleSize:4
OverallDifficulty:7
ApproachRate:8
SliderMultiplier:2.1
SliderTickRate:1

[Events]
//Background and Video events
0,0,"ninja123.jpg"
//Break Periods
//Storyboard Layer 0 (Background)
//Storyboard Layer 1 (Fail)
//Storyboard Layer 2 (Pass)
//Storyboard Layer 3 (Foreground)
//Storyboard Sound Samples
//Background Colour Transformations
3,100,163,162,255

[TimingPoints]
5177,363.636363636364,4,2,0,70,1,0
8177,-100,4,2,0,100,0,0
10813,-100,4,2,0,70,0,0
13995,-100,4,2,0,100,0,0
25358,-200,4,2,0,100,0,0
26540,-100,4,2,0,100,0,0
28449,-100,4,1,0,60,0,0
31540,-200,4,1,0,60,0,0
31813,-100,4,1,0,60,0,0
42449,-66.6666666666667,4,1,0,60,0,0
50267,-100,4,1,0,60,0,0

[Colours]
Combo1 : 157,157,0
Combo2 : 1,65,1
Combo3 : 81,0,81
Combo4 : 98,2,2

[HitObjects]
256,192,3722,12,0,4995
384,56,5177,5,2
448,144,5358,1,2
456,248,5540,1,2
416,344,5722,1,2
312,336,5904,2,2,B|336:360,2,26.25
264,312,6086,1,2
208,312,6177,1,2
160,328,6267,2,2,B|112:312|88:256,1,105
56,152,6631,5,2
192,72,6813,1,2
304,184,6995,1,2
448,112,7177,1,2
448,112,7358,1,2
64,272,7722,5,2
64,272,7904,2,2,B|152:328,1,105
256,304,8267,2,2,B|288:328,2,35
248,272,8449,2,2,B|152:208,1,105
72,160,8813,5,2
168,32,8995,1,2
256,160,9177,1,2
352,32,9358,1,2
448,160,9540,1,2
448,160,9722,1,2
448,160,9904,2,2,B|464:208|440:264,1,105,2|0
288,288,10267,2,2,B|256:272,3,35
224,288,10510,2,2,B|168:336,1,70,2|0
392,112,10995,6,2,B|472:40,1,105,2|0
312,56,11358,2,2,B|232:128,1,105,2|2
136,88,11722,2,2,B|112:72,2,26.25
120,136,11904,1,2
120,192,11995,1,2
136,240,12086,2,2,B|176:272|240:272,1,105
336,272,12449,5,2
480,336,12631,1,2
336,272,12813,1,2
480,336,12995,1,2
488,232,13177,2,2,B|432:144,1,105
280,112,13540,6,2,B|336:200,2,105
224,24,14086,1,2
128,56,14267,1,2
80,152,14449,1,2
72,256,14631,1,2
120,352,14813,1,2
120,352,14904,1,2
120,352,14995,1,2
120,352,15177,1,2
272,312,15358,5,2
272,312,15540,1,2
424,352,15722,1,2
424,352,15904,1,2
480,208,16086,1,2
320,208,16267,1,2
312,208,16358,1,2
304,208,16449,1,2
144,208,16631,5,2
136,208,16722,1,2
128,208,16813,2,2,B|72:192|56:136,1,105
352,32,17358,2,2,B|408:48|424:104,1,105
232,352,17904,5,2
136,312,18086,1,2
280,248,18267,1,2
376,208,18449,1,2
232,144,18631,1,2
136,104,18813,1,2
40,64,18995,1,2
472,64,19358,5,2
400,136,19540,2,2,B|360:104|360:40,2,105
128,296,20267,5,2
224,336,20449,1,2
224,336,20631,1,2
328,336,20813,1,2
328,336,20995,1,2
192,56,21358,5,2
192,56,21449,1,2
192,56,21540,1,2
296,64,21722,1,2
384,120,21904,2,2,B|416:112,3,26.25
432,120,22086,2,2,B|456:128,3,26.25
472,152,22267,2,2,B|496:200|456:256,1,105
312,312,22631,5,2
208,312,22813,1,2
208,312,23177,1,2
104,312,23358,1,2
256,40,23722,5,2
360,64,23904,1,2
448,128,24086,1,2
392,272,24267,1,2
392,272,24358,1,2
392,272,24449,1,2
304,208,24631,1,2
200,184,24813,1,2
40,320,25177,5,2
120,256,25358,2,2,B|176:256,2,52.5
272,288,25904,1,2
376,264,26086,2,2,B|432:264,2,52.5
312,120,26631,5,2
208,120,26813,1,2
152,264,26995,1,2
256,264,27177,1,2
360,264,27358,1,2
360,264,27722,1,2
464,80,28086,5,0
440,88,28177,1,0
416,88,28267,1,0
392,80,28358,1,0
368,72,28449,2,0,B|232:56|168:128,1,210
104,208,28995,5,0
184,272,29177,1,0
192,272,29267,1,0
200,272,29358,1,0
296,232,29540,1,0
296,232,29722,1,0
400,232,29904,1,0
400,232,30086,1,0
456,144,30267,6,0,B|472:112,2,35
424,152,30449,2,0,B|360:160|320:120,1,105
168,88,30813,1,0
160,88,30903,1,0
152,88,30995,2,0,B|120:136|152:192,1,105,0|0
432,336,31540,6,0,B|376:336,1,52.5
288,288,31904,1,0
280,288,31994,1,0
272,288,32085,1,0
168,320,32267,1,0
160,320,32357,1,0
152,320,32448,1,0
48,288,32631,1,0
112,144,32813,5,0
272,144,32995,1,0
416,72,33177,2,0,B|368:40,2,52.5
416,232,33540,2,0,B|424:264,3,26.25
416,280,33722,2,0,B|408:304,3,26.25
384,320,33903,2,0,B|336:344|280:304,2,105,0|0|0
72,304,34631,5,0
72,304,34813,1,0
168,264,34995,1,0
112,176,35177,1,0
112,168,35267,1,0
112,160,35358,1,0
152,64,35540,1,0
312,40,35722,5,0
312,40,35904,1,0
416,160,36086,6,0,B|432:128,2,35
384,168,36268,2,0,B|320:176|280:136,1,105
128,104,36632,1,0
120,104,36722,1,0
112,104,36814,2,0,B|80:152|112:208,1,105
120,232,37086,5,0
128,256,37177,1,0
144,272,37267,1,0
168,288,37358,1,0
192,296,37449,1,0
216,296,37540,1,0
240,288,37631,1,0
264,280,37722,1,0
288,280,37813,1,0
312,288,37904,6,0,B|352:320,3,52.5
376,312,38267,2,0,B|416:280,3,52.5
432,224,38631,6,0,B|384:208,1,52.5
368,160,38813,2,0,B|416:144,1,52.5
392,96,38995,2,0,B|344:80,1,52.5
312,40,39177,2,0,B|360:24,1,52.5
416,24,39358,6,0,B|448:24,3,26.25
464,40,39540,2,0,B|488:56,3,26.25
496,80,39722,2,0,B|504:136|464:176,2,105
16,80,40449,5,0
16,80,40813,1,0
16,240,40995,1,0
16,240,41358,1,0
16,240,41722,1,0
320,320,42086,2,0,B|368:304|424:320,1,105
192,64,42631,6,0,B|120:88|32:64,2,157.5,12|0|0
192,64,43358,1,0
192,64,43722,1,0
352,64,43904,1,0
352,64,44267,1,0
352,64,44631,1,0
352,64,44995,1,0
418,206,45177,1,0
276,272,45358,1,0
209,129,45540,6,0,B|137:105|49:129,2,157.5,12|0|0
209,129,46267,1,0
209,129,46631,1,0
209,286,46813,1,0
209,286,47177,1,0
209,286,47540,1,0
209,286,47904,1,0
320,174,48086,1,0
209,63,48267,1,0
97,174,48449,6,0,B|73:246|97:334,2,157.5,12|0|0
97,174,49177,1,0
97,174,49540,1,0
254,174,49722,1,0
254,174,50086,1,0
410,174,50267,5,0
448,208,50358,1,0
448,264,50449,1,0
408,296,50540,1,0
352,296,50631,1,0
320,256,50722,1,0
272,232,50813,1,0
224,256,50904,1,0
176,240,50995,2,0,B|160:216,8,26.25
136,32,51722,6,0,B|80:120,2,105
248,208,52449,2,0,B|192:120,1,105
136,32,52995,1,0
136,32,53358,2,0,B|232:72|272:192,1,210
424,144,53904,1,0
304,248,54086,1,0
184,344,54267,1,12
32,64,54631,5,0
32,64,54995,1,0
240,40,55358,2,0,B|344:40,1,105
472,208,55904,1,0
304,336,56267,2,0,B|96:336,1,210
32,192,56813,1,0
192,192,56995,1,0
352,192,57177,1,12
72,48,57540,6,0,B|72:160|152:240,1,210
328,352,58267,1,0
328,352,58449,1,0
496,224,58813,2,0,B|496:112|416:32,2,210
360,152,59722,1,0
224,224,59904,1,0
88,152,60086,1,12
296,24,60449,5,0
424,232,60813,1,0
216,360,61177,1,0
136,224,61358,1,0
280,152,61540,1,0
360,288,61722,1,0
256,192,61904,12,0,62995
448,80,63358,5,4
344,48,63540,1,0
240,48,63722,1,0
136,64,63904,1,0
112,72,63995,1,0
88,88,64086,1,4
40,176,64267,1,0
48,200,64358,1,0
64,224,64449,1,0
88,240,64540,1,0
112,248,64631,1,0
136,248,64722,1,0
160,240,64813,1,4
264,216,64995,5,0
360,168,65177,1,0
384,176,65267,1,0
408,192,65358,1,0
424,216,65449,1,0
432,240,65540,1,4
432,264,65631,1,0
424,288,65722,1,0
408,312,65813,1,0
384,328,65904,1,0
280,344,66086,1,0
280,344,66267,1,4
176,336,66449,5,0
96,272,66631,1,0
80,248,66722,1,0
80,224,66813,1,0
88,200,66904,1,0
104,184,66995,2,0,B|152:200,2,52.5,4|0|0
80,168,67267,1,0
72,144,67358,1,0
72,120,67449,1,0
88,96,67540,1,0
184,48,67722,6,0,B|232:32,3,52.5,4|0|0|0
248,56,68086,2,0,B|296:80,3,52.5
344,88,68449,6,0,B|392:72,1,52.5,4|0
408,120,68631,2,0,B|456:136,1,52.5
440,184,68813,2,0,B|392:200,1,52.5
376,248,68995,2,0,B|328:232,1,52.5
280,256,69177,6,0,B|288:312|344:336,2,105,4|0|0
232,160,69722,1,0
216,136,69813,1,0
192,120,69904,1,4
88,96,70086,1,0
104,72,70177,1,0
128,56,70267,1,0
152,48,70358,1,0
176,48,70449,1,0
200,56,70540,1,0
224,64,70631,1,4
248,72,70722,1,0
272,72,70813,1,0
376,72,70995,5,0
400,80,71086,1,0
424,96,71177,1,0
440,120,71267,1,0
448,144,71358,1,4
456,248,71540,1,4
400,336,71722,1,4
312,280,71904,1,0
208,280,72086,1,4
56,136,72449,5,4
112,48,72631,1,4
200,104,72813,1,4
304,104,72995,1,4
80,328,73540,6,0,B|184:296|288:336,1,210
392,320,74086,2,0,B|424:304,3,26.25
432,288,74267,2,0,B|440:264,3,26.25
440,240,74449,2,0,B|424:192|352:192,2,105
408,88,74995,6,0,B|312:48,1,105
120,136,75358,2,0,B|216:176,1,105
416,256,75722,1,0
208,296,75904,1,0
222,301,75995,1,0
236,307,76086,2,0,B|332:347,1,105
128,296,76449,6,0,B|16:296,1,105
168,144,76813,2,0,B|272:144,1,105
488,144,77177,1,8
488,144,77358,1,8
488,144,77540,1,8
112,328,77904,6,0,B|208:288,1,105
352,136,78267,2,0,B|256:176,2,105,0|0|0
144,104,78813,1,0
159,99,78904,1,0
173,93,78995,2,0,B|269:53,1,105
160,232,79358,6,0,B|160:336,1,105
352,152,79722,2,0,B|352:48,1,105
256,192,80086,1,8
256,192,80267,1,8
256,192,80449,1,8
104,296,80813,6,0,B|200:336,1,105
392,248,81176,2,0,B|296:208,1,105
96,128,81540,1,0
304,88,81722,1,0
290,83,81813,1,0
276,77,81904,2,0,B|180:37,1,105
384,88,82267,6,0,B|496:88,1,105
344,240,82631,2,0,B|240:240,1,105
24,240,82995,1,8
24,240,83176,1,8
24,240,83358,1,8
400,56,83722,2,0,B|304:96,1,105
160,248,84085,2,0,B|256:208,2,105
368,280,84631,1,0
353,285,84722,1,0
339,291,84813,2,0,B|243:331,1,105
352,152,85176,6,0,B|352:48,1,105,8|0
240,224,85540,2,0,B|240:328,1,105,8|0
120,152,85904,2,0,B|120:48,1,105,8|0
328,64,86267,5,0
368,72,86358,1,0
400,88,86449,1,0
440,96,86540,1,0
480,88,86631,2,0,B|504:136|480:192,1,105,4|0
336,256,86995,2,0,B|312:208|336:152,2,105,0|0|4
200,336,87540,1,0
176,312,87631,1,0
144,296,87722,2,0,B|88:288|48:328,1,105
136,200,88086,6,0,B|192:208|240:176,1,105,4|0
128,64,88449,2,0,B|72:56|24:88,2,105,0|0|4
288,80,88995,1,0
320,88,89086,1,0
344,112,89177,2,0,B|344:168|296:200,2,105,0|0|4
488,40,89722,1,0
472,200,89904,1,0
352,304,90086,1,0
200,336,90267,1,4
160,328,90358,1,0
136,304,90449,2,0,B|136:248|184:216,2,105
48,168,90995,5,4
192,104,91177,1,0
232,96,91267,1,0
272,96,91358,1,0
432,112,91540,1,0
320,216,91722,1,4
280,224,91812,1,0
240,224,91903,1,0
88,176,92086,1,0
128,168,92176,1,0
168,168,92267,1,0
320,136,92449,6,0,B|369:123|427:150,1,105,4|0
472,296,92813,2,0,B|421:319|368:300,2,105,0|0|4
328,224,93358,1,0
296,208,93449,1,0
256,200,93540,1,0
216,208,93631,1,0
184,224,93722,2,0,B|176:280|216:328,2,105,0|4|0
176,64,94267,1,0
176,64,94449,1,0
48,160,94631,2,0,B|48:216|80:264,2,105,4|0|0
176,64,95177,1,0
336,64,95358,6,0,B|352:176|256:248,1,210,4|0
104,272,95904,1,0
32,128,96086,1,4
40,96,96177,1,0
64,72,96267,1,0
96,56,96358,1,0
136,56,96449,2,0,B|168:96|160:160,1,105
312,120,96813,6,0,B|366:105,1,52.5
404,135,96995,2,0,B|389:191,1,52.5
431,216,97177,2,0,B|466:218,3,26.25
477,233,97358,2,0,B|484:283|431:327,2,105
477,233,97904,1,0
232,32,98267,5,0
120,328,98631,2,0,B|64:320|32:272,2,105
64,176,99177,1,0
72,176,99267,1,0
80,176,99358,2,0,B|192:176,1,105
288,56,99722,2,0,B|400:56,1,105
480,192,100086,2,0,B|448:176,2,35
432,200,100267,2,0,B|384:232|392:296,1,105
240,256,100631,1,0
230,260,100722,1,0
220,264,100813,2,0,B|168:240|160:184,2,105,12|0|0
312,136,101358,6,0,B|364:160|372:216,1,105
232,136,101722,2,0,B|202:177,1,52.5
146,186,101904,2,0,B|138:129,1,52.5
82,138,102086,2,0,B|52:179,1,52.5
32,224,102267,2,0,B|40:280|104:304,2,105
40,64,102813,1,0
192,32,102995,1,0
352,48,103177,1,0
456,168,103358,1,0
480,320,103540,2,0,B|448:320,4,26.25,0|0|0|0|12
328,264,103904,2,0,B|296:264,4,26.25
32,320,104449,5,0
32,320,104631,1,0
64,168,104813,1,0
160,40,104995,1,0
168,40,105086,1,0
176,40,105177,2,0,B|288:40,1,105
216,184,105540,1,0
376,184,105722,1,0
304,320,105904,2,0,B|344:320,2,35
256,296,106086,2,0,B|152:296,1,105
80,152,106449,1,0
76,145,106539,1,0
71,138,106631,2,0,B|96:86|161:85,1,105
186,81,106903,5,0
211,76,106994,1,0
233,81,107086,1,0
259,94,107177,1,0
278,111,107266,1,0
290,132,107357,1,0
295,156,107448,1,0
300,181,107539,1,0
293,206,107630,1,0
280,232,107721,6,0,B|320:264,3,52.5
328,288,108086,2,0,B|288:320,3,52.5
232,312,108448,6,0,B|184:296,1,52.5
128,288,108630,2,0,B|80:304,1,52.5
56,256,108812,2,0,B|40:208,1,52.5
40,152,108994,2,0,B|56:104,1,52.5
88,64,109177,6,0,B|110:41,3,26.25
133,41,109357,2,0,B|161:35,3,26.25
184,47,109539,2,0,B|229:80|229:137,2,105
480,168,110267,6,0,B|472:112|424:80,2,105
336,232,110813,1,0
328,232,110903,1,0
320,232,110994,2,0,B|208:232,1,105
328,344,111358,2,0,B|440:344,1,105
480,192,111722,2,0,B|448:208,2,35
432,184,111903,2,0,B|384:152|392:88,1,105
240,128,112267,1,0
230,124,112358,1,0
220,120,112449,2,0,B|168:144|160:200,2,105,12|0|0
312,248,112994,6,0,B|364:224|372:168,1,105
232,248,113358,2,0,B|202:207,1,52.5
146,198,113540,2,0,B|138:255,1,52.5
82,246,113722,2,0,B|52:205,1,52.5
32,160,113903,2,0,B|40:104|104:80,2,105
40,320,114449,1,0
192,352,114631,1,0
352,336,114813,1,0
456,216,114994,1,0
480,64,115176,2,0,B|448:64,4,26.25,0|0|0|0|12
328,120,115540,2,0,B|296:120,4,26.25
32,64,116085,5,0
32,64,116267,1,0
64,216,116449,1,0
160,344,116631,1,0
168,344,116722,1,0
176,344,116813,2,0,B|288:344,1,105
424,272,117176,1,0
416,112,117358,1,0
272,40,117540,2,0,B|312:40,2,35
256,72,117722,2,0,B|152:72,1,105
136,232,118086,2,0,B|32:232,1,105,0|12
360,32,118631,5,4
488,192,118813,1,0
360,352,118995,1,0
152,352,119177,1,0
24,192,119359,1,0
152,32,119540,1,0
256,192,119722,1,0
256,192,119904,1,0
360,352,120086,5,4
488,192,120268,1,0
360,32,120450,1,0
152,32,120632,1,0
24,192,120813,1,0
152,352,120995,1,0
256,192,121177,1,0
256,192,121359,1,0
360,32,121540,5,4
376,192,121722,1,0
392,352,121904,1,0
392,352,122086,1,0
152,352,122267,5,4
136,192,122449,1,0
120,32,122631,1,0
120,32,122813,1,0
256,192,122995,5,0
256,192,123086,1,0
256,88,123267,1,0
256,88,123358,1,0
256,296,123540,1,4
256,296,123722,1,4
