osu file format v9

[General]
AudioFilename: [].mp3
AudioLeadIn: 0
PreviewTime: 86631
Countdown: 1
SampleSet: Normal
StackLeniency: 0.4
Mode: 0
LetterboxInBreaks: 1

[Editor]
DistanceSpacing: 1.2
BeatDivisor: 4
GridSize: 8

[Metadata]
Title:Kidudai Ninja
Artist:Myu314
Creator:LaunchedthousandShip
Version:Relaxing
Source:
Tags:

[Difficulty]
HPDrainRate:3
CircleSize:4
OverallDifficulty:3
ApproachRate:4
SliderMultiplier:1.2
SliderTickRate:1

[Events]
//Background and Video events
0,0,"ninja123.jpg"
//Break Periods
2,63195,72220
//Storyboard Layer 0 (Background)
//Storyboard Layer 1 (Fail)
//Storyboard Layer 2 (Pass)
//Storyboard Layer 3 (Foreground)
//Storyboard Sound Samples
//Background Colour Transformations
3,100,163,162,255

[TimingPoints]
5177,363.636363636364,4,2,0,70,1,0
8177,-100,4,2,0,100,0,0
10813,-100,4,2,0,70,0,0
13995,-100,4,2,0,100,0,0
28449,-100,4,1,0,60,0,0
50267,-100,4,1,0,60,0,0
63358,-200,4,1,0,60,0,0
73177,-100,4,1,0,60,0,0

[Colours]
Combo1 : 157,157,0
Combo2 : 1,65,1
Combo3 : 81,0,81
Combo4 : 98,2,2

[HitObjects]
48,88,5177,2,2,B|112:88,1,60,6|2
160,136,5540,2,2,B|224:136,2,60
128,200,6086,2,2,B|64:200,2,60
168,264,6631,2,2,B|200:224|200:224|272:224,2,120
304,304,7722,6,2,B|360:320,2,60
344,240,8267,2,2,B|408:224,2,60,0|0|0
336,168,8813,2,2,B|304:112|232:112,1,120
96,136,9540,2,2,B|128:192|200:192,1,120
195,191,10267,1,2
456,304,10995,6,2,B|392:304,1,60,6|2
360,240,11358,2,2,B|296:240,2,60
384,168,11904,2,2,B|448:168,2,60
336,112,12449,2,2,B|304:152|304:152|232:152,2,120
192,96,13540,6,2,B|136:80,2,60
160,160,14085,2,2,B|96:176,2,60,0|0|0
176,232,14631,2,2,B|208:288|280:288,1,120
392,200,15358,2,2,B|360:144|288:144,1,120
152,144,16085,1,2
152,144,16449,1,2
272,64,16813,6,2,B|392:64,2,120
272,208,17904,6,2,B|312:160,2,60
200,208,18449,1,2
128,208,18631,2,2,B|88:160,2,60
224,96,19358,6,2,B|160:96,2,60
296,96,19904,1,2
368,224,20267,2,2,B|368:288,2,60
432,192,20813,2,2,B|432:120,1,60
296,184,21358,2,2,B|232:200,2,60
352,136,21904,2,2,B|328:72|264:56,1,120
152,144,22631,6,2,B|120:184|120:184|48:184,2,120,2|2|2
288,88,23722,2,2,B|240:48,2,60
344,136,24267,1,2
280,176,24449,2,2,B|224:216,2,60
400,256,25177,2,2,B|456:288,1,60
312,272,25722,2,2,B|256:296,2,60
280,208,26267,2,2,B|224:168,2,60
344,168,26813,1,2
256,192,26995,12,0,28449
400,120,28813,5,0
400,120,29177,2,0,B|392:184|328:208,1,120
192,248,29904,2,0,B|256:248,1,60
296,304,30267,2,0,B|360:304,1,60
400,248,30631,2,0,B|464:248,2,60
224,120,31540,6,0,B|288:128|312:192,2,120
152,120,32449,1,0
88,248,32813,2,0,B|152:248,1,60
192,304,33176,2,0,B|256:304,1,60
312,264,33540,2,0,B|376:264,2,60
112,56,34631,6,0,B|216:120,2,120
112,200,35722,2,0,B|168:184,1,60
200,248,36086,2,0,B|256:264,1,60
288,200,36449,2,0,B|344:184,2,60
256,192,36904,12,0,39722
144,128,40086,5,0
144,128,40450,1,0
144,128,40813,2,0,B|208:128,1,60
348,128,41358,2,0,B|380:184|348:248,2,120
312,64,42267,2,0,B|248:64,2,60,0|0|12
232,184,42995,5,0
232,184,43359,1,0
232,184,43722,2,0,B|168:184,1,60
320,184,44267,2,0,B|384:216|440:184,2,120
320,111,45177,2,0,B|320:47,2,60,0|0|12
256,240,45904,5,0
256,240,46268,1,0
256,240,46631,2,0,B|256:176,1,60
400,180,47177,2,0,B|432:244|400:300,2,120
400,112,48085,2,0,B|472:112,2,60,0|0|12
256,112,48813,5,0
256,112,49177,1,0
256,112,49540,2,0,B|256:176,1,60
256,320,50085,1,0
256,192,50267,12,0,51358
176,152,51722,6,0,B|240:152,2,60
296,232,52449,2,0,B|232:232,1,60
336,128,52995,1,0
336,128,53358,1,0
336,128,53722,2,0,B|272:128,1,60
232,72,54086,2,0,B|168:72,1,60
112,200,54631,6,0,B|176:200,2,60
232,288,55358,2,0,B|168:288,1,60
320,288,55904,1,0
320,288,56267,1,0
320,288,56631,2,0,B|384:288,1,60
416,224,56995,2,0,B|480:224,1,60
352,152,57540,6,0,B|352:88,2,60
208,176,58267,2,0,B|208:240,1,60
112,128,58813,1,0
112,128,59176,1,0
112,128,59540,2,0,B|112:192,1,60
160,240,59904,2,0,B|160:304,1,60
240,176,60449,5,0
240,176,60813,1,0
240,176,61177,2,0,B|304:176,1,60
352,128,61540,2,0,B|416:128,1,60
256,192,61904,12,0,62995
128,192,73540,5,0
256,320,73904,1,0
384,192,74267,1,0
256,64,74631,2,0,B|256:128,2,60
112,80,75358,6,0,B|112:200,2,120
192,200,76449,2,0,B|192:80,1,120
336,80,77177,1,8
336,80,77540,1,8
416,200,77904,6,0,B|296:200,1,120
168,128,78631,2,0,B|296:128,1,120
280,272,79358,2,0,B|400:272,1,120
448,136,80086,1,8
448,136,80449,1,8
320,72,80813,6,0,B|232:160,1,120
352,248,81540,2,0,B|440:160,1,120
296,200,82267,2,0,B|208:288,1,120
80,224,82995,1,8
80,224,83358,1,8
128,88,83722,6,0,B|208:184,1,120
312,80,84449,2,0,B|392:176,1,120,0|0
392,320,85177,1,8
392,320,85540,1,8
392,320,85904,1,8
216,96,86631,6,0,B|272:112,1,60,4|0
256,184,86995,2,0,B|200:216,1,60
248,272,87358,2,0,B|264:336,1,60,4|0
328,304,87722,2,0,B|392:296,1,60
432,240,88086,6,0,B|376:200,3,60,4|0|0|0
360,136,88813,2,0,B|304:96,3,60,4|0|0|0
272,160,89540,2,0,B|216:200,3,60,4|0|0|0
152,176,90267,2,0,B|96:136,3,60,4|0|0|0
56,200,90995,5,4
56,200,91358,1,0
168,296,91722,1,4
168,296,92086,1,0
312,304,92449,6,0,B|256:288,1,60,4|0
232,216,92813,2,0,B|288:184,1,60
352,152,93176,2,0,B|336:88,1,60,4|0
408,88,93540,2,0,B|440:144,1,60
464,208,93904,6,0,B|408:248,3,60,4|0|0|0
344,240,94631,2,0,B|288:280,3,60,4|0|0|0
224,248,95358,2,0,B|168:288,3,60,4|0|0|0
128,224,96085,2,0,B|184:184,3,60,4|0|0|0
152,120,96813,5,4
152,120,97176,1,0
296,120,97540,1,4
296,120,97904,1,0
80,304,98631,6,0,B|136:272|200:304,2,120
72,160,99722,2,0,B|72:224,1,60
144,220,100086,2,0,B|144:156,1,60
216,160,100449,2,0,B|216:224,2,60,0|0|12
384,296,101358,6,0,B|328:328|264:296,1,120
296,232,101904,2,0,B|352:200|416:232,1,120
328,112,102631,2,0,B|328:48,1,60
255,52,102995,2,0,B|255:116,1,60
182,112,103358,2,0,B|182:48,2,60,0|0|12
344,256,104267,6,0,B|240:312,1,120
200,248,104813,2,0,B|96:304,1,120,0|0
96,160,105540,2,0,B|144:200,1,60
192,144,105904,2,0,B|248:128,1,60
320,112,106267,2,0,B|360:168,1,60
256,192,106631,12,0,109904
424,80,110267,6,0,B|368:112|304:80,2,120
424,224,111358,2,0,B|424:160,1,60
351,164,111722,2,0,B|351:228,1,60
278,224,112085,2,0,B|278:160,2,60,0|0|12
104,96,112994,6,0,B|160:64|224:96,1,120
192,160,113540,2,0,B|136:192|72:160,1,120
192,248,114267,2,0,B|192:312,1,60
264,308,114631,2,0,B|264:244,1,60
336,248,114994,2,0,B|336:312,2,60,0|0|12
160,120,115903,6,0,B|264:64,1,120
312,120,116449,2,0,B|416:64,1,120,0|0
424,208,117176,2,0,B|376:168,1,60
328,224,117540,2,0,B|272:240,1,60
200,264,117903,2,0,B|160:208,2,60,0|0|12
97,161,118631,6,0,B|97:97,3,60,4|0|0|0
169,101,119358,2,0,B|169:165,3,60,0|0|0|0
241,161,120086,6,0,B|241:97,3,60,4|0|0|0
313,101,120813,2,0,B|313:165,3,60,0|0|0|0
385,161,121540,6,0,B|385:97,3,60,4|0|0|0
457,101,122267,2,0,B|457:165,3,60,0|0|0|0
432,232,122995,6,0,B|336:232,2,90,0|0|4
504,232,123722,1,4
