osu file format v9

[General]
AudioFilename: [].mp3
AudioLeadIn: 0
PreviewTime: 86631
Countdown: 1
SampleSet: Soft
StackLeniency: 0.4
Mode: 0
LetterboxInBreaks: 1

[Editor]
DistanceSpacing: 1.5
BeatDivisor: 4
GridSize: 8

[Metadata]
Title:Kidudai Ninja
Artist:Myu314
Creator:LaunchedthousandShip
Version:Hard
Source:
Tags:

[Difficulty]
HPDrainRate:7
CircleSize:5
OverallDifficulty:6
ApproachRate:7
SliderMultiplier:1.65
SliderTickRate:1

[Events]
//Background and Video events
0,0,"ninja123.jpg"
//Break Periods
//Storyboard Layer 0 (Background)
//Storyboard Layer 1 (Fail)
//Storyboard Layer 2 (Pass)
//Storyboard Layer 3 (Foreground)
//Storyboard Sound Samples
//Background Colour Transformations
3,100,163,162,255

[TimingPoints]
5177,363.636363636364,4,2,0,70,1,0
8177,-100,4,2,0,100,0,0
10813,-100,4,2,0,70,0,0
13995,-100,4,2,0,100,0,0
25358,-200,4,1,0,60,0,0
26540,-100,4,1,0,60,0,0
63358,-200,4,1,0,60,0,0
73177,-100,4,1,0,60,0,0

[Colours]
Combo1 : 157,157,0
Combo2 : 1,65,1
Combo3 : 81,0,81
Combo4 : 98,2,2

[HitObjects]
48,88,5177,2,2,B|120:48,1,82.5,6|2
184,96,5540,2,2,B|112:136,1,82.5
120,216,5904,2,2,B|83:237,4,41.25
200,216,6449,1,2
280,216,6631,5,2
360,216,6813,1,2
320,136,6995,1,2
320,136,7177,1,2
320,136,7358,1,2
176,48,7722,6,2,B|88:48,2,82.5
256,48,8267,2,2,B|296:48,2,41.25
256,128,8631,1,2
216,200,8813,6,2,B|216:288,1,82.5
299,282,9177,2,2,B|299:194,1,82.5
381,199,9540,2,2,B|381:287,2,82.5
296,56,10267,2,0,B|296:96,4,41.25
376,200,10995,6,2,B|304:160,1,82.5,6|2
240,208,11358,2,2,B|312:248,1,82.5
304,328,11722,2,2,B|341:349,4,41.25
224,328,12267,1,2
144,328,12449,5,2
64,328,12631,1,2
104,248,12813,1,2
104,248,12995,1,2
104,248,13176,1,2
104,80,13540,1,2
104,80,13722,1,2
104,80,13903,1,2
168,136,14086,5,2
240,104,14267,1,2
240,104,14449,1,2
304,160,14631,1,2
384,160,14813,2,2,B|416:136,2,41.25
384,160,15177,1,2
424,232,15358,5,2
424,232,15540,1,2
384,304,15722,1,2
384,304,15904,1,2
304,304,16086,1,2
256,232,16267,2,2,B|232:200,2,41.25
200,80,16813,6,2,B|112:80,1,82.5
312,80,17358,2,2,B|400:80,1,82.5
256,176,17904,5,2
256,176,18086,1,2
192,224,18267,1,2
192,224,18449,1,2
232,296,18631,1,2
232,296,18813,1,2
232,296,18995,1,2
392,256,19358,6,2,B|480:256,1,82.5
432,184,19722,2,2,B|344:184,1,82.5
184,184,20267,5,2
184,184,20449,2,2,B|96:184,1,82.5
144,256,20813,2,2,B|232:256,1,82.5
160,104,21358,2,2,B|200:104,2,41.25
96,48,21722,1,2
64,128,21904,2,2,B|24:128,4,41.25
168,256,22631,5,2
168,256,22813,1,2
168,256,23177,1,2
168,256,23358,1,2
312,336,23722,5,2
312,336,23904,1,2
352,264,24086,1,2
424,296,24267,2,2,B|464:312,2,41.25
424,216,24631,1,2
424,216,24813,2,2,B|424:128,1,82.5
264,96,25358,6,0,B|304:96,2,41.25
160,224,26086,2,0,B|120:224,2,41.25
288,328,26813,1,0
256,192,26995,12,0,28449
400,104,28813,5,0
408,184,28995,1,0
376,256,29177,2,0,B|312:312|224:320,1,165
144,320,29722,1,0
104,248,29904,2,0,B|40:192,1,82.5
112,152,30267,2,0,B|176:96,1,82.5
256,96,30631,1,0
312,160,30813,2,0,B|360:160,2,41.25
128,328,31540,6,0,B|200:280|288:304,1,165
360,336,32086,1,0
440,352,32267,2,0,B|488:336,2,41.25
416,272,32631,1,0
456,200,32813,1,0
456,200,32995,1,0
376,168,33177,1,0
376,168,33358,1,0
424,96,33540,2,0,B|392:64,4,41.25
128,240,34631,6,0,B|192:304,1,82.5
272,288,34995,2,0,B|352:264,1,82.5
432,264,35358,1,0
432,264,35540,1,0
448,184,35722,2,0,B|488:112,1,82.5
424,56,36086,2,0,B|384:32,2,41.25
376,120,36449,1,0
312,176,36631,2,0,B|320:216,2,41.25
256,192,36995,12,0,39722
80,56,40086,5,0
80,56,40450,1,0
80,56,40813,2,0,B|168:56,1,82.5
392,144,41358,1,0
392,144,41722,2,0,B|424:224|384:304,1,165
264,328,42267,2,0,B|176:328,2,82.5,0|0|12
168,96,42995,5,0
168,96,43359,1,0
168,96,43722,2,0,B|80:96,1,82.5
264,264,44267,1,0
264,264,44631,2,0,B|344:296|424:256,1,165
448,136,45176,2,0,B|448:48,2,82.5,0|0|12
264,296,45904,5,0
264,296,46268,1,0
264,296,46631,2,0,B|264:208,1,82.5
64,64,47176,1,0
64,64,47540,2,0,B|144:96|224:56,1,165
344,56,48085,2,0,B|432:56,2,82.5,0|0|12
168,232,48813,5,0
168,232,49177,1,0
168,232,49540,2,0,B|168:320,1,82.5
400,232,50085,1,0
256,192,50267,12,0,51358
144,80,51722,6,0,B|232:80,1,82.5
352,80,52086,1,0
448,304,52449,2,0,B|360:304,1,82.5
160,168,52995,1,0
160,168,53358,1,0
160,168,53722,1,0
216,224,53904,1,0
280,168,54086,1,0
336,224,54267,1,12
112,328,54631,6,0,B|200:328,1,82.5
320,328,54995,1,0
376,88,55358,2,0,B|464:88,1,82.5
208,88,55904,1,0
208,88,56267,1,0
208,88,56631,1,0
136,128,56813,1,0
136,208,56995,1,0
208,248,57176,1,12
352,48,57540,6,0,B|352:136,1,82.5
352,256,57904,1,0
112,328,58267,2,0,B|112:240,1,82.5
352,320,58813,1,0
352,320,59176,1,0
352,320,59540,1,0
272,320,59722,1,0
240,248,59904,1,0
160,248,60085,1,12
368,112,60449,5,0
368,112,60813,1,0
176,264,61177,2,0,B|176:176,1,82.5
256,88,61540,2,0,B|256:176,1,82.5
256,192,61904,12,0,62995
64,120,63358,6,0,B|40:264|184:320,1,247.5,4|0
272,240,64813,2,0,B|296:200|344:200,1,82.5,4|0
408,304,65540,2,0,B|456:296|472:256,1,82.5
480,136,66267,2,0,B|405:10|259:59,1,247.5,4|0
168,128,67722,1,4
168,128,68086,1,0
168,128,68449,1,0
168,128,68813,1,0
136,248,69177,6,0,B|256:165|367:272,1,247.5,4|0
448,184,70631,2,0,B|472:144|448:104,1,82.5,4|0
344,48,71358,2,0,B|320:88|344:128,1,82.5
392,240,72086,1,4
320,336,72449,2,0,B|280:360,2,41.25
256,96,73540,5,0
256,96,73904,1,0
256,96,74267,1,0
256,96,74631,2,0,B|256:184,1,82.5
296,248,74995,6,0,B|232:304,1,82.5
312,328,75358,2,0,B|376:272,1,82.5
432,216,75722,1,0
432,216,75904,1,0
432,136,76086,1,0
432,136,76268,1,0
360,176,76449,2,0,B|272:176,1,82.5
240,104,76813,2,0,B|152:104,1,82.5
72,104,77177,1,8
72,104,77358,1,8
72,104,77540,1,8
176,232,77904,6,0,B|264:232,1,82.5
312,288,78267,2,0,B|400:288,1,82.5
456,232,78631,1,0
456,232,78813,1,0
400,168,78995,1,0
400,168,79177,1,0
432,88,79358,2,0,B|344:88,1,82.5
280,48,79722,2,0,B|192:48,1,82.5
144,112,80086,1,8
144,112,80267,1,8
144,112,80449,1,8
104,272,80813,6,0,B|104:184,1,82.5
176,224,81177,2,0,B|176:312,1,82.5
248,272,81540,1,0
248,272,81722,1,0
328,272,81904,1,0
328,272,82086,1,0
400,224,82267,2,0,B|400:312,1,82.5
472,272,82631,2,0,B|472:184,1,82.5
472,104,82995,1,8
472,104,83177,1,8
472,104,83358,1,8
320,48,83722,6,0,B|320:136,1,82.5
248,96,84086,2,0,B|248:184,1,82.5
320,224,84449,1,0
320,224,84631,1,0
248,264,84813,1,0
248,264,84995,1,0
288,336,85177,1,8
288,336,85540,1,8
288,336,85904,1,8
472,64,86631,5,4
472,64,86813,1,0
424,128,86995,2,0,B|344:160,1,82.5
288,104,87358,1,4
232,160,87540,2,0,B|200:192,2,41.25
192,88,87904,1,0
112,88,88086,6,0,B|88:128|112:168,1,82.5,4|0
208,248,88449,2,0,B|232:288|208:328,1,82.5
336,328,88813,2,0,B|312:288|336:248,1,82.5,4|0
432,168,89176,2,0,B|456:128|432:88,1,82.5
312,56,89540,6,0,B|272:32|232:56,2,82.5,4|0|0
312,56,90086,1,0
272,176,90267,1,4
272,176,90449,2,0,B|232:200|192:176,2,82.5
376,248,90995,5,4
264,304,91177,2,0,B|224:288,2,41.25
144,264,91540,1,0
72,160,91722,2,0,B|96:128,2,41.25,4|0|0
200,160,92086,2,0,B|224:128,2,41.25
312,104,92449,6,0,B|352:80|392:104,1,82.5,4|0
448,216,92813,2,0,B|408:240|368:216,1,82.5
245,217,93177,1,4
136,168,93358,2,0,B|91:167,2,41.25
48,256,93722,1,0
152,320,93904,6,0,B|192:344|232:320,1,82.5,4|0
344,264,94267,2,0,B|384:240|424:264,1,82.5
336,176,94631,2,0,B|296:200|256:176,2,82.5,4|0|0
376,56,95177,1,0
376,56,95358,2,0,B|296:24|208:56,1,165,4|0
104,104,95904,1,0
176,200,96086,2,0,B|168:248,2,41.25
88,288,96449,1,4
88,288,96631,1,0
256,192,96813,12,0,98267
88,72,98631,5,4
88,72,98813,1,0
64,152,98995,2,0,B|104:224,1,82.5
184,216,99358,2,0,B|224:288,1,82.5,4|0
296,248,99722,1,0
376,248,99904,1,0
408,176,100086,1,0
488,176,100267,1,0
464,96,100449,2,0,B|376:96,2,82.5,0|0|12
216,56,101358,6,0,B|176:128|224:224,1,165
264,288,101904,1,0
264,288,102086,1,0
336,240,102267,2,0,B|424:240,1,82.5
464,168,102631,1,0
464,168,102813,1,0
400,112,102995,1,0
400,112,103177,1,0
432,32,103358,2,0,B|344:32,2,82.5,0|0|12
272,216,104267,6,0,B|224:144|128:152,1,165
48,160,104813,1,0
48,160,104995,1,0
88,88,105177,1,0
88,88,105358,1,0
152,40,105540,2,0,B|224:80,1,82.5
304,64,105904,2,0,B|384:48,1,82.5
464,80,106267,1,0
464,80,106449,1,0
256,192,106631,12,0,109904
424,312,110267,5,0
424,312,110449,1,0
448,232,110631,2,0,B|408:160,1,82.5
328,168,110994,2,0,B|288:96,1,82.5
216,136,111358,1,0
136,136,111540,1,0
104,208,111722,1,0
24,208,111903,1,0
48,288,112085,2,0,B|136:288,2,82.5,0|0|12
296,328,112994,6,0,B|336:256|288:160,1,165
248,96,113540,1,0
248,96,113722,1,0
176,144,113903,2,0,B|88:144,1,82.5
48,216,114267,1,0
48,216,114449,1,0
112,272,114631,1,0
112,272,114813,1,0
80,352,114994,2,0,B|168:352,2,82.5,0|0|12
240,168,115903,6,0,B|288:240|384:232,1,165
464,224,116449,1,0
464,224,116631,1,0
424,296,116813,1,0
424,296,116994,1,0
360,344,117176,2,0,B|288:304,1,82.5
208,320,117540,2,0,B|128:336,1,82.5
48,304,117903,1,0
48,304,118085,1,0
48,304,118267,1,12
72,56,118631,5,4
72,56,118813,1,0
152,152,118995,1,0
152,152,119177,1,0
264,96,119359,1,0
264,96,119540,1,0
384,96,119722,1,0
384,96,119904,1,0
424,216,120086,5,4
424,216,120268,1,0
344,312,120450,1,0
344,312,120632,1,0
232,256,120814,1,0
232,256,120995,1,0
112,256,121177,1,0
112,256,121359,1,0
72,144,121540,5,4
192,144,121722,1,0
312,144,121904,1,0
312,144,122086,1,0
400,232,122267,5,4
280,232,122449,1,0
160,232,122631,1,0
160,232,122813,1,0
208,344,122995,6,0,B|184:304,1,41.25
304,344,123267,2,0,B|328:304,1,41.25,0|0
256,208,123540,1,4
256,208,123722,1,4
