osu file format v9

[General]
AudioFilename: [].mp3
AudioLeadIn: 0
PreviewTime: 86631
Countdown: 1
SampleSet: Normal
StackLeniency: 0.4
Mode: 0
LetterboxInBreaks: 1

[Editor]
DistanceSpacing: 1
BeatDivisor: 4
GridSize: 8

[Metadata]
Title:Kidudai Ninja
Artist:Myu314
Creator:LaunchedthousandShip
Version:Easy
Source:
Tags:

[Difficulty]
HPDrainRate:1
CircleSize:3
OverallDifficulty:1
ApproachRate:2
SliderMultiplier:0.8
SliderTickRate:2

[Events]
//Background and Video events
0,0,"ninja123.jpg"
//Break Periods
2,63195,73435
//Storyboard Layer 0 (Background)
//Storyboard Layer 1 (Fail)
//Storyboard Layer 2 (Pass)
//Storyboard Layer 3 (Foreground)
//Storyboard Sound Samples
//Background Colour Transformations
3,100,163,162,255

[TimingPoints]
5177,363.636363636364,4,2,0,70,1,0
8177,-100,4,2,0,100,0,0
10813,-100,4,2,0,70,0,0
13995,-100,4,2,0,100,0,0
28449,-100,4,1,0,60,0,0
50267,-100,4,1,0,60,0,0
63358,-200,4,1,0,60,0,0
73177,-100,4,1,0,60,0,0

[Colours]
Combo1 : 157,157,0
Combo2 : 1,65,1
Combo3 : 81,0,81
Combo4 : 98,2,2

[HitObjects]
112,128,5177,1,0
224,240,5904,1,0
360,160,6631,2,0,B|456:160,2,80
320,312,8086,5,0
160,312,8813,1,0
56,192,9540,1,0
56,192,10267,1,0
144,56,10995,5,0
304,56,11722,1,0
392,192,12449,2,0,B|488:192,2,80
280,304,13904,5,0
136,240,14631,1,0
224,104,15358,1,0
224,104,16085,1,0
376,56,16813,5,0
464,192,17540,1,0
352,304,18267,1,0
200,248,18995,1,0
48,304,19722,1,0
32,144,20449,2,0,B|192:144,2,160
168,56,22631,5,0
328,56,23358,1,0
424,184,24085,1,0
336,320,24813,1,0
176,320,25540,1,0
256,192,26267,12,0,27722
24,96,28449,6,0,B|104:96,1,80
160,40,29177,2,0,B|240:40,1,80
272,112,29904,2,0,B|352:112,1,80
392,184,30632,2,0,B|472:184,2,80
376,264,31722,6,0,B|296:264,1,80
280,184,32450,2,0,B|200:184,1,80
192,264,33177,2,0,B|112:264,1,80
104,184,33905,2,0,B|24:184,1,80
32,104,34631,6,0,B|184:56,1,160
264,55,35722,2,0,B|416:103,1,160
256,192,37177,12,0,39358
168,256,40086,6,0,B|256:256,2,80
88,120,41540,2,0,B|168:120,1,80
232,72,42267,2,0,B|312:72,1,80,0|12
360,136,42995,6,0,B|448:136,2,80
256,264,44449,2,0,B|176:264,1,80
112,312,45176,2,0,B|32:312,1,80,0|12
48,232,45904,6,0,B|48:144,2,80
176,136,47358,2,0,B|176:216,1,80
256,216,48085,2,0,B|256:136,2,80,0|12|0
256,192,49540,12,0,50995
344,128,51722,6,0,B|256:128,2,80
424,264,53176,2,0,B|344:264,1,80
280,312,53903,2,0,B|200:312,1,80,0|12
152,248,54631,6,0,B|64:248,2,80
256,120,56085,2,0,B|336:120,1,80
400,72,56812,2,0,B|480:72,1,80,0|12
464,152,57540,6,0,B|464:240,2,80
336,248,58994,2,0,B|336:168,1,80
256,168,59721,2,0,B|256:248,2,80,0|12|0
256,192,61177,12,0,62995
40,144,74995,5,0
168,48,75722,1,0
296,144,76449,1,0
456,144,77177,1,8
456,304,77904,5,0
328,208,78631,1,0
200,304,79358,1,0
40,304,80086,1,8
112,160,80813,5,0
112,160,81540,1,0
272,160,82267,1,0
272,160,82995,1,8
344,304,83722,5,0
344,304,84449,1,0
184,304,85176,1,0
184,304,85904,1,8
344,296,86631,5,4
344,296,87358,1,0
448,168,88086,5,4
448,168,88813,1,0
328,56,89540,5,4
328,56,90267,1,0
184,128,90995,2,0,B|104:128,2,80,4|0|0
240,280,92449,5,4
240,280,93177,1,0
392,224,93904,5,4
392,224,94631,1,0
296,96,95358,5,4
296,96,96086,1,0
160,176,96813,6,0,B|80:176,2,80,4|0|0
32,272,98267,6,0,B|112:272,1,80
168,328,98995,2,0,B|248:328,1,80
280,256,99722,2,0,B|360:256,1,80
400,184,100450,2,0,B|480:184,2,80,0|12|0
384,104,101540,6,0,B|304:104,1,80
288,184,102268,2,0,B|208:184,1,80
200,104,102995,2,0,B|120:104,1,80
112,184,103723,2,0,B|32:184,1,80,12|0
40,264,104449,6,0,B|192:312,1,160
272,313,105540,2,0,B|424:265,1,160
256,192,106813,12,0,109540
488,288,109904,6,0,B|408:288,1,80
352,344,110632,2,0,B|272:344,1,80
240,272,111359,2,0,B|160:272,1,80
120,200,112087,2,0,B|40:200,2,80,0|12|0
136,120,113177,6,0,B|216:120,1,80
232,200,113905,2,0,B|312:200,1,80
320,120,114632,2,0,B|400:120,1,80
408,200,115360,2,0,B|488:200,1,80,12|0
480,280,116086,6,0,B|328:328,1,160
248,329,117177,2,0,B|96:281,1,160
256,192,118631,12,4,123722
