osu file format v9

[General]
AudioFilename: [].mp3
AudioLeadIn: 0
PreviewTime: 86631
Countdown: 1
SampleSet: Normal
StackLeniency: 0.4
Mode: 0
LetterboxInBreaks: 1

[Editor]
DistanceSpacing: 1
BeatDivisor: 4
GridSize: 8

[Metadata]
Title:Kidudai Ninja
Artist:Myu314
Creator:LaunchedthousandShip
Version:Boring
Source:
Tags:

[Difficulty]
HPDrainRate:2
CircleSize:4
OverallDifficulty:2
ApproachRate:2
SliderMultiplier:1
SliderTickRate:2

[Events]
//Background and Video events
0,0,"ninja123.jpg"
//Break Periods
2,63195,71980
//Storyboard Layer 0 (Background)
//Storyboard Layer 1 (Fail)
//Storyboard Layer 2 (Pass)
//Storyboard Layer 3 (Foreground)
//Storyboard Sound Samples
//Background Colour Transformations
3,100,163,162,255

[TimingPoints]
5177,363.636363636364,4,2,0,70,1,0
8177,-100,4,2,0,100,0,0
10813,-100,4,2,0,70,0,0
13995,-100,4,2,0,100,0,0
28449,-100,4,1,0,60,0,0

[Colours]
Combo1 : 157,157,0
Combo2 : 1,65,1
Combo3 : 81,0,81
Combo4 : 98,2,2

[HitObjects]
112,128,5177,1,2
192,64,5540,1,2
232,160,5904,1,2
312,96,6267,1,2
360,184,6631,2,2,B|440:120,2,100
328,280,7722,5,2
280,192,8086,2,2,B|224:208|224:272,1,100
128,240,8813,2,2,B|112:184|48:184,1,100
144,136,9540,2,2,B|200:120|200:56,1,100
104,48,10267,1,2
288,136,10995,5,2
376,192,11358,1,2
280,224,11722,1,2
200,288,12085,1,2
152,200,12449,2,2,B|72:264,2,100
184,104,13540,5,2
232,192,13904,2,2,B|288:176|288:112,1,100
384,144,14631,2,2,B|400:200|464:200,1,100
368,248,15358,2,2,B|312:264|312:328,1,100
408,336,16085,1,2
408,336,16449,1,2
472,256,16813,6,2,B|472:152,2,100
376,240,17904,2,2,B|304:168,1,100
208,168,18631,1,2
208,168,18995,1,2
280,104,19358,2,2,B|232:64|232:64|144:64,1,150
88,144,20267,6,2,B|88:256,2,100
168,208,21358,1,2
168,208,21722,2,2,B|216:272|312:240,1,150
400,224,22631,6,2,B|400:328,2,100
384,128,23722,2,2,B|280:128,1,100
208,64,24449,1,2
208,64,24813,1,2
120,120,25177,2,2,B|80:160|96:216,2,100
192,184,26267,1,2
296,184,26631,1,2
256,192,26995,12,0,28449
280,112,28813,6,0,B|384:112,2,100
200,176,29904,2,0,B|96:176,1,100
152,264,30631,2,0,B|256:264,1,100
368,168,31540,5,0
352,72,31904,2,0,B|200:72,1,150
128,144,32813,2,0,B|216:200,1,100
144,272,33540,2,0,B|232:328,2,100
104,176,34631,6,0,B|56:88,2,100
184,120,35722,2,0,B|288:120,1,100
328,208,36449,2,0,B|432:208,1,100
256,192,37177,12,0,39722
144,128,40086,5,0
200,208,40450,1,0
280,152,40813,2,0,B|328:152,1,50
416,104,41358,2,0,B|448:152|408:208,1,100
312,312,42267,2,0,B|280:264|320:208,1,100,0|12
216,256,42995,5,0
216,256,43359,1,0
216,256,43722,2,0,B|168:256,1,50
200,160,44267,2,0,B|248:128|304:168,1,100
408,264,45176,2,0,B|360:296|304:256,1,100,0|12
328,160,45904,5,0
424,136,46268,1,0
344,80,46631,2,0,B|344:32,1,50
248,48,47177,2,0,B|200:16|144:56,1,100
40,152,48086,2,0,B|88:184|144:144,1,100,0|12
232,152,48813,5,0
232,152,49177,1,0
232,152,49540,2,0,B|232:200,1,50
256,192,50086,12,0,51358
368,256,51722,5,0
312,176,52086,1,0
232,232,52449,2,0,B|184:232,1,50
96,280,52994,2,0,B|64:232|104:176,1,100
200,72,53903,2,0,B|232:120|192:176,1,100,0|12
296,128,54631,5,0
296,128,54995,1,0
296,128,55358,2,0,B|344:128,1,50
312,224,55903,2,0,B|264:256|208:216,1,100
104,120,56812,2,0,B|152:88|208:128,1,100,0|12
184,224,57540,5,0
88,248,57904,1,0
168,304,58267,2,0,B|168:352,1,50
264,336,58813,2,0,B|312:368|368:328,1,100
472,232,59722,2,0,B|424:200|368:240,1,100,0|12
280,232,60449,5,0
280,232,60813,1,0
280,232,61176,2,0,B|280:184,1,50
256,192,61904,12,0,62995
256,192,73540,12,0,74631
168,296,74995,6,0,B|272:296,1,100
360,256,75722,2,0,B|464:256,1,100
424,160,76449,2,0,B|320:160,1,100
224,160,77177,1,8
224,160,77540,1,8
136,112,77904,6,0,B|136:216,1,100
40,176,78631,2,0,B|40:72,1,100
128,32,79358,2,0,B|232:32,1,100
328,32,80086,1,8
328,32,80449,1,8
392,104,80813,6,0,B|448:192,1,100
368,248,81540,2,0,B|280:312,1,100
264,208,82267,2,0,B|176:152,1,100
79,154,82995,1,8
79,154,83358,1,8
120,248,83722,6,0,B|224:248,1,100
288,176,84449,2,0,B|184:176,1,100
136,88,85177,1,8
232,88,85540,1,8
336,88,85904,1,8
472,232,86631,5,4
472,232,86995,1,0
392,288,87358,1,4
392,288,87722,1,0
296,312,88086,5,4
296,312,88450,1,0
200,312,88813,1,4
200,312,89177,1,0
104,288,89540,5,4
104,288,89904,1,0
24,224,90267,1,4
24,224,90631,1,0
80,136,90995,6,0,B|184:136,1,100,4|0
272,168,91722,2,0,B|376:168,1,100,4|0
472,152,92449,5,4
472,152,92813,1,0
392,96,93176,1,4
392,96,93540,1,0
296,72,93904,5,4
296,72,94268,1,0
200,72,94631,1,4
200,72,94995,1,0
104,96,95358,5,4
104,96,95722,1,0
24,160,96085,1,4
24,160,96449,1,0
72,248,96813,6,0,B|176:248,1,100,4|0
264,288,97540,2,0,B|368:288,1,100,4|0
248,128,98631,6,0,B|144:128,2,100
312,208,99722,2,0,B|416:208,1,100
432,112,100449,2,0,B|328:112,1,100,0|12
216,208,101358,5,0
168,296,101722,2,0,B|320:296,1,150
408,256,102631,2,0,B|320:200,1,100
368,112,103358,2,0,B|280:56,2,100,0|12|0
408,208,104449,6,0,B|456:296,2,100
328,264,105540,2,0,B|224:264,2,100
256,192,106631,12,0,109904
280,112,110267,6,0,B|384:112,2,100
200,176,111358,2,0,B|96:176,1,100
152,264,112085,2,0,B|256:264,1,100,0|12
368,168,112994,5,0
352,72,113358,2,0,B|200:72,1,150
128,144,114267,2,0,B|216:200,1,100
144,272,114994,2,0,B|232:328,2,100,0|12|0
104,176,116085,6,0,B|56:88,2,100
184,120,117176,2,0,B|288:120,1,100
328,208,117903,2,0,B|432:208,1,100,0|12
256,192,118631,12,0,119904
256,192,120086,12,0,121359
256,192,121540,12,0,122995
256,192,123358,5,4
256,192,123722,1,4
