osu file format v12

[General]
AudioFilename: muu.mp3
AudioLeadIn: 2000
PreviewTime: 54625
Countdown: 0
SampleSet: Soft
StackLeniency: 0.7
Mode: 0
LetterboxInBreaks: 0

[Editor]
Bookmarks: 8136,51197,53682
DistanceSpacing: 1.3
BeatDivisor: 4
GridSize: 4

[Metadata]
Title:Panorama chime (Short Ver.)
TitleUnicode:Panorama chime (Short Ver.)
Artist:Myu
ArtistUnicode:μ
Creator:Senbonzakura
Version:Sakura
Source:Shukufuku no Kane no Oto wa, Sakura-iro no Kaze to Tomo ni
Tags:Studio Ryokucha -RIKKA- Azmato 0gre opening eroge 祝福の鐘の音は、桜色の風と共に
BeatmapID:223356
BeatmapSetID:80200

[Difficulty]
HPDrainRate:7
CircleSize:4
OverallDifficulty:7
ApproachRate:9
SliderMultiplier:1.8
SliderTickRate:2

[Events]
//Background and Video events
0,0,"BG.jpg",0,0
//Break Periods
2,16575,19740
//Storyboard Layer 0 (Background)
//Storyboard Layer 1 (Fail)
//Storyboard Layer 2 (Pass)
//Storyboard Layer 3 (Foreground)
//Storyboard Sound Samples
//Background Colour Transformations
3,100,163,162,255

[TimingPoints]
375,500,4,2,0,35,1,0
375,-117.647058823529,4,2,1,15,0,0
4875,-117.647058823529,4,2,1,20,0,0
5125,-117.647058823529,4,2,1,20,0,0
5375,-117.647058823529,4,2,1,25,0,0
5625,-117.647058823529,4,2,1,30,0,0
5875,-117.647058823529,4,2,1,35,0,0
20340,342.857142857143,4,2,0,35,1,0
21197,-100,4,1,2,45,0,0
26854,-100,4,3,2,50,0,0
27197,-100,4,1,2,45,0,0
33025,-100,4,1,2,40,0,0
35082,-100,4,1,2,50,0,0
35254,-100,4,2,2,20,0,0
35425,-100,4,1,2,55,0,0
38511,-100,4,1,2,40,0,0
42282,-100,4,1,2,20,0,0
42454,-100,4,1,2,50,0,0
43311,-133.333333333333,4,3,2,50,0,0
44340,-133.333333333333,4,2,1,40,0,0
44682,-133.333333333333,4,2,1,50,0,0
48454,-133.333333333333,4,2,1,55,0,0
48711,-100,4,3,2,45,0,0
49140,-100,4,3,2,40,0,0
49482,-100,4,1,2,40,0,0
50340,-100,4,2,1,40,0,0
51025,-100,4,1,2,45,0,0
51368,-100,4,2,1,45,0,0
51540,-100,4,1,2,55,0,0
51711,-100,4,1,1,45,0,0
51882,-100,4,1,2,45,0,0
54111,-100,4,3,2,65,0,0
54625,-100,4,1,2,45,0,1
54968,-100,4,1,2,55,0,1
55311,-100,4,1,2,60,0,1
56340,-100,4,1,2,55,0,1
60797,-100,4,1,2,65,0,1
61054,-100,4,1,2,55,0,1
61997,-100,4,1,2,65,0,1
62854,-100,4,1,2,55,0,1
64482,-100,4,3,2,55,0,1
64911,-100,4,1,2,55,0,1
65082,-100,4,3,2,55,0,1
65254,-142.857142857143,4,2,2,34,0,1
65597,-100,4,1,2,55,0,1
70054,-100,4,2,2,60,0,1
70225,-100,4,1,2,60,0,1
70568,-100,4,3,2,50,0,1
71082,-100,4,1,2,50,0,1
73139,-100,4,2,2,50,0,1
73225,-100,4,3,2,50,0,1
73654,-100,4,1,2,65,0,1
76054,-100,4,3,1,50,0,1
76568,-100,4,1,2,45,0,0
81711,-100,4,3,2,50,0,0
82397,-100,4,1,2,45,0,0
87540,-100,4,3,1,50,0,0

[Colours]
Combo1 : 128,255,128
Combo2 : 255,128,255
Combo3 : 128,255,255
Combo4 : 255,255,128

[HitObjects]
148,64,375,1,0,0:0:0:0:
56,188,875,1,2,0:0:0:0:
64,288,1125,1,0,0:0:0:0:
64,288,1375,2,0,B|128:352|224:320,1,153.000002918243,2|0,0:0|0:0,0:0:0:0:
320,320,2125,2,0,B|288:224|192:192,1,153.000002918243,2|0,0:0|0:0,0:0:0:0:
204,108,2875,2,0,B|268:64|352:80,2,153.000002918243,2|0|0,0:0|0:0|0:0,0:0:0:0:
64,96,4375,1,2,0:0:0:0:
256,152,4875,6,0,L|352:184,1,76.5000014591217,2|0,0:0|0:0,0:0:0:0:
420,216,5375,1,0,0:0:0:0:
340,272,5625,2,0,B|272:328,1,76.5000014591217,2|0,0:0|0:0,0:0:0:0:
180,308,6125,2,0,B|112:296|112:296|144:216,1,153.000002918243,2|0,0:0|0:0,0:0:0:0:
276,144,6875,2,0,B|140:116|140:116|72:56,1,229.500004377365,2|0,0:0|0:0,0:0:0:0:
68,172,7875,1,2,0:0:0:0:
100,284,8125,6,0,L|236:208,1,153.000002918243,2|0,0:0|0:0,0:0:0:0:
332,152,8875,1,2,0:0:0:0:
144,96,9375,2,0,B|100:48|24:80,2,114.750002188683,2|2|2,0:0|0:0|0:0,0:0:0:0:
44,236,10375,2,0,B|30:229|122:281|192:252,1,153.000002918243,2|0,0:0|0:0,0:0:0:0:
324,116,11125,5,0,0:0:0:0:
336,96,11250,1,0,0:0:0:0:
348,76,11375,2,0,P|420:76|448:116,2,114.750002188683,2|2|2,0:0|0:0|0:0,0:0:0:0:
420,240,12375,2,0,P|376:332|264:308,1,229.500004377365,2|2,0:0|0:0,0:0:0:0:
256,192,13375,12,2,16375,0:0:0:0:
128,96,20340,5,4,0:0:0:0:
380,96,20682,1,6,0:0:0:0:
256,300,21025,1,4,0:0:0:0:
400,192,21197,5,0,0:0:0:0:
355,192,21282,1,0,0:0:0:0:
310,192,21368,1,0,0:0:0:0:
265,192,21454,1,0,0:0:0:0:
220,192,21540,1,8,0:3:0:0:
175,192,21625,1,8,0:3:0:0:
128,192,21711,6,0,P|100:232|64:256,2,90,0|0|8,0:0|0:0|0:3,0:0:0:0:
36,116,22225,1,0,0:0:0:0:
136,52,22397,1,0,0:0:0:0:
252,64,22568,1,0,0:0:0:0:
252,64,22740,1,0,0:0:0:0:
252,64,22911,6,0,B|324:60|372:136|372:184,1,180,4|0,0:0|0:0,0:0:0:0:
192,308,23425,1,8,0:3:0:0:
372,180,23597,1,0,0:0:0:0:
64,192,23768,2,0,L|180:192,1,90,8|0,0:3|0:0,0:0:0:0:
428,192,24111,2,0,L|312:192,1,90,8|0,0:3|0:0,0:0:0:0:
296,84,24454,6,0,P|220:44|180:48,2,90,0|0|12,0:0|0:0|0:3,0:0:0:0:
468,28,24968,1,0,0:0:0:0:
352,168,25140,1,0,0:0:0:0:
172,144,25311,1,0,0:0:0:0:
124,316,25482,1,12,0:3:0:0:
312,272,25654,6,0,P|404:240|420:164,1,180
388,56,26168,2,0,B|312:48|276:112,1,90,8|0,0:3|0:0,0:0:0:0:
192,116,26511,2,0,P|128:128|76:104,1,90,0|0,0:0|0:0,0:0:0:0:
48,224,26854,1,8,0:3:0:0:
52,248,26940,1,0,0:0:0:0:
56,272,27025,1,0,0:0:0:0:
60,296,27111,1,0,0:0:0:0:
64,320,27197,6,0,B|128:352|176:288|176:288,1,90,4|0,0:0|0:0,0:0:0:0:
260,264,27540,2,0,L|364:216,1,90,8|0,0:3|0:0,0:0:0:0:
280,60,27882,2,0,L|368:116,2,90,0|0|8,0:0|0:0|0:3,0:0:0:0:
160,60,28397,6,0,P|68:72|32:168,1,180,4|0,0:0|0:0,0:0:0:0:
120,216,28911,1,8,0:3:0:0:
120,216,29082,1,0,0:0:0:0:
224,176,29254,2,0,L|256:64,2,90,0|0|8,0:0|0:0|0:3,0:0:0:0:
224,176,29768,1,0,0:0:0:0:
432,144,29940,5,2,0:0:0:0:
368,240,30111,1,2,0:0:0:0:
256,288,30282,1,2,0:0:0:0:
144,240,30454,1,2,0:0:0:0:
256,48,30797,5,2,0:0:0:0:
256,80,31140,1,2,0:0:0:0:
256,112,31482,1,2,0:0:0:0:
256,148,31825,1,2,0:0:0:0:
164,248,31997,6,0,L|100:168,1,90,6|0,0:0|0:0,0:0:0:0:
328,252,32340,2,0,L|392:172,1,90,6|0,0:0|0:0,0:0:0:0:
80,144,32682,6,0,L|80:256,1,90,4|0,0:0|0:0,0:0:0:0:
192,192,33025,1,8,0:3:0:0:
304,192,33197,1,0,0:0:0:0:
416,224,33368,2,0,L|416:112,1,90,0|0,0:0|0:0,0:0:0:0:
320,68,33711,5,8,0:3:0:0:
204,92,33882,2,0,P|148:112|140:172,1,90
116,252,34225,1,0,0:0:0:0:
212,320,34397,2,0,B|404:320,2,180,8|0|12,0:3|0:0|0:3,0:0:0:0:
296,236,35254,1,0,0:0:0:0:
288,112,35425,6,0,L|384:192,1,90
240,192,35768,2,0,L|160:112,1,90,8|0,0:3|0:0,0:0:0:0:
160,112,36025,1,0,0:0:0:0:
144,96,36111,1,0,0:0:0:0:
92,200,36282,5,0,0:0:0:0:
184,300,36453,1,8,0:3:0:0:
320,316,36625,1,2,0:0:0:0:
464,88,36968,5,2,0:0:0:0:
320,40,37139,1,8,0:3:0:0:
168,44,37311,1,2,0:0:0:0:
68,256,37654,5,2,0:0:0:0:
184,256,37825,2,0,P|240:320|344:324,1,180,14|4,0:3|0:0,0:0:0:0:
128,144,38511,5,8,0:3:0:0:
208,56,38682,1,0,0:0:0:0:
324,72,38854,1,0,0:0:0:0:
436,108,39025,1,0,0:0:0:0:
384,208,39197,5,8,0:3:0:0:
384,208,39368,2,0,P|304:288|224:304,1,180
128,304,39882,2,0,P|64:272|64:256,1,90,8|0,0:3|0:0,0:0:0:0:
112,160,40225,1,0,0:0:0:0:
332,76,40568,1,12,0:3:0:0:
432,160,40739,1,0,0:0:0:0:
432,160,40911,6,0,L|352:240,1,90,4|0,0:0|0:0,0:0:0:0:
256,208,41254,2,0,L|256:112,1,90,8|0,0:3|0:0,0:0:0:0:
256,32,41597,1,0,0:0:0:0:
176,80,41768,1,0,0:0:0:0:
336,80,41939,5,8,0:3:0:0:
336,80,42111,2,0,P|360:120|340:160,1,90
256,320,42454,2,2,L|256:200,1,90,4|8,0:0|0:3,0:0:0:0:
448,80,42968,1,10,0:3:0:0:
448,220,43139,1,10,0:3:0:0:
314,207,43311,1,8,0:3:0:0:
271,219,43396,1,0,0:0:0:0:
226,223,43482,1,0,0:0:0:0:
182,218,43567,1,0,0:0:0:0:
140,212,43654,6,0,B|60:196|188:116|44:116|44:116,2,135.000005149842,4|0|4,0:0|0:0|0:0,0:0:0:0:
212,96,44682,1,2,0:0:0:0:
280,92,44854,2,0,P|292:124|344:140,1,67.5000025749208
364,192,45197,1,0,0:0:0:0:
344,256,45368,2,0,B|300:316|216:332,2,135.000005149842,0|2|0,0:0|0:0|0:0,0:0:0:0:
168,256,46397,6,0,P|132:200|124:112,1,135.000005149842,0|0,0:0|0:0,0:0:0:0:
164,56,46911,1,0,0:0:0:0:
244,92,47082,2,0,P|336:80|392:120,1,135.000005149842,4|0,0:0|0:0,0:0:0:0:
424,168,47597,2,0,P|452:220|428:296,1,135.000005149842,4|0,0:0|0:0,0:0:0:0:
344,296,48111,2,0,L|276:272,1,67.5000025749208,0|0,0:0|0:0,0:0:0:0:
200,236,48454,1,0,0:0:0:0:
208,148,48625,5,0,0:0:0:0:
188,120,48711,1,0,0:0:0:0:
160,100,48796,1,0,0:0:0:0:
128,88,48882,1,0,0:0:0:0:
96,100,48968,1,0,0:0:0:0:
68,120,49053,1,4,0:0:0:0:
48,148,49140,1,0,0:0:0:0:
320,64,49482,5,10,0:3:0:0:
428,132,49654,1,2,0:0:0:0:
340,224,49825,1,10,0:3:0:0:
256,320,49997,1,2,0:0:0:0:
256,320,50340,5,4,0:0:0:0:
380,112,50682,1,4,0:0:0:0:
128,112,51025,1,4,0:0:0:0:
136,228,51197,2,0,L|200:148,1,90,0|0,0:0|0:0,0:0:0:0:
376,228,51540,2,0,L|312:148,1,90,12|0,0:3|0:0,0:0:0:0:
256,40,51882,5,2,0:0:0:0:
256,176,52054,1,2,0:0:0:0:
184,288,52225,1,10,0:3:0:0:
320,288,52397,1,2,0:0:0:0:
256,348,52568,5,10,0:3:0:0:
164,192,52739,1,2,0:0:0:0:
344,188,52911,1,10,0:3:0:0:
244,100,53082,6,0,P|272:68|316:52,1,90
444,92,53425,1,0,0:0:0:0:
444,228,53597,2,0,P|460:280|420:324,1,90,8|0,0:3|0:0,0:0:0:0:
180,248,54111,5,0,0:0:0:0:
137,234,54197,1,0,0:0:0:0:
98,212,54282,1,0,0:0:0:0:
68,178,54368,1,0,0:0:0:0:
54,136,54454,1,0,0:0:0:0:
56,91,54539,1,0,0:0:0:0:
70,48,54625,1,4,0:0:0:0:
328,56,54968,6,0,P|380:40|432:56,1,90,8|0,0:3|0:0,0:0:0:0:
392,164,55311,1,0,0:0:0:0:
392,164,55482,1,0,0:0:0:0:
344,272,55654,1,8,0:3:0:0:
224,276,55825,2,0,B|136:268|228:156|128:112,1,180,4|0,0:0|0:0,0:0:0:0:
152,128,56340,1,8,0:3:0:0:
84,244,56511,5,0,0:0:0:0:
64,112,56682,1,0,0:0:0:0:
180,44,56854,1,0,0:0:0:0:
308,84,57025,1,8,0:3:0:0:
404,180,57197,1,0,0:0:0:0:
424,236,57282,1,0,0:0:0:0:
432,293,57368,2,0,P|383:316|347:312,1,90,4|0,0:0|0:0,0:0:0:0:
272,224,57711,6,0,L|252:136,2,90,8|0|0,0:3|0:0|0:0,0:0:0:0:
228,332,58225,2,0,L|136:296,1,90,0|8,0:0|0:3,0:0:0:0:
60,224,58568,2,0,B|32:164|28:88|96:32,1,180,4|0,0:0|0:0,0:0:0:0:
176,76,59082,6,0,P|232:60|268:104,2,90,8|0|0,0:3|0:0|0:0,0:0:0:0:
356,112,59597,1,0,0:0:0:0:
328,244,59768,1,8,0:3:0:0:
292,272,59854,1,0,0:0:0:0:
252,292,59940,1,0,0:0:0:0:
136,276,60111,6,0,L|136:172,1,90,4|0,0:0|0:0,0:0:0:0:
140,68,60454,1,8,0:3:0:0:
256,64,60625,1,0,0:0:0:0:
352,128,60797,2,0,L|464:224,2,135,0|0|0,0:0|0:0|0:0,0:0:0:0:
248,184,61482,2,0,P|196:216|140:224,1,90
60,172,61825,1,12,0:3:0:0:
108,84,61997,6,0,P|196:40|256:64,1,135
260,80,62340,1,0,0:0:0:0:
152,204,62511,1,8,0:3:0:0:
152,204,62597,1,0,0:0:0:0:
152,204,62683,1,0,0:0:0:0:
244,144,62854,5,4,0:0:0:0:
244,144,63025,1,4,0:0:0:0:
152,44,63197,1,8,0:3:0:0:
52,136,63368,1,4,0:0:0:0:
52,272,63540,1,0,0:0:0:0:
164,344,63711,1,0,0:0:0:0:
288,292,63882,2,0,P|392:288|456:232,1,180,12|0,0:3|0:0,0:0:0:0:
372,132,64397,5,0,0:0:0:0:
316,148,64482,1,0,0:0:0:0:
260,168,64568,1,8,0:3:0:0:
204,188,64654,1,0,0:0:0:0:
148,204,64740,1,0,0:0:0:0:
88,304,64911,1,0,0:0:0:0:
224,268,65082,1,0,0:0:0:0:
304,292,65254,2,0,B|352:284|364:240,2,62.9999980773926,8|0|4,0:3|0:0|0:0,0:0:0:0:
96,188,65939,6,0,L|96:88,1,90,8|0,0:3|0:0,0:0:0:0:
220,48,66282,1,0,0:0:0:0:
252,180,66454,1,0,0:0:0:0:
348,84,66625,1,8,0:3:0:0:
392,212,66797,2,0,P|388:312|296:340,1,180,4|0,0:0|0:0,0:0:0:0:
220,292,67311,1,8,0:3:0:0:
112,252,67482,5,0,0:0:0:0:
140,136,67654,2,0,P|168:92|204:80,1,90
316,48,67997,1,8,0:3:0:0:
332,164,68168,1,0,0:0:0:0:
384,60,68339,1,4,0:0:0:0:
444,284,68682,5,8,0:3:0:0:
328,260,68854,1,0,0:0:0:0:
216,292,69025,2,0,P|121:335|71:273,1,180,0|8,0:0|0:3,0:0:0:0:
56,156,69540,2,0,P|140:84|232:76,1,180,4|0,0:0|0:0,0:0:0:0:
340,92,70054,2,0,P|400:152|396:192,2,90,8|0|0,0:3|0:0|0:0,0:0:0:0:
256,308,70568,5,0,0:0:0:0:
256,268,70654,1,0,0:0:0:0:
256,228,70739,1,0,0:0:0:0:
256,188,70825,1,0,0:0:0:0:
256,148,70911,1,0,0:0:0:0:
256,112,70997,1,0,0:0:0:0:
256,72,71082,2,0,B|220:24|124:24|88:108,1,180,4|8,0:0|0:3,0:0:0:0:
48,188,71597,1,0,0:0:0:0:
48,304,71768,6,0,P|108:336|164:296,2,135
148,212,72454,1,0,0:0:0:0:
304,300,72625,1,0,0:0:0:0:
440,184,72797,1,8,0:3:0:0:
332,92,72968,5,0,0:0:0:0:
332,92,73139,2,0,P|236:64|168:108,1,180,0|8,0:0|0:3,0:0:0:0:
108,200,73654,1,0,0:0:0:0:
200,272,73825,2,0,B|292:288|280:184|384:232,1,180,4|8,0:0|0:3,0:0:0:0:
460,152,74340,2,0,L|436:48,2,90
256,196,74854,1,8,0:3:0:0:
256,196,75025,1,0,0:0:0:0:
276,40,75368,5,0,0:0:0:0:
240,48,75454,1,0,0:0:0:0:
204,56,75539,1,8,0:3:0:0:
144,156,75711,5,0,0:0:0:0:
176,148,75797,1,0,0:0:0:0:
212,140,75882,1,0,0:0:0:0:
200,236,76054,5,8,0:0:0:0:
236,228,76139,1,8,0:0:0:0:
272,220,76225,1,8,0:0:0:0:
308,212,76311,1,8,0:0:0:0:
344,204,76397,1,8,0:0:0:0:
380,196,76482,1,8,0:0:0:0:
408,188,76568,2,0,B|456:268|400:336|316:320,1,180,4|8,0:0|0:3,0:0:0:0:
236,324,77082,5,0,0:0:0:0:
260,192,77254,1,0,0:0:0:0:
140,252,77425,1,0,0:0:0:0:
164,120,77597,1,8,0:3:0:0:
296,100,77768,6,0,B|242:17|135:47,1,180,4|0,0:0|0:0,0:0:0:0:
48,120,78282,1,8,0:3:0:0:
72,236,78454,1,0,0:0:0:0:
188,252,78625,2,0,L|300:228,1,90
352,144,78968,2,0,L|244:168,1,90,8|0,0:3|0:0,0:0:0:0:
208,60,79311,6,0,L|124:108,1,90
32,180,79654,1,12,0:3:0:0:
228,304,79997,1,0,0:0:0:0:
176,132,80168,1,0,0:0:0:0:
352,92,80340,1,8,0:3:0:0:
392,268,80511,2,0,L|480:232,1,90
448,120,80854,5,0,0:0:0:0:
372,32,81025,1,8,0:3:0:0:
288,116,81197,1,0,0:0:0:0:
376,192,81368,2,0,L|296:232,1,90
132,164,81711,5,8,0:3:0:0:
136,148,81797,1,0,0:0:0:0:
140,132,81882,1,0,0:0:0:0:
144,116,81968,1,0,0:0:0:0:
148,100,82054,2,0,P|236:76|316:112,1,180,4|8,0:0|0:3,0:0:0:0:
416,168,82568,5,0,0:0:0:0:
368,272,82739,2,0,P|308:332|196:332,1,180,0|8,0:0|0:3,0:0:0:0:
108,292,83254,6,0,L|24:352,2,90
204,216,83768,1,8,0:3:0:0:
152,112,83939,1,0,0:0:0:0:
264,72,84111,1,0,0:0:0:0:
316,176,84282,2,0,P|332:240|292:276,2,90,0|8|0,0:0|0:3|0:0,0:0:0:0:
360,60,84797,5,2,0:0:0:0:
124,88,84968,1,6,0:0:0:0:
152,324,85140,1,6,0:0:0:0:
388,296,85311,1,6,0:0:0:0:
272,92,85654,5,6,0:0:0:0:
64,204,85997,1,6,0:0:0:0:
272,320,86340,1,6,0:0:0:0:
464,188,86682,1,6,0:0:0:0:
388,296,86854,6,2,L|480:246,1,90,6|0,0:0|0:0,0:0:0:0:
388,87,87197,2,0,L|480:137,1,90,14|0,0:3|0:0,0:0:0:0:
368,192,87540,5,8,0:3:0:0:
336,192,87625,1,8,0:3:0:0:
304,192,87711,1,8,0:3:0:0:
272,192,87797,1,8,0:3:0:0:
244,192,87882,1,4,1:0:0:0:
