osu file format v13

[General]
AudioFilename: ghost.mp3
AudioLeadIn: 0
PreviewTime: 46195
Countdown: 0
SampleSet: None
StackLeniency: 0.7
Mode: 0
LetterboxInBreaks: 0
WidescreenStoryboard: 0

[Editor]
DistanceSpacing: 1.2
BeatDivisor: 4
GridSize: 4
TimelineZoom: 1

[Metadata]
Title:Ghost
TitleUnicode:Ghost
Artist:Mystery Skulls
ArtistUnicode:Mystery Skulls
Creator:-Dave Strider-
Version:Hard
Source:
Tags:mysteryben27
BeatmapID:574003
BeatmapSetID:249683

[Difficulty]
HPDrainRate:5
CircleSize:4
OverallDifficulty:6
ApproachRate:7
SliderMultiplier:1.4
SliderTickRate:1

[Events]
//Background and Video events
0,0,"mystery_skulls___ghost____vivi_wallpaper_by_di_cape-d85n7o0.png",0,0
//Break Periods
2,80145,94295
2,160145,173295
//Storyboard Layer 0 (Background)
//Storyboard Layer 1 (Fail)
//Storyboard Layer 2 (Pass)
//Storyboard Layer 3 (Foreground)
//Storyboard Sound Samples

[TimingPoints]
-55,500,4,3,0,100,1,0
47945,-100,4,3,0,100,0,1
62070,-100,4,3,0,100,0,0
63945,-100,4,3,0,100,0,1
77945,-100,4,3,0,100,0,0
127945,-100,4,3,0,100,0,1
141945,-100,4,3,0,100,0,0
143945,-100,4,3,0,100,0,1
159945,-100,4,3,0,100,0,0
174195,-100,4,2,0,100,0,0
191945,-100,4,3,0,100,0,1
205945,500,4,3,0,100,1,1
205945,-100,4,3,0,100,0,0
207945,-100,4,3,0,100,0,1
223945,-100,4,3,0,100,0,0

[Colours]
Combo1 : 128,0,255
Combo2 : 255,128,0
Combo3 : 39,170,233
Combo4 : 255,0,255

[HitObjects]
104,120,15195,6,0,P|100:164|104:192,1,70
164,248,15695,2,0,P|192:276|344:252,1,210
376,172,16695,1,0,0:0:0:0:
308,120,16945,2,0,P|256:144|224:148,1,70
160,148,17445,2,0,P|124:184|156:264,1,140
228,288,18195,1,0,0:0:0:0:
312,300,18445,6,0,P|368:304|392:300,1,70
428,232,18945,1,0,0:0:0:0:
428,232,19195,1,0,0:0:0:0:
428,232,19445,2,0,P|392:188|380:100,1,140,0|0,0:0|0:0,0:0:0:0:
296,100,20195,1,0,0:0:0:0:
232,152,20445,2,0,P|216:188|168:200,1,70
108,220,20945,1,0,0:0:0:0:
140,300,21195,5,0,0:0:0:0:
224,312,21445,2,0,P|304:328|360:316,1,140
400,244,22195,1,0,0:0:0:0:
368,168,22445,2,0,P|324:164|296:164,1,70
252,236,22945,2,0,P|236:280|216:304,2,70,0|0|0,0:0|0:0|0:0,0:0:0:0:
212,160,23695,2,0,P|172:120|276:68,1,210
332,116,24695,5,0,0:0:0:0:
380,180,24945,2,0,P|408:224|408:244,1,70
368,316,25445,2,0,B|320:336|276:320|276:320|224:280,1,140
204,216,26195,1,0,0:0:0:0:
180,136,26445,1,0,0:0:0:0:
160,56,26695,1,0,0:0:0:0:
240,76,26945,2,0,P|276:108|368:148,1,140
392,312,27945,6,0,L|308:304,1,70
264,244,28445,2,0,L|176:224,1,70
152,156,28945,2,0,P|152:112|172:80,1,70
248,76,29445,1,0,0:0:0:0:
316,124,29695,2,0,P|328:160|376:200,1,70
416,236,30195,2,0,P|416:280|388:304,2,70,0|0|0,0:0|0:0|0:0,0:0:0:0:
352,180,30945,2,0,P|288:184|264:184,1,70
204,152,31445,5,0,0:0:0:0:
124,180,31695,2,0,P|76:208|164:280,1,210
236,272,32695,1,0,0:0:0:0:
320,288,32945,2,0,P|360:312|412:312,1,70
436,252,33445,2,0,P|388:200|380:184,1,70
324,148,33945,1,0,0:0:0:0:
244,120,34195,2,0,P|192:104|168:100,2,70,0|0|0,0:0|0:0|0:0,0:0:0:0:
292,188,34945,1,0,0:0:0:0:
272,268,35195,5,0,0:0:0:0:
192,300,35445,2,0,P|152:312|120:304,1,70
100,228,35945,2,0,P|92:156|144:80,1,140
276,164,36945,2,0,P|284:232|304:248,1,70
364,252,37445,1,0,0:0:0:0:
400,176,37695,2,0,P|408:136|408:104,1,70
328,80,38195,1,0,0:0:0:0:
248,60,38445,6,0,L|164:48,1,70
136,124,38945,2,0,P|124:180|128:196,2,70,0|0|0,0:0|0:0|0:0,0:0:0:0:
212,156,39695,2,0,B|264:240|264:240|388:196,1,210
396,124,40695,1,0,0:0:0:0:
328,72,40945,1,0,0:0:0:0:
256,116,41195,2,0,P|212:160|196:168,1,70
140,216,41695,6,0,P|136:276|160:292,1,70
224,288,42195,2,0,P|280:292|300:320,1,70
372,308,42695,2,0,P|420:308|440:284,1,70
436,212,43195,2,0,P|416:176|416:140,2,70,0|0|0,0:0|0:0|0:0,0:0:0:0:
408,292,43945,5,8,0:0:0:0:
328,264,44195,5,8,0:0:0:0:
256,220,44445,5,8,0:0:0:0:
184,176,44695,1,8,0:0:0:0:
212,96,44945,6,0,P|240:64|276:52,1,70,8|8,0:0|0:0,0:0:0:0:
312,124,45445,2,0,P|328:168|360:184,2,70,8|8|8,0:0|0:0|0:0,0:0:0:0:
392,100,46195,1,0,0:0:0:0:
452,160,46445,1,0,0:0:0:0:
448,244,46695,1,0,0:0:0:0:
380,296,46945,2,0,L|284:308,1,70
232,272,47445,1,0,0:0:0:0:
164,224,47695,1,0,0:0:0:0:
168,140,47945,6,4,L|168:80|168:40,1,70
252,76,48445,2,4,P|296:128|312:136,1,70
360,184,48945,2,0,P|388:268|388:276,1,70
368,332,49445,2,0,P|284:320|232:300,1,140
180,236,50195,1,0,0:0:0:0:
176,152,50445,6,2,P|184:96|196:80,1,70
272,112,50945,1,0,0:0:0:0:
324,176,51195,2,2,P|340:240|352:256,1,70
404,300,51695,1,2,0:0:0:0:
328,340,51945,2,0,P|264:328|232:316,1,70
188,280,52445,5,0,0:0:0:0:
136,216,52695,1,0,0:0:0:0:
152,132,52945,2,0,P|176:104|208:96,1,70
268,152,53445,2,0,P|300:208|372:232,1,140
432,176,54195,5,0,0:0:0:0:
400,100,54445,1,0,0:0:0:0:
328,56,54695,1,0,0:0:0:0:
276,124,54945,2,0,P|248:176|236:196,1,70
160,204,55445,1,0,0:0:0:0:
76,204,55695,1,0,0:0:0:0:
68,244,55820,1,0,0:0:0:0:
64,284,55945,6,0,P|80:316|140:336,1,70
188,312,56445,2,0,P|212:260|236:240,1,70
300,272,56945,2,0,P|328:296|448:284,1,140
460,220,57695,5,0,0:0:0:0:
408,156,57945,1,0,0:0:0:0:
328,184,58195,2,0,P|300:216|248:216,1,70
200,184,58695,1,0,0:0:0:0:
132,132,58945,2,2,P|56:156|76:224,2,140,0|0|0,0:0|0:0|0:0,0:0:0:0:
212,160,60195,5,0,0:0:0:0:
288,196,60445,2,0,L|364:212,1,70
432,248,60945,2,0,P|448:312|372:328,1,140
236,268,61945,6,0,L|176:224,1,70,8|8,0:0|0:0,0:0:0:0:
132,156,62445,1,8,0:0:0:0:
176,84,62695,2,8,P|216:68|240:80,1,70
296,140,63195,1,8,0:0:0:0:
360,192,63445,2,8,L|340:256,3,35,0|0|0|0,0:0|0:0|0:0|0:0,0:0:0:0:
324,260,63945,2,0,P|280:288|176:260,1,140
116,260,64695,5,0,0:0:0:0:
136,180,64945,2,0,P|168:128|184:120,1,70
248,168,65445,6,0,P|260:208|356:248,1,140
416,208,66195,1,0,0:0:0:0:
384,132,66445,2,2,L|312:120|288:116,1,70
232,100,66945,1,0,0:0:0:0:
148,108,67195,1,0,0:0:0:0:
68,136,67445,2,2,P|84:200|144:248,1,140
228,288,68195,6,0,L|300:320,2,70,0|0|0,0:0|0:0|0:0,0:0:0:0:
216,204,68945,2,0,P|216:144|264:72,1,140
332,116,69695,1,0,0:0:0:0:
324,200,69945,2,0,P|324:248|336:276,1,70
408,304,70445,1,0,0:0:0:0:
332,340,70695,1,0,0:0:0:0:
248,336,70945,2,0,P|188:312|176:300,1,70
176,224,71445,2,0,L|176:136,1,70
212,132,71820,5,0,0:0:0:0:
248,112,71945,1,0,0:0:0:0:
332,96,72195,1,8,0:0:0:0:
412,124,72445,1,8,0:0:0:0:
452,200,72695,1,8,0:0:0:0:
424,280,72945,2,0,P|336:256|268:288,1,140
216,296,73695,5,8,0:0:0:0:
132,312,73945,1,8,0:0:0:0:
56,280,74195,1,8,0:0:0:0:
36,200,74445,2,0,P|48:132|108:88,2,140,0|0|0,0:0|0:0|0:0,0:0:0:0:
108,244,75695,5,0,0:0:0:0:
192,256,75945,1,0,0:0:0:0:
276,256,76195,2,0,L|376:256,1,70
428,240,76695,1,0,0:0:0:0:
404,160,76945,2,0,P|340:136|304:64,1,140
220,84,77695,1,0,0:0:0:0:
148,124,77945,6,0,P|120:176|116:192,1,70
192,224,78445,2,0,P|232:264|240:284,1,70
164,320,78945,6,0,P|80:320|76:316,2,70,0|0|0,0:0|0:0|0:0,0:0:0:0:
244,300,79695,1,0,0:0:0:0:
328,280,79945,1,0,0:0:0:0:
368,288,95195,6,0,P|320:268|300:252,1,70
280,176,95695,2,0,P|256:112|188:80,1,140
132,140,96445,1,0,0:0:0:0:
72,200,96695,2,0,P|80:248|84:280,1,70
168,272,97195,1,0,0:0:0:0:
252,264,97445,6,0,P|304:252|336:272,1,70
392,296,97945,1,0,0:0:0:0:
472,268,98195,1,0,0:0:0:0:
444,188,98445,2,0,L|384:144,1,70
304,133,98945,1,0,0:0:0:0:
222,151,99195,2,0,P|186:207|177:226,1,70
240,272,99695,2,0,P|328:325|388:318,1,140
429,273,100445,5,0,0:0:0:0:
421,189,100695,2,0,L|362:150,1,70
278,156,101195,2,0,P|231:169|201:189,1,70
167,250,101695,2,0,P|130:297|108:305,1,70
64,239,102195,5,0,0:0:0:0:
55,155,102445,1,0,0:0:0:0:
102,85,102695,1,0,0:0:0:0:
185,85,102945,2,0,L|261:86,1,70
332,119,103445,1,0,0:0:0:0:
402,164,103695,2,0,P|439:229|422:315,1,140
350,304,104445,6,0,P|273:297|269:289,1,70
247,236,104945,1,0,0:0:0:0:
220,156,105195,1,0,0:0:0:0:
285,102,105445,2,0,P|330:126|421:123,1,140
470,190,106195,1,0,0:0:0:0:
460,273,106445,1,0,0:0:0:0:
388,317,106695,1,0,0:0:0:0:
304,323,106945,6,0,P|214:316|145:300,1,140
142,224,107695,2,0,L|125:146,1,70
203,120,108195,2,0,L|272:93,1,70
339,140,108695,1,0,0:0:0:0:
384,210,108945,2,0,P|394:265|406:290,2,70,0|0|0,0:0|0:0|0:0,0:0:0:0:
406,128,109695,2,0,P|404:85|388:51,2,70,0|0|0,0:0|0:0|0:0,0:0:0:0:
334,172,110445,1,0,0:0:0:0:
258,209,110695,1,0,0:0:0:0:
174,215,110945,2,0,L|95:256,2,70,0|0|0,0:0|0:0|0:0,0:0:0:0:
242,264,111695,6,0,P|296:312|363:315,1,140
421,257,112445,2,0,P|421:200|428:174,1,70
372,120,112945,1,0,0:0:0:0:
292,148,113195,2,0,P|263:200|243:223,1,70
187,255,113695,2,0,P|120:259|101:182,1,140
144,132,114445,1,0,0:0:0:0:
206,76,114695,1,0,0:0:0:0:
277,120,114945,2,0,L|344:161,1,70
399,211,115445,5,0,0:0:0:0:
375,291,115695,2,0,P|317:338|239:313,1,140
208,258,116445,2,0,P|162:207|161:191,1,70
201,134,116945,1,0,0:0:0:0:
270,86,117195,1,0,0:0:0:0:
342,128,117445,6,0,L|406:176,1,70
447,237,117945,1,0,0:0:0:0:
404,309,118195,1,0,0:0:0:0:
320,304,118445,2,0,P|272:269|272:254,2,70,0|0|0,0:0|0:0|0:0,0:0:0:0:
377,242,119195,1,0,0:0:0:0:
364,160,119445,2,0,P|306:117|328:48,1,140
396,88,120195,1,0,0:0:0:0:
464,136,120445,2,0,P|480:192|472:216,1,70
416,256,120945,5,0,0:0:0:0:
332,276,121195,1,0,0:0:0:0:
252,256,121445,2,0,P|208:208|208:196,1,70
276,156,121945,2,0,P|312:144|340:128,1,70
408,180,122445,1,0,0:0:0:0:
444,256,122695,1,0,0:0:0:0:
376,304,122945,2,0,L|296:312,1,70
224,292,123445,2,0,P|180:260|184:164,1,140
236,120,124195,6,8,P|272:88|300:84,1,70
360,136,124695,2,8,P|368:196|388:208,1,70
436,252,125195,2,8,P|448:312|436:320,1,70
364,320,125695,1,8,0:0:0:0:
324,320,125820,1,8,0:0:0:0:
280,316,125945,1,8,0:0:0:0:
212,268,126195,2,0,P|180:212|180:192,1,70
248,160,126695,5,0,0:0:0:0:
328,136,126945,5,0,0:0:0:0:
408,156,127195,5,0,0:0:0:0:
432,236,127445,1,8,0:0:0:0:
440,276,127570,1,8,0:0:0:0:
444,316,127695,2,8,P|396:328|372:328,1,70
296,296,128195,1,0,0:0:0:0:
228,248,128445,2,0,P|220:212|180:168,1,70
128,148,128945,1,0,0:0:0:0:
188,88,129195,1,0,0:0:0:0:
272,72,129445,2,0,P|340:88|404:60,1,140
460,124,130195,5,0,0:0:0:0:
464,208,130445,2,2,L|452:268|448:288,1,70
376,312,130945,1,0,0:0:0:0:
316,252,131195,1,0,0:0:0:0:
244,208,131445,2,2,P|180:248|176:248,1,70
136,180,131945,5,0,0:0:0:0:
124,96,132195,2,0,P|172:60|208:64,1,70
248,108,132695,2,0,P|288:160|300:164,2,70,0|0|0,0:0|0:0|0:0,0:0:0:0:
328,88,133445,2,0,P|392:80|456:152,1,140
444,208,134195,1,0,0:0:0:0:
408,284,134445,1,0,0:0:0:0:
324,288,134695,5,0,0:0:0:0:
240,288,134945,2,0,L|168:288,1,70
112,228,135445,2,0,P|92:192|104:156,1,70
132,144,135820,1,0,0:0:0:0:
176,140,135945,2,8,P|228:160|264:152,1,70
324,160,136445,2,8,P|380:168|388:180,1,70,0|0,0:0|0:0,0:0:0:0:
440,240,136945,2,0,P|448:296|376:336,1,140
308,300,137695,5,8,0:0:0:0:
232,264,137945,1,8,0:0:0:0:
168,212,138195,1,8,0:0:0:0:
156,128,138445,2,0,P|180:92|280:88,1,140,0|2,0:0|0:0,0:0:0:0:
320,148,139195,2,2,P|312:200|336:224,2,70,2|0|2,0:0|0:0|0:0,0:0:0:0:
392,104,139945,1,8,0:0:0:0:
452,164,140195,5,8,0:0:0:0:
480,240,140445,1,8,0:0:0:0:
432,308,140695,2,0,P|392:336|356:344,1,70
288,324,141195,2,0,P|248:280|244:248,1,70
276,192,141695,1,8,0:0:0:0:
308,116,141945,1,8,0:0:0:0:
240,64,142195,1,0,0:0:0:0:
164,104,142445,6,8,P|160:144|136:172,1,70
144,252,142945,1,8,0:0:0:0:
216,296,143195,1,8,0:0:0:0:
296,316,143445,1,8,0:0:0:0:
336,324,143570,1,8,0:0:0:0:
380,320,143695,1,8,0:0:0:0:
456,284,143945,2,0,P|472:216|456:148,1,140
392,96,144695,2,0,L|324:64,1,70
268,124,145195,2,0,P|248:184|232:200,1,70
160,196,145695,6,0,P|136:244|216:304,1,140
268,304,146445,2,0,L|352:296,1,70,2|0,0:0|0:0,0:0:0:0:
416,272,146945,1,0,0:0:0:0:
412,188,147195,2,0,P|368:140|360:120,1,70,2|0,0:0|0:0,0:0:0:0:
296,88,147695,2,0,P|240:76|196:80,1,70
180,144,148195,1,0,0:0:0:0:
168,228,148445,2,0,P|184:272|216:280,2,70,0|0|0,0:0|0:0|0:0,0:0:0:0:
248,200,149195,5,0,0:0:0:0:
332,196,149445,2,0,P|396:248|368:292,1,140
296,308,150195,2,8,L|228:328,1,70
164,272,150695,2,8,P|120:216|112:200,2,70,0|0|0,0:0|0:0|0:0,0:0:0:0:
248,260,151445,1,8,0:0:0:0:
332,252,151695,1,8,0:0:0:0:
372,248,151820,1,8,0:0:0:0:
412,228,151945,2,8,P|448:192|448:176,1,70
384,120,152445,2,0,P|344:132|296:128,1,70,0|0,0:0|0:0,0:0:0:0:
240,172,152945,6,0,P|244:232|204:308,1,140
144,252,153695,1,0,0:0:0:0:
108,176,153945,1,0,0:0:0:0:
100,92,154195,1,0,0:0:0:0:
184,96,154445,2,0,P|244:120|344:120,1,140,0|2,0:0|0:0,0:0:0:0:
448,232,155445,1,2,0:0:0:0:
396,300,155695,2,0,P|344:308|296:300,1,70
268,248,156195,6,0,P|256:192|256:168,2,70,0|0|0,0:0|0:0|0:0,0:0:0:0:
232,324,156945,2,0,P|168:312|180:224,1,140
224,192,157695,2,0,P|264:164|284:156,1,70
364,180,158195,1,8,0:0:0:0:
408,252,158445,5,8,0:0:0:0:
340,304,158695,1,8,0:0:0:0:
256,292,158945,1,8,0:0:0:0:
184,248,159195,2,8,P|164:192|164:168,1,70
232,136,159695,2,0,L|312:120,1,70
92,204,174195,5,0,0:0:0:0:
176,204,174445,1,0,0:0:0:0:
260,200,174695,1,0,0:0:0:0:
344,216,174945,2,0,P|372:256|404:272,1,70
444,204,175445,2,0,P|456:148|444:124,1,70
380,92,175945,2,0,P|296:116|220:104,1,140
160,124,176695,5,0,0:0:0:0:
100,180,176945,2,0,P|76:240|88:256,1,70
156,260,177445,2,0,P|184:288|228:292,1,70
296,272,177945,2,0,P|348:252|376:264,2,70,0|0|0,0:0|0:0|0:0,0:0:0:0:
212,288,178695,1,0,0:0:0:0:
196,204,178945,2,0,P|196:156|240:72,1,140
308,120,179695,5,0,0:0:0:0:
356,188,179945,2,0,P|384:256|392:260,1,70
420,324,180445,2,0,P|372:348|336:336,1,70
280,320,180945,2,0,P|224:256|216:200,1,140
284,152,181695,1,0,0:0:0:0:
368,156,181945,2,0,L|468:172,1,70
468,244,182445,6,0,L|444:320,1,70
364,324,182945,2,0,L|292:328,2,70,0|0|0,0:0|0:0|0:0,0:0:0:0:
436,280,183695,1,0,0:0:0:0:
448,196,183945,2,0,P|448:160|420:108,1,70
356,156,184445,2,0,P|332:212|304:216,1,70,0|0,0:0|0:0,0:0:0:0:
264,160,184945,2,0,P|228:180|120:152,1,140
88,92,185695,6,0,P|120:48|144:48,1,70
212,68,186195,1,0,0:0:0:0:
224,152,186445,2,0,P|232:208|316:256,2,140,0|0|0,0:0|0:0|0:0,0:0:0:0:
308,156,187695,2,0,P|368:188|388:192,1,70
432,244,188195,5,8,0:0:0:0:
412,324,188445,1,8,0:0:0:0:
328,316,188695,1,8,0:0:0:0:
260,264,188945,2,8,L|196:220,1,70
224,144,189445,2,8,P|272:112|288:104,1,70
352,152,189945,5,8,0:0:0:0:
424,196,190195,1,8,0:0:0:0:
448,276,190445,1,8,0:0:0:0:
364,292,190695,2,8,L|292:304,1,70
228,252,191195,2,8,P|180:212|168:184,1,70
188,124,191695,1,8,0:0:0:0:
260,80,191945,6,0,P|328:64|400:108,1,140
412,176,192695,1,0,0:0:0:0:
408,260,192945,2,0,P|372:320|296:328,2,140,0|0|0,0:0|0:0|0:0,0:0:0:0:
360,192,194195,5,0,0:0:0:0:
292,140,194445,2,2,P|204:168|152:168,1,140
180,248,195195,1,0,0:0:0:0:
228,316,195445,2,2,P|312:308|384:296,1,140
420,232,196195,1,0,0:0:0:0:
384,156,196445,2,0,P|336:128|320:96,1,70
244,116,196945,6,0,P|212:160|112:192,1,140
164,272,197695,1,0,0:0:0:0:
248,288,197945,2,0,L|344:288,1,70
368,220,198445,2,8,P|400:172|432:168,1,70
356,104,198945,2,8,P|296:132|276:128,1,70
212,136,199445,1,8,0:0:0:0:
128,140,199695,1,8,0:0:0:0:
128,180,199820,1,0,0:0:0:0:
128,220,199945,6,0,P|136:272|152:300,2,70,0|0|0,0:0|0:0|0:0,0:0:0:0:
224,196,200695,1,0,0:0:0:0:
308,192,200945,2,0,P|328:236|424:284,1,140
460,220,201695,1,0,0:0:0:0:
444,136,201945,1,0,0:0:0:0:
384,76,202195,1,0,0:0:0:0:
308,108,202445,2,0,P|280:168|192:184,1,140
164,120,203195,5,2,0:0:0:0:
92,164,203445,1,2,0:0:0:0:
72,244,203695,1,2,0:0:0:0:
152,272,203945,2,0,L|236:284,1,70
304,264,204445,2,0,L|396:248,1,70,0|0,0:0|0:0,0:0:0:0:
452,224,204945,2,0,P|428:164|444:84,1,140
356,76,205695,2,0,P|304:120|272:132,1,70
220,120,206195,5,8,0:0:0:0:
136,108,206445,1,8,0:0:0:0:
72,160,206695,1,8,0:0:0:0:
128,220,206945,2,8,L|184:272,1,70
264,260,207445,2,8,L|344:240,1,70
416,236,207945,2,0,P|436:204|428:84,1,140
356,100,208695,6,0,L|272:92,1,70
216,140,209195,1,0,0:0:0:0:
140,172,209445,2,0,P|112:268|132:304,1,140
208,276,210195,1,0,0:0:0:0:
268,216,210445,2,2,P|320:176|340:172,1,70
364,248,210945,1,0,0:0:0:0:
440,284,211195,2,2,P|396:340|392:352,1,70
312,340,211695,1,0,0:0:0:0:
248,284,211945,6,0,P|160:212|152:184,1,140
220,140,212695,1,0,0:0:0:0:
296,96,212945,1,0,0:0:0:0:
372,128,213195,1,0,0:0:0:0:
436,180,213445,2,0,P|420:256|412:260,1,70
348,256,213945,2,0,P|300:216|276:208,1,70,0|8,0:0|0:0,0:0:0:0:
228,264,214445,2,0,L|160:216,2,70,8|8|8,0:0|0:0|0:0,0:0:0:0:
296,312,215195,2,0,L|360:352,2,70,0|8|0,0:0|0:0|0:0,0:0:0:0:
272,212,215945,5,0,0:0:0:0:
272,128,216195,1,0,0:0:0:0:
272,44,216445,2,0,L|204:68,1,70
124,92,216945,2,0,P|76:160|96:216,1,140
160,256,217695,2,0,B|244:240|240:240,1,70
300,196,218195,1,0,0:0:0:0:
368,244,218445,2,0,P|376:308|448:332,1,140,0|2,0:0|0:0,0:0:0:0:
468,256,219195,5,2,0:0:0:0:
476,172,219445,1,2,0:0:0:0:
448,92,219695,1,2,0:0:0:0:
364,84,219945,1,0,0:0:0:0:
288,120,220195,2,0,P|252:176|232:196,1,70
168,188,220695,2,0,L|80:188,2,70,0|0|0,0:0|0:0|0:0,0:0:0:0:
220,256,221445,2,0,P|264:300|348:320,1,140
384,252,222195,2,0,P|372:196|376:152,1,70
412,108,222695,6,0,L|424:40,2,70,0|0|0,0:0|0:0|0:0,0:0:0:0:
332,140,223445,1,0,0:0:0:0:
252,168,223695,1,4,0:0:0:0:
256,192,223945,12,0,231945,0:0:0:0:
