osu file format v12

[General]
AudioFilename: Mystery Leviathan Singing Maple Story Theme Song Cover (ft. Korean Dancing Asian Hero).mp3
AudioLeadIn: 0
PreviewTime: -1
Countdown: 1
SampleSet: Normal
StackLeniency: 0.7
Mode: 0
LetterboxInBreaks: 1
WidescreenStoryboard: 0

[Editor]
Bookmarks: 21330
DistanceSpacing: 0.6
BeatDivisor: 6
GridSize: 8
TimelineZoom: 2.799999

[Metadata]
Title:Maple Story Theme Song Cover (ft. Korean Dancing Asian Hero)
TitleUnicode:Maple Story Theme Song Cover (ft. Korean Dancing Asian Hero)
Artist:Mystery Leviathan
ArtistUnicode:Mystery Leviathan
Creator:Danny
Version:Mapuhhsatory
Source:
Tags:
BeatmapID:422467
BeatmapSetID:175115

[Difficulty]
HPDrainRate:0
CircleSize:4
OverallDifficulty:6
ApproachRate:9
SliderMultiplier:1.4
SliderTickRate:1

[Events]
//Background and Video events
0,0,"MS.jpg",0,0
//Break Periods
//Storyboard Layer 0 (Background)
//Storyboard Layer 1 (Fail)
//Storyboard Layer 2 (Pass)
//Storyboard Layer 3 (Foreground)
//Storyboard Sound Samples
//Background Colour Transformations
3,100,163,162,255

[TimingPoints]
976,478.927203065134,4,1,0,100,1,0
31747,478.927203065134,4,1,0,100,1,0
31747,-50,4,1,0,100,0,0

[HitObjects]
128,96,976,5,0,0:0:0:0:
224,56,1215,1,0,0:0:0:0:
320,96,1454,1,0,0:0:0:0:
256,176,1694,2,0,P|280:264|328:280,2,140
256,176,3370,2,0,B|208:192|208:192|176:240|88:232|80:144,1,210
384,64,4807,6,0,L|320:120,1,70
344,216,5286,2,0,L|408:160,1,70
208,80,6004,1,0,0:0:0:0:
208,80,6483,2,0,B|144:96|144:96|192:208|64:208,2,210
440,288,8638,6,0,P|408:240|288:248,1,140
248,288,9357,2,0,P|224:224|280:144,2,140
424,136,11033,2,0,B|344:120|344:120|264:192|216:128,1,210
96,304,12470,6,0,B|168:288|168:288|184:224,1,140
112,152,13188,1,0,0:0:0:0:
296,56,13667,1,0,0:0:0:0:
296,264,14146,2,0,P|368:216|384:120,1,140
288,192,14864,2,0,P|224:272|256:328,1,140
328,336,15583,1,0,0:0:0:0:
216,40,16301,6,0,L|144:80,1,70
72,144,16780,2,0,L|144:184,1,70,0|0,0:0|0:0,0:0:0:0:
328,88,17498,2,0,P|376:160|336:224,1,140
152,304,18696,5,0,0:0:0:0:
360,304,18935,1,0,0:0:0:0:
104,232,19175,1,0,0:0:0:0:
408,232,19414,1,0,0:0:0:0:
152,160,19654,1,0,0:0:0:0:
360,160,19893,1,0,0:0:0:0:
104,232,20133,6,0,P|72:160|96:96,1,140
152,160,20851,1,0,0:0:0:0:
352,248,21330,2,0,P|425:219|453:157,1,140
384,88,22048,2,0,L|272:56,1,70
208,80,22527,5,0,0:0:0:0:
168,176,22767,1,0,0:0:0:0:
208,80,23006,1,0,0:0:0:0:
232,232,23246,1,0,0:0:0:0:
208,80,23485,1,0,0:0:0:0:
296,288,23725,1,0,0:0:0:0:
208,80,23964,6,0,L|120:104,1,70
64,176,24443,1,0,0:0:0:0:
112,272,24682,2,0,P|184:280|232:256,1,105
304,136,25401,1,0,0:0:0:0:
304,136,25880,6,0,B|312:129|312:129|325:127|325:127|336:136|336:136|344:136|344:136|348:141|348:141|328:148|326:153|336:152|336:152|331:171|331:171|344:152|344:152|360:144|360:144|357:133|357:133|366:142|370:132|370:132|365:148|374:148|374:148|377:153|370:158|370:158|368:160|368:168|368:168|376:168|376:192|371:196|371:196|376:187|386:195|386:195|384:176|384:176|376:173|396:157|386:142|386:142|400:144|402:134|402:134|401:174|401:174|408:184|408:184|410:176|410:176|408:168|408:168|415:158|415:158|411:152|411:152|419:180|419:180|432:224|448:160|458:183|456:248|464:256,1,490
368,264,27795,5,0,0:0:0:0:
264,288,28035,1,0,0:0:0:0:
184,224,28274,1,0,0:0:0:0:
264,288,28514,2,0,P|200:320|160:320,1,105
56,208,29232,1,0,0:0:0:0:
216,72,29951,5,0,0:0:0:0:
296,144,30191,1,0,0:0:0:0:
216,72,30430,1,0,0:0:0:0:
376,168,30670,1,0,0:0:0:0:
216,72,30909,1,0,0:0:0:0:
456,192,31148,1,0,0:0:0:0:
216,72,31387,1,0,0:0:0:0:
72,168,31747,6,0,B|48:248|48:248|168:256|64:288|48:304|40:304|248:352,1,350
424,104,32704,1,0,0:0:0:0:
192,96,33183,2,0,B|160:128|160:128|112:128|184:160|128:144|128:144|152:160|152:160|136:168|120:160|128:200|156:219|156:219|176:224|168:248|168:248|144:240|151:250|184:288|204:274|216:272|240:280|254:283|264:256|263:244|273:236|208:256|205:243|205:243|184:264|184:264,2,420
360,88,35099,2,0,B|312:104|312:104|336:160|336:168|296:152|288:144|312:184|320:208|320:256|272:248|224:184|216:160|224:152|248:144|280:160|296:184|320:200|320:200|320:216|264:208|256:192|256:192|272:208|272:216|264:248|240:248|216:248|216:248,1,490
96,80,36177,2,0,B|32:152|88:216|88:216|77:218|76:214|80:224|80:224|76:223|70:220|70:220|63:234|80:232|80:232|87:241|87:241|87:227|87:227|88:224|88:224|94:229|96:224|94:224|94:224|99:223|101:214|101:214|111:212|108:227|108:227|115:226|115:226|103:241|103:241|110:242|110:242|118:246|118:246|134:247|134:247|147:238|147:238|152:232,1,280
424,272,37015,2,0,B|432:176|256:120|256:120|264:96|264:96|256:80|248:80|224:88|216:96|216:112|224:120|224:120|232:104|232:96|224:96|232:120|232:128|232:128|240:112|240:112|200:104|200:104|208:136|208:152|208:152|184:152|184:152|160:144|160:144|160:184|168:224|168:224|168:224,1,560
80,296,38212,6,0,L|32:144,1,140
240,104,38691,2,0,L|288:256,1,140
80,296,39170,2,0,B|64:272|64:272|72:256|72:256|56:248|56:248|64:232|64:232|40:232|40:232|56:216|56:216|32:216|32:216|40:192|40:192|64:184|64:184|64:176|64:168|64:168|56:160|56:160|88:152|88:152|96:128|96:128|80:120|72:120|72:120|88:96|88:96|152:104|152:104|160:86|160:86|174:73|174:73|185:72|185:72|196:81|192:96|196:95|203:82|203:82|208:68|208:68|209:61|209:61|231:68|231:68|238:45|251:48|251:48|269:66|269:66|291:70|291:70|294:65|294:65|297:48|297:48|344:56,1,630
320,264,40487,2,0,B|256:248|256:248|264:224|264:224|264:256|264:264|256:272|240:288|208:288|200:288|200:288|197:261|197:261|180:249|180:249|160:228|160:224|155:213|155:213|153:202|153:195|155:179|160:168|160:164|168:152|162:143|162:143|173:141|173:141|177:135|187:130|187:130|200:144|200:144|200:152|200:152|194:123|204:119|206:112|206:112|224:123|224:129|233:153|232:160|232:176|221:153|221:153|216:158|240:192|240:192|240:192|240:192|200:184|312:160|312:160,1,630
176,296,42163,5,0,0:0:0:0:
312,136,42403,1,0,0:0:0:0:
104,168,42642,1,0,0:0:0:0:
392,296,43001,2,0,B|416:208|416:208|360:200|352:208|352:208|296:184|344:152|360:136|368:128|368:120|360:112|360:112|336:96|328:88|328:88|312:80|312:72|312:72|296:64|280:64|280:64|232:120|232:120|200:96|200:96|200:72|200:64|200:64|168:48|152:48|152:48|104:64|104:64|112:64|112:72|120:96|128:112|128:112|112:112|32:112|32:104|32:120|40:152|40:152|56:160|72:176|72:176|88:176|112:184|120:192|120:192|136:176|136:176|136:168|160:152|160:152|168:176|168:176|179:185|179:185|184:184|186:178|186:178|184:192|176:200|176:200|168:208|168:215|168:215|169:222|169:222|182:219|191:224|191:224|198:234|198:234|183:206|183:206|195:209|224:216|200:202|200:184|200:184|195:182|208:176|208:176|225:178|225:178|224:200|224:200|234:201|241:201|244:194|244:194|230:213|230:213|245:228|245:228|270:220|272:240|272:256|272:264|272:264|264:272|264:272|264:280|264:280|248:288|240:296|229:293|229:293|230:254|228:242|228:242|221:221|216:216|219:213|219:213|210:203|192:200,1,1470
112,280,46114,6,0,P|48:208|112:160,1,140
272,208,46593,1,0,0:0:0:0:
272,208,46833,2,0,B|360:176|360:176|336:160|336:160|368:120|368:120|384:120|416:136|432:144|432:144|416:256|408:264|408:264|256:104|256:104|312:168|344:224|328:184|320:168|360:224|360:224|352:216,1,700
272,208,48509,2,0,B|184:240|184:240|208:256|208:256|176:296|176:296|160:296|128:280|112:272|112:272|128:160|136:152|136:152|288:312|288:312|232:248|200:192|216:232|224:248|184:192|184:192|192:200,1,700
272,208,50065,1,0,0:0:0:0:
64,128,50544,6,0,B|136:96|136:96|160:128|160:144|160:144|176:112|176:112|160:104|152:104|144:112|128:136|120:136|144:144|144:144|168:128|168:120|168:120|160:120|152:120|144:128|152:136|168:136|176:120|184:112|184:104|176:104|176:104|152:88|144:80|128:96|128:96|184:136|184:136|184:128|184:128|176:104|168:104|152:96|144:104|176:112|200:104|208:120|224:128|224:128|238:117|243:112|240:104|232:101|224:90|225:81|216:80|216:80|243:100|247:109|253:116|271:107|274:118|274:118|272:128|265:127|265:127|259:127|280:128|283:133|280:136|280:144|293:151|293:151|291:161|291:161|288:176|280:160|272:144|256:152|232:176|224:160|216:152|215:138|220:170|220:170|216:168|192:176|192:176|181:179|152:176|128:168|128:160|200:104|200:96|200:96|208:80|200:72|190:77|190:77|192:64|224:40|256:40|288:56|256:80|256:80|280:88|304:88|304:128|312:136|320:152|308:162|308:162|312:162|328:168|323:176|296:184|280:184|264:184|256:176|248:137|248:137|240:136|219:118|219:118|221:104|216:104|208:112|184:64|184:64|168:56|168:56|176:40|152:128|152:128|160:136|184:120|183:124|184:144|184:144|160:152|128:128|104:104|112:88|104:64|65:62|112:56|112:56|136:48|136:48|144:48|162:70|162:70|172:90|248:136|248:136|184:96|184:96|168:112|168:112|160:112|160:112,2,2030
203,108,57968,1,0,0:0:0:0:
240,296,58327,2,0,L|384:216,1,140
152,248,58806,1,0,0:0:0:0:
488,240,59045,2,0,P|464:160|280:104,1,280
224,304,60003,6,0,P|304:256|312:208,1,140
288,80,60482,6,0,P|208:128|200:176,1,140
120,168,60961,6,0,P|168:248|216:256,1,140
400,168,61440,5,0,0:0:0:0:
400,168,61679,2,0,B|400:208|400:208|400:256|400:256|368:240|368:240|384:256|392:264|392:280|384:296|352:304,1,210
256,344,62398,6,0,B|240:336|240:336|192:328|192:328|240:312|240:312|176:248|176:248|160:248|120:240|110:234|96:216|152:264|160:296|152:320|160:336|192:336|200:320|200:312|192:304|168:304|168:320|200:328|224:320|216:304|200:296|192:312|192:312|176:312|120:296|102:267|56:248|24:288|24:280|24:208|64:160|144:160|152:200|160:144|160:56|160:56|240:152|281:156|304:130|280:72|244:59|240:48|280:48|295:30|336:104|360:136|312:192|280:192|280:176|280:216|264:232|232:248|224:224|224:216|198:210|194:196|216:152,1,1260
200,120,65032,2,0,P|304:184|272:232,1,210
400,184,65990,6,0,B|312:96|352:96|352:96|416:112|304:144|264:176|248:208|368:240|376:216|368:192|368:192|328:256|320:272|200:264|176:240|176:240|200:176|200:152|232:104|208:96|144:128|240:176|264:192|304:208|328:216|352:216|376:192|392:168|400:160|424:120|440:88|448:72|384:56|304:96|280:96|264:112|264:128|280:168|280:184|288:224|296:272|256:320|176:336|160:328|80:280|32:248|32:176|64:128|64:80|32:24|-40:72|-32:200|0:248|96:304|216:336|320:312|408:288|424:256|424:256|344:256|344:288|320:328|304:336|304:336|136:232|112:200|112:200|144:144|152:136|240:88|304:72|360:88|376:136|328:144|296:152|280:152|280:152|320:208|272:200,2,2590
40,176,72455,5,0,0:0:0:0:
48,152,72535,5,0,0:0:0:0:
72,192,72615,5,0,0:0:0:0:
104,224,72695,5,0,0:0:0:0:
144,248,72775,5,0,0:0:0:0:
192,256,72854,5,0,0:0:0:0:
232,240,72934,5,0,0:0:0:0:
264,200,73014,5,0,0:0:0:0:
293,173,73094,5,0,0:0:0:0:
320,128,73174,5,0,0:0:0:0:
360,112,73254,5,0,0:0:0:0:
384,144,73333,5,0,0:0:0:0:
352,176,73413,5,0,0:0:0:0:
304,184,73493,5,0,0:0:0:0:
256,168,73573,5,0,0:0:0:0:
224,144,73653,5,0,0:0:0:0:
192,168,73732,5,0,0:0:0:0:
184,208,73812,5,0,0:0:0:0:
192,256,73892,6,0,P|272:304|288:296,6,93.3333333333333
