osu file format v9

[General]
AudioFilename: 02main_theme.mp3
AudioLeadIn: 0
PreviewTime: 63596
Countdown: 1
SampleSet: Soft
StackLeniency: 0.8
Mode: 0
LetterboxInBreaks: 0

[Editor]
DistanceSpacing: 1
BeatDivisor: 6
GridSize: 8

[Metadata]
Title:The Blood of Cu Chulainn
Artist:Mychael & Jeff Danna
Creator:Magicphoenix
Version:Hard
Source:The Boondock Saints
Tags:Troy Duffy Sean Patrick Flanery Norman Reedus Murphy MacManus Connor MacManus

[Difficulty]
HPDrainRate:5
CircleSize:4
OverallDifficulty:6
ApproachRate:7
SliderMultiplier:1.4
SliderTickRate:1

[Events]
//Background and Video events
0,0,"Boondock-Saints-the-boondock-saints-653316_1024_768.jpg"
//Break Periods
2,24313,37095
2,167100,172941
//Storyboard Layer 0 (Background)
//Storyboard Layer 1 (Fail)
//Storyboard Layer 2 (Pass)
//Storyboard Layer 3 (Foreground)
//Storyboard Sound Samples
//Background Colour Transformations
3,100,163,162,255

[TimingPoints]
316,495.785820525533,4,1,0,51,1,0
37995,-100,4,1,0,29,0,0
38491,-100,4,1,0,48,0,0
38987,-100,4,1,0,60,0,0
39483,-100,4,1,0,71,0,0
39978,-100,4,1,0,75,0,0
40970,-100,4,2,0,51,0,0
47911,-100,4,1,0,51,0,0
48076,-100,4,2,0,51,0,0
60306,-100,4,1,0,40,0,0
61297,-100,4,1,0,31,0,0
61793,-100,4,1,0,40,0,0
62289,-100,4,1,0,50,0,0
62785,-100,4,1,0,59,0,0
63280,-100,4,1,0,81,0,0
63776,-100,4,1,0,52,0,1
79641,-100,4,1,0,66,0,1
95506,-100,4,2,0,51,0,0
107901,-100,4,2,0,41,0,0
108397,-100,4,1,0,30,0,0
109388,-100,4,1,0,30,0,0
109884,-100,4,1,0,48,0,0
110380,-100,4,1,0,59,0,0
112363,-100,4,2,0,42,0,0
119304,-100,4,1,0,42,0,0
119469,-100,4,2,0,42,0,0
127237,-100,4,1,0,42,0,0
127402,-100,4,2,0,42,0,0
131203,-100,4,1,0,42,0,0
131368,-100,4,2,0,42,0,0
134178,-100,4,1,0,38,0,0
134673,-100,4,1,0,56,0,0
135169,-100,4,1,0,75,0,0
135500,-100,4,1,0,63,0,0
139631,-100,4,1,0,50,0,0
140623,-100,4,1,0,41,0,0
141119,-100,4,1,0,34,0,0
141614,-100,4,1,0,45,0,0
142110,-100,4,1,0,57,0,0
142606,-100,4,1,0,68,0,0
143102,-100,4,1,0,55,0,0
149547,-100,4,1,0,63,0,0
150043,-100,4,1,0,74,0,0
150539,-100,4,1,0,81,0,0
151034,-100,4,1,0,81,0,1
166900,-100,4,1,0,51,0,0
173841,-100,4,2,0,51,0,0
190697,-100,4,1,0,69,0,1
206562,504.201680672269,4,2,0,50,1,0
219335,-100,4,2,0,0,0,0

[Colours]
Combo1 : 128,0,0
Combo2 : 251,251,0
Combo3 : 158,119,29
Combo4 : 74,138,202

[HitObjects]
256,84,8248,1,4
256,177,8579,1,0
209,177,8744,1,8
115,177,9074,1,0
115,223,9240,1,8
115,316,9570,1,0
159,329,9735,2,0,B|229:369|291:309,1,140,8|0
380,296,10562,5,0
347,263,10727,1,8
379,230,10892,1,0
345,196,11058,1,0
377,163,11223,2,0,B|346:121|413:121|363:59,1,93.3333333333333
374,75,11719,1,8
248,26,12214,5,4
154,26,12545,1,0
154,26,12710,1,8
154,119,13041,1,0
153,119,13206,1,8
153,212,13536,2,0,B|220:211,3,46.6666666666667,0|8|0|0
246,211,14198,1,8
339,211,14528,5,0
371,178,14693,1,8
391,137,14859,1,0
372,93,15024,1,8
330,71,15189,1,0
211,68,15520,1,0
211,68,15685,2,0,B|120:64|80:128,1,140,8|4
86,211,16511,6,0,B|150:211,1,46.6666666666667,0|8
226,211,17007,2,0,B|275:211,1,46.6666666666667,8|0
366,211,17503,1,0
412,211,17668,1,8
458,211,17833,1,0
504,211,17999,1,0
505,212,18164,1,8
505,118,18494,5,0
472,85,18660,1,8
428,69,18825,1,0
382,58,18990,1,8
335,58,19155,1,0
241,58,19486,1,0
241,57,19651,2,8,B|185:18|152:91|102:42,1,140,8|12
59,145,20477,5,0
105,145,20643,1,8
105,238,20973,1,0
151,238,21139,1,8
244,238,21469,5,0
244,238,21634,1,8
244,238,21800,1,0
244,238,21965,2,0,B|305:237,1,46.6666666666667,0|8
384,237,22461,5,8
426,218,22626,1,0
458,185,22791,1,8
458,138,22956,1,0
444,93,23122,2,0,B|400:57|351:94,1,93.3333333333333
359,89,23617,1,8
255,193,24113,5,4
255,25,37995,5,8
221,58,38160,1,0
253,90,38326,1,0
220,122,38491,1,8
253,155,38656,1,0
220,187,38822,1,0
253,220,38987,2,0,B|309:258|229:314|285:354,1,140,8|8
277,348,39648,1,0
277,348,39813,1,0
277,348,39978,1,4
488,193,40970,5,0
254,193,41796,1,0
207,193,41962,1,0
82,128,42457,1,8
82,268,42953,1,0
82,127,43449,1,8
203,58,43945,2,0,B|270:1|334:65,1,140,0|8
427,158,44936,2,0,B|329:268|249:100|169:220,1,280,0|0
175,211,46424,1,8
175,211,46919,1,0
175,71,47415,6,0,B|232:56|239:135|304:136,1,140,8|4
151,274,48903,1,8
151,133,49398,1,8
291,133,49894,2,0,B|392:64|480:224|336:264,1,280,0|8
127,263,51629,1,0
127,263,51877,1,0
264,46,52869,5,0
272,184,53365,2,0,B|320:144|368:184|368:240|368:240|424:232|464:280|416:336,1,280,0|0
284,324,54852,1,0
143,324,55348,1,8
125,159,55844,5,8
171,159,56009,1,0
217,159,56174,1,0
263,159,56339,1,0
403,159,56835,1,0
403,159,57331,2,0,B|387:343|187:263,1,280,8|0
272,146,58818,5,0
272,146,59314,1,8
131,146,59810,2,0,B|147:-38|347:42,1,280,0|0
329,35,61297,1,8
329,35,61793,5,0
329,175,62289,1,0
329,315,62785,1,8
192,312,63280,1,0
192,218,63611,5,0
192,171,63776,1,4
258,104,64107,1,0
304,104,64272,1,8
370,170,64602,1,0
370,216,64768,1,8
303,282,65098,5,0
256,282,65263,1,8
209,282,65429,1,0
162,282,65594,1,0
115,282,65759,1,4
115,188,66090,5,0
148,154,66255,1,8
180,186,66420,1,0
212,153,66586,1,8
245,186,66751,1,0
338,186,67081,2,0,B|390:187,1,46.6666666666667,0|8
381,49,67742,5,4
287,49,68073,1,0
287,95,68238,1,8
287,188,68569,1,0
333,188,68734,1,0
427,187,69064,5,0
427,233,69230,1,8
394,265,69395,1,0
350,282,69560,1,0
303,282,69726,1,4
204,281,70056,5,0
157,281,70221,1,8
113,264,70387,1,0
80,232,70552,1,8
80,186,70717,1,0
256,152,71048,1,0
256,198,71213,1,8
256,57,71709,6,0,B|312:56|320:120,1,93.3333333333333,4|0
318,112,72204,1,8
318,206,72535,2,8,B|379:207,1,46.6666666666667,8|0
458,206,73031,6,0,B|459:271,1,46.6666666666667,0|8
458,299,73361,1,0
416,312,73527,1,8
369,312,73692,1,0
277,294,74022,5,0
240,261,74188,1,8
207,228,74353,1,0
174,195,74518,1,8
140,161,74683,1,0
77,94,75014,2,0,B|116:133,1,46.6666666666667,0|8
286,145,75675,5,4
379,145,76005,1,0
379,191,76171,1,8
312,257,76501,1,0
265,257,76667,1,8
198,190,76997,5,0
198,143,77162,1,8
215,99,77328,1,0
247,66,77493,1,0
293,66,77658,1,0
402,76,77989,5,8
441,115,78154,1,8
441,170,78319,1,8
415,219,78484,1,8
365,245,78650,1,0
201,281,79145,1,0
110,162,79641,6,0,B|62:109|86:13|230:-11|262:77,1,280,4|0
256,64,81129,1,8
404,164,81624,2,0,B|448:113|424:18|280:-6|256:64,1,280,4|0
255,204,83112,1,8
371,281,83608,2,0,B|319:364|183:364|126:267,1,280,4|0
256,200,85095,1,8
371,103,85591,2,0,B|319:20|183:20|126:117,1,280,4|0
256,184,87078,1,8
389,179,87574,5,4
295,179,87904,1,0
248,179,88070,1,8
248,272,88400,1,0
294,272,88565,1,8
200,272,88896,5,0
200,225,89061,1,8
200,178,89226,1,0
246,178,89392,1,8
292,178,89557,1,0
397,177,89887,5,0
385,131,90053,1,8
362,90,90218,1,0
317,76,90383,1,8
274,71,90549,1,0
180,71,90879,2,0,B|181:132,1,46.6666666666667,0|8
171,249,91540,6,0,B|212:342|356:342|404:246,1,280,4|0
300,153,93027,1,8
440,153,93523,1,4
363,74,93854,1,0
329,40,94019,1,8
296,72,94184,1,0
263,39,94350,1,8
229,72,94515,1,8
135,72,94845,5,0
135,118,95011,2,0,B|25:141|17:285|117:313|137:317,1,280,8|0
258,210,96498,5,0
258,210,97324,2,0,B|256:146,1,46.6666666666667,0|0
396,163,97985,2,0,B|397:310,1,140,0|8
396,302,98977,1,8
396,302,99473,2,0,B|240:304,1,140,0|8
116,303,100464,2,0,B|232:224|56:168|220:55,1,280,0|0
208,63,101952,1,0
394,63,102447,6,0,B|383:206|282:144|271:316,1,280,0|8
271,304,103935,1,0
151,231,104431,1,8
270,155,104926,1,0
193,35,105422,1,8
69,104,105918,1,0
69,104,106414,6,0,B|189:96|173:232|309:264,1,280,8|8
464,191,107901,1,0
464,144,108066,1,0
464,97,108232,1,0
464,50,108397,1,8
323,50,108893,1,0
186,55,109388,5,8
139,55,109554,1,0
139,101,109719,1,0
139,147,109884,1,8
139,193,110049,1,0
139,239,110215,6,0,B|200:240,1,46.6666666666667,0|8
232,239,110545,1,0
278,239,110710,1,8
324,239,110876,1,8
371,239,111041,1,8
403,206,111206,1,8
403,159,111372,1,4
122,159,112363,5,0
355,159,113189,1,0
355,159,113355,1,8
214,159,113850,1,0
74,159,114346,1,8
74,299,114842,1,0
214,299,115338,2,8,B|304:328|352:256,1,140,8|0
248,160,116329,1,0
256,192,116495,12,0,118313
256,88,118808,5,0
352,192,119304,2,0,B|352:264|256:304|152:264|152:192,1,280,4|0
153,197,120791,1,8
152,195,121287,2,0,B|152:123|248:83|352:123|352:195,1,280,0|0
116,194,123022,5,0
45,194,123270,1,0
490,194,124262,1,0
390,94,124758,2,0,B|353:182|244:215|149:181,1,280
151,181,126245,1,0
151,40,126741,1,8
289,48,127237,6,0,B|408:136|264:192|392:304,1,280,4|0
383,295,128724,2,0,B|95:295,1,280,8|0
103,154,130211,1,0
217,234,130707,1,0
304,128,131203,6,0,B|413:69|499:209|393:277,1,280,4|0
141,308,132690,2,0,B|241:206|321:366|401:270,1,280,0|0
397,274,134178,1,8
397,274,134673,1,8
429,119,135169,5,4
335,119,135500,1,0
302,86,135665,1,8
269,118,135830,1,0
235,84,135996,1,0
202,116,136161,1,12
152,212,136491,5,0
152,258,136657,1,8
184,290,136822,1,0
226,309,136987,1,0
272,309,137152,1,8
366,309,137483,1,0
412,309,137648,6,0,B|472:248|408:160,1,140,0|8
421,180,138640,1,0
280,180,139136,2,0,B|233:77|104:76|69:191,1,280,4|0
155,291,140623,1,0
264,368,141119,5,8
310,368,141284,1,0
342,335,141449,1,0
375,301,141614,1,8
407,268,141780,1,0
417,222,141945,1,0
417,175,142110,1,8
417,128,142276,2,8,B|357:91,1,46.6666666666667,8|0
330,103,142606,1,8
283,103,142771,2,8,B|221:102,1,46.6666666666667
189,102,143102,6,4,B|49:128|49:264|193:272|193:272,1,280,4|0
364,253,144589,1,0
364,253,145085,1,0
418,240,145250,1,8
450,207,145415,1,8
450,160,145581,1,0
428,118,145746,1,8
389,91,145911,1,0
347,69,146077,6,0,B|278:10|126:58|174:186,1,280,8|4
320,288,147564,1,0
453,194,148060,2,0,B|431:75|281:74|264:199,1,280
264,192,149547,1,0
80,88,150043,1,0
80,288,150539,1,0
232,195,151034,5,4
335,195,151365,1,0
335,143,151530,1,8
232,143,151861,1,0
232,194,152026,1,8
222,301,152356,5,0
255,267,152522,1,8
287,299,152687,1,0
319,266,152852,1,8
352,299,153018,1,4
461,212,153348,5,0
424,175,153513,1,8
387,138,153679,1,0
347,98,153844,1,8
313,64,154009,1,0
210,64,154340,1,0
158,64,154505,1,8
67,141,155001,6,0,B|67:255|67:255,1,93.3333333333333
67,281,155496,1,8
196,283,155827,1,0
251,283,155992,1,8
369,233,156323,1,8
369,284,156488,1,0
420,284,156653,1,8
471,284,156819,1,0
471,232,156984,1,8
471,77,157480,6,0,B|400:0|256:16|224:112,1,280,0|0
118,212,158967,2,0,B|208:320|256:160|376:280,1,280,4|0
370,120,160454,1,8
370,120,160950,2,0,B|237:119|246:251|112:208,1,280,4|0
119,210,162437,1,8
119,210,162933,6,0,B|192:360|344:360,1,280,4|0
336,359,164421,1,8
175,359,164916,2,0,B|320:360|393:210,1,280,4|0
392,212,166238,1,0
392,212,166404,1,8
256,192,166900,5,4
256,72,173841,6,0,B|136:72|64:168|104:280,1,280
258,256,175328,1,2
410,253,175824,2,0,B|442:168|370:72|250:72,1,280
254,212,177311,5,2
394,212,177807,1,0
394,212,178303,2,0,B|359:111|228:70|79:111|64:227,1,420,0|2
65,219,180286,1,0
65,218,180782,1,4
328,224,181773,6,0,B|440:168|424:56|280:24,1,280,2|4
158,28,183260,1,0
58,127,183756,1,2
58,267,184252,1,0
157,366,184748,5,4
296,366,185244,1,0
395,266,185739,1,2
395,125,186235,2,0,B|272:40|208:176|112:96,1,280,0|2
127,107,187723,1,0
127,247,188218,1,2
256,192,188714,12,0,190201
256,96,190697,5,4
189,162,191028,1,0
189,208,191193,1,8
255,274,191524,1,0
301,274,191689,1,8
394,274,192019,5,0
394,227,192185,1,8
394,180,192350,1,0
394,133,192515,1,0
394,86,192680,1,4
258,53,193176,6,0,B|80:48|64:208,1,280,0|0
193,262,194664,1,4
250,375,195159,2,0,B|427:379|443:220,1,280,0|0
391,85,196647,5,4
391,85,197142,1,0
391,85,197638,2,0,B|272:200,1,140,0|0
160,216,198630,5,4
157,87,199126,1,0
256,186,199621,1,8
354,85,200117,1,0
352,224,200613,1,4
256,120,201109,1,0
161,222,201605,1,8
14,238,202100,6,0,B|119:137,1,140,0|4
339,134,203092,1,0
338,134,203588,2,0,B|178:134,1,140,0|0
194,274,204579,5,0
333,274,205075,1,8
333,133,205571,1,0
192,133,206067,1,8
378,133,206562,6,0,B|368:232|208:144|176:304,1,280
177,156,208074,1,2
176,16,208578,2,0,B|272:-8|408:64|328:192,1,280
202,164,210091,1,2
61,164,210595,2,0,B|64:288|232:240|272:376,1,280
257,109,212444,5,0
186,109,212612,2,0,B|170:191|263:264|358:193|326:91,1,280,2|0
257,72,214461,5,2
327,72,214629,2,0,B|415:128|271:256|447:296,1,280,0|0
439,294,216141,1,2
298,294,216646,1,2
193,222,216982,5,2
192,166,217150,1,2
238,166,217318,1,0
238,119,217486,1,0
238,72,217654,5,2
377,72,218158,1,0
307,180,218662,2,0,B|308:341,1,140,2|0
256,192,219335,12,0,222696
