osu file format v5

[General]
AudioFilename: My Neighbor Totoro - Path of The Wind.mp3
AudioLeadIn: 0
PreviewTime: -1
Countdown: 1
SampleSet: Soft
StackLeniency: 0.7
Mode: 0
LetterboxInBreaks: 1

[Metadata]
Title:Path of The Wind
Artist:My Neighbor Totoro
Creator:luke0719
Version:Easy
Source:
Tags:

[Difficulty]
HPDrainRate:1
CircleSize:3
OverallDifficulty:0
SliderMultiplier:1.2
SliderTickRate:2

[Events]
//Background and Video events
0,0,"011278.jpg"
//Break Periods
2,58973,59881
2,103579,104368
2,114732,115640
2,125884,126095
//Storyboard Layer 0 (Background)
//Storyboard Layer 1 (Failing)
//Storyboard Layer 2 (Passing)
//Storyboard Layer 3 (Foreground)
//Storyboard Sound Samples
//Background Colour Transformations
3,100,163,162,255

[TimingPoints]
16944,697.026022304833,4,2,0,100,1

[Colours]
Combo1 : 255,255,255
Combo2 : 151,253,151
Combo3 : 128,255,255
Combo4 : 253,174,174
Combo5 : 255,191,96

[HitObjects]
64,131,16246,1,0
160,131,16943,1,0
254,132,17641,1,0
349,131,18338,1,0
444,131,19035,1,0
443,226,19732,1,2
347,222,20429,5,0
253,222,21126,1,2
157,221,21823,1,0
157,125,22520,1,0
252,126,23217,1,0
252,222,23914,1,0
156,221,24611,1,0
157,125,25308,1,2
252,124,26005,5,0
347,124,26702,1,2
443,124,27399,6,0,B|444:254,1,120
444,340,28793,1,0
347,340,29490,1,2
346,244,30187,6,0,B|346:95,1,120
346,27,31581,1,0
346,123,32278,1,2
346,219,32975,2,0,B|323:249|296:282|265:305|237:321|205:327|164:329|121:327|92:313|75:295|56:273|42:249|34:186|69:136|95:107|95:108,1,480
144,47,36460,1,2
56,59,38551,6,0,B|102:105,1,60
133,134,39248,1,2
226,137,39945,2,0,B|290:137,1,60
286,185,40642,1,2
284,281,41339,2,0,B|222:281,1,60
224,232,42036,1,2
228,136,42733,5,0
323,136,43430,1,0
419,136,44128,2,0,B|441:179|453:217|453:255|438:296|414:316|374:332|341:344|309:344|275:319|247:269|216:201|137:214,1,480
52,209,47613,1,2
129,152,48310,1,0
214,106,49007,1,2
279,175,49704,1,0
345,245,50401,1,2
276,312,51098,6,0,B|220:314|187:293|182:222,1,120
154,160,52492,1,0
242,121,53189,1,0
325,168,53886,1,2
265,243,54583,1,2
169,232,55280,6,0,B|117:217|99:174|103:130|120:83|147:57|186:28|230:16|259:16|306:51|358:93,1,420
348,230,58765,1,4
44,314,61553,5,0
73,276,61902,2,2,B|113:233|160:216|195:219|220:228|249:254,1,180
471,205,64690,5,0
438,170,65038,1,0
401,138,65387,1,0
362,109,65735,1,0
272,73,66432,1,0
185,113,67129,2,0,B|165:144|149:168|143:194|143:231|143:260|153:290,1,180
189,312,68523,1,2
256,124,69917,5,4
99,306,71660,6,0,B|111:226|133:192|151:168|174:144|224:126|266:124|304:174|319:222|340:252|388:258,1,420
445,75,75494,5,0
365,128,76191,1,0
284,180,76888,1,2
173,205,77585,6,0,B|137:222|122:222|111:213,1,60
85,253,78282,2,0,B|67:276|65:298|79:313,1,60
122,314,78979,2,0,B|209:314,1,60
191,218,80024,1,0
334,216,81070,1,6
335,120,81767,1,4
350,311,83161,6,0,B|221:311,1,120
133,311,84555,6,0,B|-12:311,1,120
25,215,85949,6,0,B|25:76,1,120
121,95,87343,6,0,B|244:95,1,120
332,124,88737,6,0,B|388:159,1,60
402,199,89434,2,0,B|415:219|430:245|440:264|447:273,1,60
411,291,90131,2,0,B|343:291,1,60
303,293,90828,2,0,B|250:276|215:271|175:277|147:291|121:301|92:299|64:266,1,240
74,177,92919,1,0
75,81,93616,1,2
170,77,94313,5,0
265,76,95010,1,0
262,171,95707,5,0
260,266,96404,1,0
164,266,97101,6,0,B|35:266,1,120
51,170,98496,6,0,B|51:40,1,120
147,52,99890,6,0,B|234:52,1,60
255,52,100587,2,0,B|327:52,1,60
363,51,101284,2,0,B|423:51,1,60
471,52,101981,2,0,B|471:100|469:113|450:148|428:179|404:211|385:219|358:231|338:235,1,240
130,131,106163,5,0
177,131,106511,2,0,B|240:131,1,60
285,132,107208,2,0,B|356:132,1,60
460,342,109299,6,0,B|438:288|415:262|384:246|329:241|310:242,1,180
231,219,111042,2,0,B|174:204|151:182|132:155|131:121|146:82|174:50|337:41,1,360
335,137,113830,1,2
337,232,114527,1,4
95,194,117315,6,0,B|111:158|137:140|160:133|196:133|254:161,1,180
292,178,118709,1,2
52,188,120452,5,2
100,188,120800,1,2
147,187,121149,1,2
195,189,121497,1,2
290,190,122194,2,2,B|316:164|340:149|370:152|399:175|436:207|451:228|467:265|469:292,1,240
467,324,123937,1,2
371,324,124634,5,0
231,324,125680,1,4
92,48,128468,5,0
169,104,129165,1,2
216,102,129513,2,0,B|216:42,1,60
312,41,130559,1,0
359,44,130907,2,0,B|359:104,1,60
454,111,131953,1,0
454,158,132301,2,0,B|454:228|453:228,1,60
458,313,133347,6,0,B|394:289|347:269|317:252|278:221|260:194|250:172,1,240
229,148,135089,2,0,B|7:366,1,300
84,292,137529,1,4
152,224,138226,1,4
223,159,138923,5,0
294,95,139620,1,2
372,150,140317,1,0
451,203,141014,1,2
374,261,141711,1,0
293,312,142408,1,2
290,216,143105,5,0
290,119,143802,1,2
224,189,144499,2,2,B|197:222|176:255|140:263|99:261|52:243|40:203|43:164|60:111|100:72|126:47|157:23|187:22,1,420
291,106,147984,1,4
17,194,150075,5,0
129,192,150772,1,0
224,195,151470,6,0,B|287:195,1,60
332,195,152167,1,0
341,290,152864,2,0,B|423:290,1,60
449,290,153561,1,0
448,194,154258,2,0,B|448:111,1,60
448,85,154955,1,0
352,83,155652,6,0,B|351:151|351:205|351:268|351:324|323:347|294:349|268:350|240:334|227:280|227:226|227:170|227:106|227:71,1,540
225,36,159137,1,2
91,34,159834,1,4
87,129,160531,1,4
87,225,161228,6,0,B|151:225,1,60
195,225,161925,1,2
199,129,162622,2,0,B|274:129,1,60
307,129,163319,1,2
302,224,164016,2,0,B|238:224,1,60
193,222,164713,1,2
196,126,165410,2,2,B|270:126,1,60
304,126,166107,1,2
349,229,166804,5,0
349,325,167501,1,0
253,323,168198,1,0
205,321,168547,2,2,B|125:289|97:257|72:217|59:169|58:119|74:86|90:61|90:61,1,300
479,29,172380,5,0
406,91,173077,1,2
253,208,174471,1,0
175,264,175168,1,0
95,318,175865,1,4
76,126,177259,5,0
171,125,177957,1,0
266,126,178654,1,4
267,317,180048,1,0
362,317,180745,1,0
457,317,181442,1,4
259,192,182836,5,2
257,191,184230,5,4
