osu file format v14

[General]
AudioFilename: prison.mp3
AudioLeadIn: 0
PreviewTime: 42498
Countdown: 0
SampleSet: Soft
StackLeniency: 0.7
Mode: 0
LetterboxInBreaks: 0
WidescreenStoryboard: 0

[Editor]
Bookmarks: 42579,53547,63116,137418
DistanceSpacing: 0.8
BeatDivisor: 6
GridSize: 4
TimelineZoom: 1.6

[Metadata]
Title:You Know What They Do To Guys Like Us In Prison
TitleUnicode:You Know What They Do To Guys Like Us In Prison
Artist:My Chemical Romance
ArtistUnicode:My Chemical Romance
Creator:pishifat
Version:Extra
Source:
Tags:three cheers for sweet revenge mcr metal alternative punk post hardcore
BeatmapID:738679
BeatmapSetID:333823

[Difficulty]
HPDrainRate:6.5
CircleSize:4.2
OverallDifficulty:8.6
ApproachRate:9.2
SliderMultiplier:1.9
SliderTickRate:1

[Events]
//Background and Video events
0,0,"e.jpg",0,0
//Break Periods
2,104714,113944
2,122779,125880
2,148585,150396
//Storyboard Layer 0 (Background)
//Storyboard Layer 1 (Fail)
//Storyboard Layer 2 (Pass)
//Storyboard Layer 3 (Foreground)
//Storyboard Sound Samples

[TimingPoints]
1289,322.58064516129,4,2,1,60,1,0
9030,-600,4,2,1,60,0,0
9192,-600,4,2,1,5,0,0
10966,-600,4,2,1,60,0,0
11288,-166.666666666667,4,2,1,60,0,0
11504,-166.666666666667,4,2,1,40,0,0
11611,-153.846153846154,4,2,1,60,0,0
11826,-153.846153846154,4,2,1,40,0,0
11934,-117.647058823529,4,2,1,60,0,0
12149,-117.647058823529,4,2,1,40,0,0
12256,-153.846153846154,4,2,1,60,0,0
12471,-153.846153846154,4,2,1,40,0,0
12579,-117.647058823529,4,2,1,60,0,0
12794,-117.647058823529,4,2,1,40,0,0
12901,-153.846153846154,4,2,1,60,0,0
13116,-153.846153846154,4,2,1,40,0,0
13224,-117.647058823529,4,2,1,60,0,0
13439,-117.647058823529,4,2,1,40,0,0
13547,-153.846153846154,4,2,1,60,0,0
13762,-153.846153846154,4,2,1,40,0,0
13869,-117.647058823529,4,2,1,60,0,0
14192,-153.846153846154,4,2,1,60,0,0
14407,-153.846153846154,4,2,1,40,0,0
14514,-117.647058823529,4,2,1,60,0,0
14729,-117.647058823529,4,2,1,40,0,0
14837,-153.846153846154,4,2,1,60,0,0
15052,-153.846153846154,4,2,1,60,0,0
15159,-117.647058823529,4,2,1,60,0,0
15375,-117.647058823529,4,2,1,40,0,0
15482,-153.846153846154,4,2,1,60,0,0
15697,-153.846153846154,4,2,1,40,0,0
15805,-117.647058823529,4,2,1,60,0,0
16020,-117.647058823529,4,2,1,40,0,0
16127,-153.846153846154,4,2,1,60,0,0
16450,-117.647058823529,4,2,1,60,0,0
16665,-117.647058823529,4,2,1,40,0,0
16772,-153.846153846154,4,2,1,60,0,0
16987,-153.846153846154,4,2,1,40,0,0
17095,-117.647058823529,4,2,1,60,0,0
17310,-117.647058823529,4,2,1,40,0,0
17418,-153.846153846154,4,2,1,60,0,0
17633,-153.846153846154,4,2,1,40,0,0
17740,-117.647058823529,4,2,1,60,0,0
17955,-117.647058823529,4,2,1,40,0,0
18063,-153.846153846154,4,2,1,60,0,0
18278,-153.846153846154,4,2,1,40,0,0
18385,-117.647058823529,4,2,1,60,0,0
18600,-117.647058823529,4,2,1,40,0,0
18708,-153.846153846154,4,2,1,60,0,0
18923,-153.846153846154,4,2,1,40,0,0
19030,-117.647058823529,4,2,1,60,0,0
19353,-153.846153846154,4,2,1,60,0,0
19568,-153.846153846154,4,2,1,40,0,0
19676,-117.647058823529,4,2,1,60,0,0
19891,-117.647058823529,4,2,1,40,0,0
19998,-153.846153846154,4,2,1,60,0,0
20213,-153.846153846154,4,2,1,40,0,0
20321,-117.647058823529,4,2,1,60,0,0
20536,-117.647058823529,4,2,1,40,0,0
20643,-153.846153846154,4,2,1,60,0,0
20858,-153.846153846154,4,2,1,40,0,0
20966,-117.64705882353,4,2,1,60,0,0
21181,-117.64705882353,4,2,1,40,0,0
21288,-153.846153846154,4,2,1,60,0,0
21611,-117.64705882353,4,2,1,60,0,0
21934,-153.846153846154,4,2,1,60,0,0
22149,-153.846153846154,4,2,1,40,0,0
22256,-117.64705882353,4,2,1,60,0,0
22471,-117.64705882353,4,2,1,40,0,0
22579,-153.846153846154,4,2,1,60,0,0
22794,-153.846153846154,4,2,1,40,0,0
22901,-117.64705882353,4,2,1,60,0,0
23116,-117.64705882353,4,2,1,40,0,0
23224,-153.846153846154,4,2,1,60,0,0
23439,-153.846153846154,4,2,1,40,0,0
23547,-117.64705882353,4,2,1,60,0,0
23762,-117.64705882353,4,2,1,40,0,0
23869,-153.846153846154,4,2,1,60,0,0
24084,-153.846153846154,4,2,1,40,0,0
24192,-117.64705882353,4,2,1,60,0,0
24514,-153.846153846154,4,2,1,60,0,0
24729,-153.846153846154,4,2,1,40,0,0
24837,-117.64705882353,4,2,1,60,0,0
25052,-117.64705882353,4,2,1,40,0,0
25159,-153.846153846154,4,2,1,60,0,0
25375,-153.846153846154,4,2,1,40,0,0
25482,-117.64705882353,4,2,1,60,0,0
25697,-117.64705882353,4,2,1,40,0,0
25805,-153.846153846154,4,2,1,60,0,0
26020,-153.846153846154,4,2,1,40,0,0
26127,-117.64705882353,4,2,1,60,0,0
26342,-117.64705882353,4,2,1,40,0,0
26450,-153.846153846154,4,2,1,60,0,0
26772,-117.64705882353,4,2,1,60,0,0
26987,-117.64705882353,4,2,1,40,0,0
27095,-153.846153846154,4,2,1,60,0,0
27310,-153.846153846154,4,2,1,40,0,0
27418,-117.64705882353,4,2,1,60,0,0
27633,-117.64705882353,4,2,1,40,0,0
27740,-153.846153846154,4,2,1,60,0,0
27955,-153.846153846154,4,2,1,40,0,0
28063,-117.64705882353,4,2,1,60,0,0
28278,-117.64705882353,4,2,1,40,0,0
28385,-153.846153846154,4,2,1,60,0,0
28600,-153.846153846154,4,2,1,40,0,0
28708,-117.64705882353,4,2,1,60,0,0
28923,-117.64705882353,4,2,1,40,0,0
29030,-153.846153846154,4,2,1,60,0,0
29245,-153.846153846154,4,2,1,40,0,0
29353,-117.64705882353,4,2,1,60,0,0
29676,-153.846153846154,4,2,1,60,0,0
29891,-153.846153846154,4,2,1,40,0,0
29998,-117.64705882353,4,2,1,60,0,0
30213,-117.64705882353,4,2,1,40,0,0
30321,-153.846153846154,4,2,1,60,0,0
30536,-153.846153846154,4,2,1,40,0,0
30643,-117.64705882353,4,2,1,60,0,0
30858,-117.64705882353,4,2,1,40,0,0
30966,-153.846153846154,4,2,1,60,0,0
31181,-153.846153846154,4,2,1,40,0,0
31288,-111.111111111111,4,2,1,60,0,0
31504,-117.64705882353,4,2,1,40,0,0
31611,-153.846153846154,4,2,1,60,0,0
31826,-153.846153846154,4,2,1,40,0,0
31934,-111.111111111111,4,2,1,60,0,0
32149,-117.64705882353,4,2,1,40,0,0
32256,-153.846153846154,4,2,1,60,0,0
32471,-153.846153846154,4,2,1,40,0,0
32579,-111.111111111111,4,2,1,60,0,0
32794,-111.111111111111,4,2,1,40,0,0
32901,-153.846153846154,4,2,1,60,0,0
33116,-153.846153846154,4,2,1,40,0,0
33224,-111.111111111111,4,2,1,60,0,0
33439,-111.111111111111,4,2,1,40,0,0
33547,-153.846153846154,4,2,1,60,0,0
33762,-153.846153846154,4,2,1,40,0,0
33869,-111.111111111111,4,2,1,60,0,0
34084,-111.111111111111,4,2,1,40,0,0
34192,-153.846153846154,4,2,1,60,0,0
34407,-153.846153846154,4,2,1,40,0,0
34514,-111.111111111111,4,2,1,60,0,0
34729,-111.111111111111,4,2,1,40,0,0
34837,-153.846153846154,4,2,1,60,0,0
35052,-153.846153846154,4,2,1,40,0,0
35159,-111.111111111111,4,2,1,60,0,0
35375,-111.111111111111,4,2,1,40,0,0
35482,-153.846153846154,4,2,1,60,0,0
35697,-153.846153846154,4,2,1,40,0,0
35805,-111.111111111111,4,2,1,60,0,0
36020,-111.111111111111,4,2,1,40,0,0
36127,-153.846153846154,4,2,1,60,0,0
36342,-153.846153846154,4,2,1,40,0,0
36450,-111.111111111111,4,2,1,60,0,0
36665,-111.111111111111,4,2,1,40,0,0
36772,-153.846153846154,4,2,1,60,0,0
36987,-117.64705882353,4,2,1,40,0,0
37095,-111.111111111111,4,2,1,60,0,0
37310,-111.111111111111,4,2,1,40,0,0
37418,-153.846153846154,4,2,1,60,0,0
37633,-153.846153846154,4,2,1,40,0,0
37740,-111.111111111111,4,2,1,60,0,0
37955,-111.111111111111,4,2,1,40,0,0
38063,-153.846153846154,4,2,1,60,0,0
38278,-153.846153846154,4,2,1,40,0,0
38385,-111.111111111111,4,2,1,60,0,0
38600,-111.111111111111,4,2,1,40,0,0
38708,-153.846153846154,4,2,1,60,0,0
38923,-153.846153846154,4,2,1,40,0,0
39030,-111.111111111111,4,2,1,60,0,0
39245,-111.111111111111,4,2,1,40,0,0
39353,-153.846153846154,4,2,1,60,0,0
39568,-153.846153846154,4,2,1,40,0,0
39676,-111.111111111111,4,2,1,60,0,0
39891,-111.111111111111,4,2,1,40,0,0
39998,-133.333333333333,4,2,1,60,0,0
40213,-153.846153846154,4,2,1,40,0,0
40321,-111.111111111111,4,2,1,60,0,0
40536,-111.111111111111,4,2,1,40,0,0
40643,-133.333333333333,4,2,1,60,0,0
40858,-153.846153846154,4,2,1,40,0,0
40966,-111.111111111111,4,2,1,60,0,0
41181,-111.111111111111,4,2,1,40,0,0
41288,-133.333333333333,4,2,1,60,0,0
41504,-153.846153846154,4,2,1,40,0,0
41611,-111.111111111111,4,2,1,60,0,0
41826,-111.111111111111,4,2,1,40,0,0
41934,-95.2380952380952,4,2,1,38,0,0
42095,-95.2380952380952,4,2,1,44,0,0
42256,-95.2380952380952,4,2,1,50,0,0
42418,-95.2380952380952,4,2,1,53,0,0
42579,-95.2380952380952,4,1,1,70,0,1
45079,-95.2380952380952,4,1,1,50,0,1
45159,-95.2380952380952,4,1,1,70,0,1
45482,-86.9565217391304,4,1,2,70,0,1
45563,-86.9565217391304,4,1,1,70,0,1
45805,-95.2380952380952,4,1,1,70,0,1
47256,-95.2380952380952,4,1,1,50,0,1
47740,-95.2380952380952,4,1,1,70,0,1
52256,-95.2380952380952,4,1,1,50,0,1
52579,-95.2380952380952,4,1,1,60,0,0
52901,-95.2380952380952,4,1,1,70,0,1
55401,-95.2380952380952,4,1,1,50,0,1
55482,-95.2380952380952,4,1,1,70,0,1
55805,-86.9565217391304,4,1,2,70,0,1
55885,-95.2380952380952,4,1,1,70,0,1
57579,-95.2380952380952,4,1,1,50,0,1
58063,-95.2380952380952,4,1,1,70,0,1
58385,-86.9565217391304,4,1,2,70,0,1
58466,-86.9565217391304,4,1,1,70,0,1
58708,-95.2380952380952,4,1,1,70,0,1
62579,-95.2380952380952,4,1,1,50,0,1
62901,-95.2380952380952,4,1,1,60,0,1
63224,-111.111111111111,4,2,1,60,0,0
67418,-99.9999999999999,4,2,1,60,0,0
68385,-111.111111111111,4,2,1,60,0,0
72256,-104.166666666667,4,2,1,60,0,0
72901,-104.166666666667,4,2,1,50,0,0
73547,-104.166666666667,4,2,1,60,0,0
73869,-90.9090909090909,4,2,1,60,0,0
75482,-104.166666666667,4,2,1,60,0,0
75805,-90.9090909090909,4,2,1,60,0,0
76127,-104.166666666667,4,2,1,60,0,0
81288,-99.009900990099,4,2,1,60,0,0
83224,-95.2380952380952,4,2,1,44,0,0
83385,-95.2380952380952,4,2,1,49,0,0
83547,-95.2380952380952,4,2,1,51,0,0
83708,-95.2380952380952,4,2,1,56,0,0
83869,-95.2380952380952,4,1,1,70,0,1
86369,-95.2380952380952,4,1,1,50,0,1
86450,-95.2380952380952,4,1,1,70,0,1
86772,-86.9565217391304,4,1,2,70,0,1
86853,-86.9565217391304,4,1,1,70,0,1
87095,-95.2380952380952,4,1,1,70,0,1
88063,-86.9565217391304,4,1,1,70,0,1
88547,-95.2380952380952,4,1,1,50,0,1
89030,-95.2380952380952,4,1,1,70,0,1
93547,-95.2380952380952,4,1,1,50,0,1
93869,-95.2380952380952,4,1,1,60,0,0
94192,-95.2380952380952,4,1,1,70,0,1
96692,-95.2380952380952,4,1,1,50,0,1
96772,-95.2380952380952,4,1,1,70,0,1
97095,-86.9565217391304,4,1,2,70,0,1
97176,-86.9565217391304,4,1,1,70,0,1
97418,-95.2380952380952,4,1,1,70,0,1
98869,-95.2380952380952,4,1,1,50,0,1
99353,-95.2380952380952,4,1,1,70,0,1
99676,-86.9565217391304,4,1,2,70,0,1
99756,-86.9565217391304,4,1,1,70,0,1
99998,-95.2380952380952,4,1,1,70,0,1
103869,-95.2380952380952,4,1,1,50,0,1
104192,-95.2380952380952,4,1,1,60,0,1
104514,-125,4,1,1,70,0,0
114837,-125,4,2,1,60,0,0
122579,-125,4,2,1,70,0,0
127418,-111.111111111111,4,2,1,70,0,0
127659,-111.111111111111,4,2,1,40,0,0
127740,-100,4,1,1,70,0,0
129837,-100,4,1,1,50,0,0
130321,-100,4,1,1,70,0,0
133224,-90.9090909090909,4,1,1,70,0,0
133547,-100,4,1,1,70,0,0
140159,-100,4,1,1,50,0,0
140643,-100,4,1,1,70,0,0
143143,-100,4,1,1,50,0,0
143224,-100,4,1,1,70,0,0
146127,-100,4,1,1,70,0,0
146772,-83.3333333333333,4,1,1,70,0,0
147418,-71.4285714285714,4,1,1,70,0,0
147740,-100,4,1,1,50,0,0
148385,-100,4,1,1,70,0,0
150966,-76.9230769230769,4,1,1,70,0,1
151288,-95.2380952380952,4,1,1,70,0,1
153547,-117.647058823529,4,2,1,60,0,0
154111,-117.647058823529,4,2,1,60,0,0
155805,-200,4,1,1,70,0,0
156127,-95.2380952380952,4,1,1,70,0,1
158063,-95.2380952380952,4,1,1,50,0,1
158385,-95.2380952380952,4,1,1,60,0,0
158708,-95.2380952380952,4,1,1,70,0,1
161208,-95.2380952380952,4,1,1,50,0,1
161288,-95.2380952380952,4,1,1,70,0,1
161611,-86.9565217391304,4,1,2,70,0,1
161692,-86.9565217391304,4,1,1,70,0,1
161934,-95.2380952380952,4,1,1,70,0,1
163385,-95.2380952380952,4,1,1,50,0,1
163869,-95.2380952380952,4,1,1,70,0,1
168385,-95.2380952380952,4,1,1,50,0,1
168708,-95.2380952380952,4,1,1,60,0,1
169030,-111.111111111111,4,1,1,70,0,0
169353,-90.9090909090909,4,1,2,70,0,0
169676,-111.111111111111,4,1,1,70,0,0
169998,-90.9090909090909,4,1,2,70,0,0
170321,-111.111111111111,4,1,1,70,0,0
170643,-90.9090909090909,4,1,2,70,0,0
170966,-111.111111111111,4,1,1,70,0,0
171288,-90.9090909090909,4,1,2,70,0,0
171611,-111.111111111111,4,1,1,70,0,0
171934,-90.9090909090909,4,1,2,70,0,0
172256,-111.111111111111,4,1,1,70,0,0
172579,-90.9090909090909,4,1,2,70,0,0
172901,-90.9090909090909,4,1,1,70,0,0

[Colours]
Combo1 : 194,205,220
Combo2 : 180,181,153
Combo3 : 147,163,183
Combo4 : 123,159,149

[HitObjects]
56,145,9030,6,0,B|85:145|112:138|112:138|134:149|134:149|164:136|212:139|238:166,1,190
284,260,11181,5,8,0:0:0:0:
284,260,11288,1,2,0:0:0:0:
284,260,11611,6,0,L|282:346,1,82.3333295644126,2|0,0:0|0:0,0:0:0:0:
333,168,11934,2,0,P|375:152|477:147,1,107.666668720245,8|0,0:0|0:0,0:0:0:0:
381,60,12256,2,0,L|288:50,1,82.3333295644126,2|0,0:0|0:0,0:0:0:0:
129,144,12579,2,0,B|117:102|117:102|124:26,1,107.666668720245,8|0,0:0|0:0,0:0:0:0:
140,156,12901,6,0,L|48:164,1,82.3333295644126,2|0,0:0|0:0,0:0:0:0:
198,283,13224,2,0,L|324:273,1,107.666668720245,8|0,0:0|0:0,0:0:0:0:
413,182,13547,2,0,P|371:170|326:168,1,82.3333295644126,2|0,0:0|0:0,0:0:0:0:
504,96,13869,1,8,0:0:0:0:
466,321,14084,1,8,0:0:0:0:
466,321,14192,6,0,L|372:314,1,82.3333295644126,2|0,0:0|0:0,0:0:0:0:
210,277,14514,2,0,B|196:319|196:319|189:396,1,107.666668720245,8|0,0:0|0:0,0:0:0:0:
288,217,14837,2,0,P|283:172|271:133,1,82.3333295644126,2|0,0:0|0:0,0:0:0:0:
119,58,15159,2,0,L|236:53,1,107.666668720245,8|0,0:0|0:0,0:0:0:0:
105,51,15482,6,0,P|50:77|32:95,1,82.3333295644126,2|0,0:0|0:0,0:0:0:0:
100,251,15805,2,0,P|103:194|112:140,1,107.666668720245,8|0,0:0|0:0,0:0:0:0:
288,217,16127,1,2,0:0:0:0:
8,328,16342,1,8,0:0:0:0:
8,328,16450,2,2,L|137:337,1,107.666668720245,2|0,0:0|2:0,2:0:0:0:
316,349,16772,6,0,P|356:345|396:332,1,82.3333295644126,2|0,0:0|0:0,0:0:0:0:
340,149,17095,2,0,B|330:192|330:192|337:256,1,107.666668720245,8|0,0:0|0:0,0:0:0:0:
426,199,17418,2,0,L|507:191,1,82.3333295644126,2|0,0:0|0:0,0:0:0:0:
303,72,17740,2,0,P|250:82|199:107,1,107.666668720245,8|0,0:0|0:0,0:0:0:0:
158,262,18063,6,0,L|163:168,1,82.3333295644126,2|0,0:0|0:0,0:0:0:0:
152,22,18385,2,0,B|111:39|111:39|36:30,1,107.666668720245,8|0,0:0|0:0,0:0:0:0:
165,33,18708,2,0,P|194:75|203:117,1,82.3333295644126,2|0,0:0|0:0,0:0:0:0:
73,224,19030,1,8,0:0:0:0:
294,204,19245,1,8,0:0:0:0:
294,204,19353,6,0,L|390:198,1,82.3333295644126,2|0,0:0|0:0,0:0:0:0:
465,63,19676,2,0,P|396:84|354:118,1,107.666668720245,8|0,0:0|0:0,0:0:0:0:
294,204,19998,2,0,B|254:208|254:208|203:197,1,82.3333295644126,2|0,0:0|0:0,0:0:0:0:
178,10,20321,2,0,B|192:50|192:50|186:131,1,107.666668720245,8|0,0:0|0:0,0:0:0:0:
131,252,20643,6,0,P|100:238|47:231,1,82.3333295644126,2|0,0:0|0:0,0:0:0:0:
227,319,20966,2,0,L|349:313,1,107.666668720245,8|0,0:0|0:0,0:0:0:0:
458,352,21288,1,2,0:0:0:0:
449,208,21504,1,8,0:0:0:0:
466,211,21611,1,2,0:0:0:0:
363,96,21826,1,8,0:0:0:0:
378,89,21934,6,0,L|471:81,1,82.3333295644126,2|0,0:0|0:0,0:0:0:0:
285,150,22256,2,0,B|247:130|247:130|168:121,1,107.666668720245,8|0,0:0|0:0,0:0:0:0:
132,224,22579,2,0,P|177:216|219:216,1,82.3333295644126,2|0,0:0|0:0,0:0:0:0:
19,164,22901,2,0,L|14:39,1,107.666668720245,8|0,0:0|0:0,0:0:0:0:
122,20,23224,6,0,P|108:65|104:110,1,82.3333295644126,2|0,0:0|0:0,0:0:0:0:
135,306,23547,2,0,B|92:314|92:314|27:298,1,107.666668720245,8|0,0:0|0:0,0:0:0:0:
227,248,23869,2,0,P|245:294|245:335,1,82.3333295644126,2|0,0:0|0:0,0:0:0:0:
341,170,24192,1,8,0:0:0:0:
128,201,24407,1,8,0:0:0:0:
128,201,24514,6,0,L|131:110,1,82.3333295644126,2|0,0:0|0:0,0:0:0:0:
240,8,24837,2,0,P|187:31|135:24,1,107.666668720245,8|0,0:0|0:0,0:0:0:0:
258,15,25159,2,0,B|275:44|275:44|286:95,1,82.3333295644126,2|0,0:0|0:0,0:0:0:0:
302,238,25482,2,0,P|362:218|417:217,1,107.666668720245,8|0,0:0|0:0,0:0:0:0:
512,308,25805,6,0,L|430:302,1,82.3333295644126,2|0,0:0|0:0,0:0:0:0:
225,373,26127,2,0,B|214:329|214:329|224:253,1,107.666668720245,8|0,0:0|0:0,0:0:0:0:
341,318,26450,1,2,0:0:0:0:
232,180,26665,1,8,0:0:0:0:
232,180,26772,2,2,P|184:182|126:204,1,107.666668720245,2|0,0:0|0:0,0:0:0:0:
35,344,27095,6,0,L|30:257,1,82.3333295644126,2|0,0:0|0:0,0:0:0:0:
62,55,27418,2,0,B|68:99|68:99|52:184,1,107.666668720245,8|0,0:0|0:0,0:0:0:0:
147,26,27740,2,0,P|177:29|226:47,1,82.3333295644126,2|0,0:0|0:0,0:0:0:0:
316,196,28063,2,0,L|447:188,1,107.666668720245,8|0,0:0|0:0,0:0:0:0:
232,180,28385,6,0,B|216:212|216:212|208:271,1,82.3333295644126,2|0,0:0|0:0,0:0:0:0:
381,350,28708,2,0,P|343:327|262:322,1,107.666668720245,8|0,0:0|0:0,0:0:0:0:
111,356,29030,2,0,L|195:350,1,82.3333295644126,2|0,0:0|0:0,0:0:0:0:
316,196,29353,1,8,0:0:0:0:
122,264,29568,1,8,0:0:0:0:
122,264,29676,6,0,P|75:261|31:251,1,82.3333295644126,2|0,0:0|0:0,0:0:0:0:
109,108,29998,2,0,L|234:101,1,107.666668720245,8|0,0:0|0:0,0:0:0:0:
310,20,30321,2,0,B|271:8|271:8|230:5,1,82.3333295644126,2|0,0:0|0:0,0:0:0:0:
316,196,30643,2,0,B|359:179|359:179|441:172,1,107.666668720245,8|0,0:0|0:0,0:0:0:0:
474,285,30966,6,0,L|385:276,1,82.3333295644126,2|0,0:0|0:0,0:0:0:0:
210,229,31288,2,0,P|203:184|241:103,1,113.999996520996,8|0,0:0|0:0,0:0:0:0:
309,316,31611,1,2,0:0:0:0:
309,316,31934,2,0,P|192:326|169:329,1,113.999996520996,8|0,0:0|0:0,0:0:0:0:
38,250,32256,6,0,P|84:254|134:269,1,82.3333295644126,2|0,0:0|0:0,0:0:0:0:
233,136,32579,2,0,P|160:143|103:157,1,113.999996520996,8|0,0:0|0:0,0:0:0:0:
201,48,32901,2,0,L|289:54,1,82.3333295644126,2|0,0:0|0:0,0:0:0:0:
336,249,33224,2,0,B|323:207|323:207|333:115,1,113.999996520996,8|0,0:0|0:0,0:0:0:0:
488,188,33547,6,0,L|401:195,1,82.3333295644126,2|0,0:0|0:0,0:0:0:0:
428,0,33869,2,0,P|446:36|437:116,1,113.999996520996,8|0,0:0|0:0,0:0:0:0:
283,53,34192,2,0,P|233:47|190:47,1,82.3333295644126,2|0,0:0|0:0,0:0:0:0:
38,131,34514,1,8,0:0:0:0:
38,131,34837,6,0,B|79:135|79:135|125:147,1,82.3333295644126,2|0,0:0|0:0,0:0:0:0:
235,266,35159,2,0,L|368:257,1,113.999996520996,8|0,0:0|0:0,0:0:0:0:
221,277,35482,2,0,P|205:314|197:359,1,82.3333295644126,2|0,0:0|0:0,0:0:0:0:
313,165,35805,2,0,B|269:148|269:148|196:142,1,113.999996520996,8|0,0:0|0:0,0:0:0:0:
83,218,36127,6,0,L|-14:221,1,82.3333295644126,2|0,0:0|0:0,0:0:0:0:
190,152,36450,2,0,P|213:103|202:30,1,113.999996520996,8|0,0:0|0:0,0:0:0:0:
44,75,36772,2,0,B|85:84|85:84|127:86,1,82.3333295644126,2|0,0:0|0:0,0:0:0:0:
324,43,37095,1,8,0:0:0:0:
324,43,37418,6,0,L|330:144,1,82.3333295644126,2|0,0:0|0:0,0:0:0:0:
298,260,37740,2,0,B|338:239|338:239|426:230,1,113.999996520996,8|0,0:0|0:0,0:0:0:0:
237,319,38063,2,0,P|192:307|150:302,1,82.3333295644126,2|0,0:0|0:0,0:0:0:0:
247,182,38385,2,0,L|243:55,1,113.999996520996,8|0,0:0|0:0,0:0:0:0:
120,217,38708,6,0,P|58:222|28:218,1,82.3333295644126,2|0,0:0|0:0,0:0:0:0:
43,39,39030,2,0,B|97:45|97:45|170:70,1,113.999996520996,8|0,0:0|0:0,0:0:0:0:
262,169,39353,2,0,L|350:162,1,82.3333295644126,2|0,0:0|0:0,0:0:0:0:
482,40,39676,1,8,0:0:0:0:
482,40,39998,6,0,P|490:78|493:152,1,95.0000036239625,2|0,0:0|0:0,0:0:0:0:
346,38,40321,2,0,L|216:30,1,113.999996520996,8|0,0:0|0:0,0:0:0:0:
106,130,40643,2,0,P|154:118|203:116,1,95.0000036239625,2|0,0:0|0:0,0:0:0:0:
296,293,40966,2,0,B|276:251|276:251|269:164,1,113.999996520996,8|0,0:0|0:0,0:0:0:0:
385,253,41288,6,0,L|381:355,1,95.0000036239625,2|0,0:0|0:0,0:0:0:0:
477,128,41611,2,0,P|416:132|353:154,1,113.999996520996,8|0,0:0|0:0,0:0:0:0:
216,288,41934,1,8,0:0:0:0:
193,280,42014,1,8,0:0:0:0:
177,256,42095,1,8,0:0:0:0:
180,229,42176,1,8,0:0:0:0:
207,208,42256,1,8,0:0:0:0:
246,208,42337,1,8,0:0:0:0:
290,214,42418,1,8,0:0:0:0:
331,196,42498,1,8,0:0:0:0:
350,156,42579,6,0,L|345:55,1,99.7499969558717,6|2,0:0|0:0,0:0:0:0:
94,192,42901,2,0,L|87:305,1,99.7499969558717,8|0,0:0|0:0,0:0:0:0:
87,292,43143,1,8,0:3:0:0:
87,292,43224,1,10,0:3:0:0:
220,257,43385,1,2,0:0:0:0:
0,186,43547,1,8,0:0:0:0:
164,87,43708,1,0,0:0:0:0:
95,300,43869,6,0,B|54:315|54:315|-9:310,1,99.7499969558717,2|2,0:0|0:0,0:0:0:0:
260,167,44192,2,0,P|312:163|391:161,1,99.7499969558717,8|0,0:0|0:0,0:0:0:0:
359,161,44434,1,8,0:3:0:0:
359,161,44514,1,10,0:3:0:0:
279,257,44676,1,2,0:0:0:0:
379,42,44837,1,8,0:0:0:0:
440,226,44998,1,0,0:0:0:0:
453,229,45079,1,12,0:3:0:0:
464,232,45159,5,6,0:0:0:0:
313,95,45321,1,2,0:0:0:0:
205,348,45482,2,0,B|234:355|266:352|266:352|305:332|305:332|379:341,1,163.875003125668,12|8,0:2|0:3,0:0:0:0:
363,339,45805,1,10,0:3:0:0:
311,168,45966,1,2,0:0:0:0:
147,275,46127,2,0,B|107:279|107:279|44:267,1,99.7499969558717,8|0,0:0|0:0,0:0:0:0:
262,90,46450,5,2,0:0:0:0:
262,90,46611,1,2,0:0:0:0:
381,250,46772,2,0,B|426:255|426:255|491:242,1,99.7499969558717,8|0,0:0|0:0,0:0:0:0:
422,0,47095,1,2,0:0:0:0:
321,167,47256,1,8,0:0:0:0:
281,184,47337,1,8,0:0:0:0:
237,184,47418,1,8,0:0:0:0:
198,164,47498,1,8,0:0:0:0:
156,153,47579,1,8,0:0:0:0:
114,165,47659,1,8,0:0:0:0:
77,191,47740,6,0,B|71:311,1,99.7499969558717,6|2,0:0|0:0,0:0:0:0:
318,151,48063,2,0,B|313:11,1,99.7499969558717,8|0,0:0|0:0,0:0:0:0:
314,51,48304,1,8,0:3:0:0:
314,51,48385,1,10,0:3:0:0:
448,132,48547,1,2,0:0:0:0:
206,83,48708,1,8,0:0:0:0:
394,5,48869,1,0,0:0:0:0:
316,253,49030,6,0,B|277:269|277:269|196:277,1,99.7499969558717,2|2,0:0|0:0,0:0:0:0:
128,69,49353,2,0,P|70:58|7:65,1,99.7499969558717,8|0,0:0|0:0,0:0:0:0:
30,60,49595,1,8,0:3:0:0:
30,60,49676,1,10,0:3:0:0:
161,213,49837,1,2,0:0:0:0:
309,23,49998,2,0,P|365:12|476:78,1,149.624995433808,8|0,0:0|0:0,0:0:0:0:
488,156,50321,5,6,0:0:0:0:
488,156,50482,1,2,0:0:0:0:
288,192,50643,2,0,B|273:150|273:150|278:91,1,99.7499969558717,8|0,0:0|0:0,0:0:0:0:
428,281,50966,5,2,0:0:0:0:
428,281,51127,1,2,0:0:0:0:
191,271,51288,2,0,B|166:235|166:235|158:174,1,99.7499969558717,8|0,0:0|0:0,0:0:0:0:
339,317,51611,5,2,0:0:0:0:
339,317,51772,1,2,0:0:0:0:
96,351,51934,1,8,0:0:0:0:
271,190,52095,1,2,0:0:0:0:
201,354,52256,1,8,0:0:0:0:
168,323,52337,1,8,0:0:0:0:
153,280,52418,1,8,0:0:0:0:
155,235,52498,1,8,0:0:0:0:
170,192,52579,1,8,0:0:0:0:
161,148,52659,1,8,0:0:0:0:
133,112,52740,1,8,0:0:0:0:
89,100,52821,1,8,0:0:0:0:
47,116,52901,5,6,0:0:0:0:
290,192,53063,2,0,P|333:193|401:181,1,99.7499969558717,2|8,0:0|0:0,0:0:0:0:
199,61,53385,1,0,0:0:0:0:
248,269,53547,2,0,P|299:279|363:280,1,99.7499969558717,2|2,0:0|0:0,0:0:0:0:
139,140,53869,1,8,0:0:0:0:
124,339,54030,1,0,0:0:0:0:
124,339,54111,1,10,0:3:0:0:
124,339,54192,5,10,0:3:0:0:
67,201,54353,1,2,0:0:0:0:
262,260,54514,2,0,B|282:220|282:220|292:134,1,99.7499969558717,8|0,0:0|0:0,0:0:0:0:
290,145,54756,1,8,0:3:0:0:
292,125,54837,1,10,0:3:0:0:
192,189,54998,1,2,0:0:0:0:
413,257,55159,1,8,0:0:0:0:
361,37,55321,1,0,0:0:0:0:
361,37,55401,1,12,0:3:0:0:
361,37,55482,6,0,L|493:49,1,99.7499969558717,6|2,0:0|0:0,0:0:0:0:
130,19,55805,2,0,P|52:60|15:108,1,109.250002083778,12|0,0:2|0:0,0:0:0:0:
251,244,56127,1,2,0:0:0:0:
290,101,56288,1,2,0:0:0:0:
290,101,56369,1,0,0:0:0:0:
290,101,56450,2,0,B|232:103|232:103|132:134,1,149.624995433808,8|0,0:0|0:0,0:0:0:0:
94,214,56772,5,2,0:0:0:0:
110,52,56934,1,2,0:0:0:0:
306,179,57095,2,0,B|349:189|349:189|419:193,1,99.7499969558717,8|0,0:0|0:0,0:0:0:0:
386,0,57418,1,2,0:0:0:0:
211,144,57579,1,8,0:0:0:0:
200,187,57659,1,8,0:0:0:0:
216,229,57740,1,8,0:0:0:0:
244,264,57821,1,8,0:0:0:0:
258,305,57901,1,8,0:0:0:0:
250,349,57982,1,8,0:0:0:0:
215,377,58063,6,0,B|96:383,1,99.7499969558717,6|2,0:0|0:0,0:0:0:0:
307,178,58385,2,0,B|350:171|350:171|372:178|372:178|420:161|465:188,1,163.875003125668,12|8,0:2|0:3,0:0:0:0:
465,188,58708,1,10,0:3:0:0:
404,60,58869,1,2,0:0:0:0:
289,259,59030,2,0,B|247:264|247:264|155:247,1,99.7499969558717,8|0,0:0|0:0,0:0:0:0:
58,95,59353,5,2,0:0:0:0:
58,95,59514,1,2,0:0:0:0:
108,276,59676,2,0,L|116:410,1,99.7499969558717,8|0,0:0|0:0,0:0:0:0:
114,376,59918,1,8,0:3:0:0:
114,376,59998,1,10,0:3:0:0:
0,313,60159,1,2,0:0:0:0:
182,191,60321,2,0,P|260:182|355:177,1,149.624995433808,8|0,0:0|0:0,0:0:0:0:
446,229,60643,5,6,0:0:0:0:
446,229,60805,1,2,0:0:0:0:
240,135,60966,2,0,B|224:96|224:96|215:21,1,99.7499969558717,8|0,0:0|0:0,0:0:0:0:
367,284,61288,5,2,0:0:0:0:
367,284,61450,1,2,0:0:0:0:
314,99,61611,2,0,B|309:56|309:56|322:-5,1,99.7499969558717,8|0,0:0|0:0,0:0:0:0:
283,332,61934,5,2,0:0:0:0:
283,332,62095,1,2,0:0:0:0:
395,118,62256,1,8,0:0:0:0:
437,310,62418,1,2,0:0:0:0:
206,140,62579,1,8,0:0:0:0:
168,165,62659,1,8,0:0:0:0:
170,209,62740,1,8,0:0:0:0:
209,231,62821,1,8,0:0:0:0:
251,215,62901,1,8,0:0:0:0:
255,170,62982,1,8,0:0:0:0:
232,130,63063,1,8,0:0:0:0:
227,85,63143,1,8,0:0:0:0:
241,45,63224,6,0,P|276:31|334:26,1,85.4999973907472,6|2,0:0|0:0,0:0:0:0:
482,128,63547,2,0,L|347:122,1,128.249996086121,8|0,0:0|1:0,0:0:0:0:
353,122,63869,2,0,P|331:173|325:214,1,85.4999973907472,2|2,0:0|0:0,0:0:0:0:
384,325,64192,1,8,0:0:0:0:
384,325,64353,1,0,0:0:0:0:
234,311,64514,6,0,P|211:258|210:209,1,85.4999973907472,2|2,0:0|0:0,0:0:0:0:
252,20,64837,2,0,B|265:70|265:70|256:172,1,128.249996086121,8|0,0:0|1:0,0:0:0:0:
258,146,65159,2,0,P|212:132|156:138,1,85.4999973907472,2|2,0:3|0:0,0:0:0:0:
35,195,65482,1,8,0:0:0:0:
35,195,65643,1,0,0:0:0:0:
148,319,65805,6,0,B|245:309,1,85.4999973907472,2|2,0:0|0:0,0:0:0:0:
412,237,66127,2,0,P|364:227|263:220,1,128.249996086121,8|0,0:0|1:0,0:0:0:0:
285,219,66450,2,0,P|271:178|274:122,1,85.4999973907472,2|2,0:0|0:0,0:0:0:0:
337,315,66772,1,8,0:0:0:0:
337,315,66934,1,0,0:0:0:0:
387,142,67095,6,0,L|392:43,1,85.4999973907472,2|2,0:0|0:0,0:0:0:0:
270,232,67418,2,0,P|225:243|161:242,1,95,8|0,0:0|0:0,0:0:0:0:
176,243,67659,1,0,1:0:0:0:
176,243,67740,1,2,0:0:0:0:
337,315,67901,1,2,0:0:0:0:
305,130,68063,2,0,B|270:119|270:119|201:114,1,95,8|0,0:0|0:0,0:0:0:0:
34,153,68385,6,0,L|124:149,1,85.4999973907472,2|2,0:0|0:0,0:0:0:0:
76,373,68708,2,0,B|54:323|54:323|66:211,1,128.249996086121,8|0,0:0|1:0,0:0:0:0:
61,249,69030,2,0,P|135:268|182:267,1,85.4999973907472,2|2,0:0|0:0,0:0:0:0:
272,215,69353,1,8,0:0:0:0:
272,215,69514,1,0,0:0:0:0:
324,366,69676,6,0,L|431:361,1,85.4999973907472,2|2,0:0|0:0,0:0:0:0:
218,284,69998,2,0,P|185:230|207:144,1,128.249996086121,8|0,0:0|1:0,0:0:0:0:
191,167,70321,2,0,L|96:176,1,85.4999973907472,2|2,0:0|0:0,0:0:0:0:
259,69,70643,1,8,0:0:0:0:
259,69,70805,1,0,0:0:0:0:
354,232,70966,6,0,P|402:248|463:246,1,85.4999973907472,2|2,0:0|0:0,0:0:0:0:
273,85,71288,2,0,L|158:78,1,85.4999973907472,8|0,0:0|0:0,0:0:0:0:
187,79,71530,1,0,1:3:0:0:
187,79,71611,1,2,0:0:0:0:
367,46,71772,1,2,0:0:0:0:
319,217,71934,2,0,B|280:230|280:230|198:234,1,85.4999973907472,8|0,0:0|0:0,0:0:0:0:
56,144,72256,5,2,0:0:0:0:
56,144,72418,1,2,0:0:0:0:
125,292,72579,2,0,L|128:393,1,91.2000022265626,8|0,0:0|0:0,0:0:0:0:
140,93,72901,1,8,0:0:0:0:
115,66,72982,1,8,0:0:0:0:
82,49,73063,1,8,0:0:0:0:
45,46,73143,1,8,0:0:0:0:
10,57,73224,1,8,0:0:0:0:
140,201,73385,1,8,0:0:0:0:
140,201,73466,1,8,0:0:0:0:
140,201,73547,5,2,0:0:0:0:
44,243,73708,1,2,0:0:0:0:
155,82,73869,2,0,B|201:69|201:69|296:60,1,104.500003189087,12|0,0:0|0:0,0:0:0:0:
114,303,74192,5,2,0:0:0:0:
114,303,74353,1,2,0:0:0:0:
234,145,74514,2,0,B|280:142|280:142|375:160,1,104.500003189087,12|0,0:0|0:0,0:0:0:0:
159,384,74837,5,2,0:0:0:0:
159,384,74998,1,2,0:0:0:0:
293,228,75159,2,0,B|338:237|338:237|426:279,1,104.500003189087,12|0,0:0|0:0,0:0:0:0:
64,379,75482,6,0,L|3:372,1,45.6000011132813,2|0,0:0|0:0,0:0:0:0:
210,308,75643,2,0,L|261:302,1,45.6000011132813,2|0,0:0|0:0,0:0:0:0:
82,212,75805,2,0,P|66:175|68:106,1,104.500003189087,12|0,0:0|0:0,0:0:0:0:
117,45,76047,1,0,0:0:0:0:
128,55,76127,6,0,B|166:64|166:64|228:62,1,91.2000022265626,6|2,0:0|0:0,0:0:0:0:
448,99,76450,2,0,P|397:100|294:111,1,136.800003339844,8|0,0:0|1:3,0:0:0:0:
311,108,76772,2,0,B|331:145|331:145|339:199,1,91.2000022265626,2|2,0:0|0:0,0:0:0:0:
311,338,77095,1,8,0:0:0:0:
311,338,77256,1,0,0:0:0:0:
462,274,77418,6,0,L|466:180,1,91.2000022265626,2|2,0:0|0:0,0:0:0:0:
278,257,77740,2,0,B|232:264|232:264|116:242,1,136.800003339844,8|0,0:0|1:3,0:0:0:0:
143,247,78063,2,0,P|89:265|47:296,1,91.2000022265626,2|2,0:0|0:0,0:0:0:0:
228,177,78385,1,8,0:0:0:0:
228,177,78547,1,0,0:0:0:0:
214,344,78708,6,0,P|258:357|307:357,1,91.2000022265626,2|2,0:0|0:0,0:0:0:0:
143,247,79030,2,0,L|135:89,1,136.800003339844,8|0,0:0|1:3,0:0:0:0:
136,110,79353,2,0,P|76:133|20:131,1,91.2000022265626,2|2,0:0|0:0,0:0:0:0:
209,25,79676,1,8,0:0:0:0:
209,25,79837,1,0,0:0:0:0:
269,191,79998,6,0,L|366:198,1,91.2000022265626,2|2,0:0|0:0,0:0:0:0:
217,33,80321,2,0,P|151:36|50:58,1,136.800003339844,8|0,0:0|1:3,0:0:0:0:
81,49,80643,2,0,B|44:63|44:63|-27:69,1,91.2000022265626,2|2,0:0|0:0,0:0:0:0:
100,248,80966,2,0,L|205:237,1,91.2000022265626,8|0,0:0|0:0,0:0:0:0:
343,46,81288,5,2,0:0:0:0:
343,46,81450,1,2,0:0:0:0:
390,225,81611,2,0,B|430:242|430:242|508:250,1,95.949998096695,8|0,0:0|0:0,0:0:0:0:
254,121,81934,1,2,0:0:0:0:
274,238,82095,1,2,0:0:0:0:
450,148,82256,2,0,B|465:109|465:109|460:39,1,95.949998096695,8|0,0:0|0:0,0:0:0:0:
351,318,82579,5,2,0:0:0:0:
482,247,82740,1,2,0:0:0:0:
277,83,82901,2,0,P|229:79|167:77,1,95.949998096695,8|0,0:0|0:0,0:0:0:0:
231,309,83224,1,8,0:0:0:0:
256,300,83305,1,8,0:0:0:0:
274,277,83385,1,8,0:0:0:0:
280,244,83466,1,8,0:0:0:0:
277,209,83547,1,8,0:0:0:0:
263,166,83627,1,8,0:0:0:0:
254,121,83708,1,8,0:0:0:0:
277,83,83788,1,8,0:0:0:0:
316,60,83869,6,0,B|356:55|356:55|421:63,1,99.7499969558717,6|2,0:0|0:0,0:0:0:0:
195,236,84192,2,0,L|61:245,1,99.7499969558717,8|0,0:0|0:0,0:0:0:0:
75,245,84434,1,8,0:3:0:0:
55,247,84514,1,10,0:3:0:0:
135,138,84676,1,2,0:0:0:0:
203,343,84837,1,8,0:0:0:0:
338,176,84998,1,0,0:0:0:0:
55,247,85159,6,0,B|44:286|44:286|39:366,1,99.7499969558717,2|2,0:0|0:0,0:0:0:0:
237,210,85482,2,0,L|240:85,1,99.7499969558717,8|0,0:0|0:0,0:0:0:0:
239,110,85724,1,8,0:3:0:0:
239,110,85805,1,10,0:3:0:0:
349,258,85966,1,2,0:0:0:0:
132,200,86127,1,8,0:0:0:0:
299,31,86288,1,0,0:0:0:0:
311,39,86369,1,12,0:3:0:0:
325,48,86450,5,6,0:0:0:0:
169,75,86611,1,2,0:0:0:0:
415,197,86772,2,0,B|421:171|419:137|419:137|400:96|400:96|412:17,1,163.875003125668,12|8,0:2|0:3,0:0:0:0:
409,38,87095,1,10,0:3:0:0:
296,164,87256,1,2,0:0:0:0:
497,108,87418,2,0,P|515:38|506:-8,1,99.7499969558717,8|0,0:0|0:0,0:0:0:0:
425,281,87740,5,2,0:0:0:0:
425,281,87901,1,2,0:0:0:0:
296,164,88063,2,0,P|259:158|147:152,2,109.250002083778,8|0|2,0:0|0:0|0:0,0:0:0:0:
473,347,88547,1,8,0:0:0:0:
429,358,88627,1,8,0:0:0:0:
385,348,88708,1,8,0:0:0:0:
349,321,88788,1,8,0:0:0:0:
306,306,88869,1,8,0:0:0:0:
261,309,88950,1,8,0:0:0:0:
228,339,89030,5,6,0:0:0:0:
358,227,89192,1,2,0:0:0:0:
180,126,89353,2,0,P|142:125|80:131,1,99.7499969558717,8|0,0:0|0:0,0:0:0:0:
80,130,89595,1,8,0:3:0:0:
80,130,89676,1,10,0:3:0:0:
259,59,89837,1,2,0:0:0:0:
140,239,89998,1,8,0:0:0:0:
124,38,90159,1,0,0:0:0:0:
267,216,90321,6,0,L|374:223,1,99.7499969558717,2|2,0:0|0:0,0:0:0:0:
77,163,90643,2,0,P|54:204|46:278,1,99.7499969558717,8|0,0:0|0:0,0:0:0:0:
44,255,90885,1,8,0:3:0:0:
44,255,90966,1,10,0:3:0:0:
2,109,91127,1,2,0:0:0:0:
157,313,91288,2,0,B|214:338|214:338|324:325,1,149.624995433808,8|0,0:0|0:0,0:0:0:0:
401,349,91611,5,6,0:0:0:0:
401,349,91772,1,2,0:0:0:0:
323,135,91934,2,0,B|284:120|284:120|200:115,1,99.7499969558717,8|0,0:0|0:0,0:0:0:0:
475,280,92256,5,2,0:0:0:0:
475,280,92417,1,2,0:0:0:0:
259,207,92579,2,0,B|211:203|211:203|129:222,1,99.7499969558717,8|0,0:0|0:0,0:0:0:0:
496,189,92901,5,2,0:0:0:0:
496,189,93063,1,2,0:0:0:0:
234,298,93224,1,8,0:0:0:0:
444,330,93385,1,2,0:0:0:0:
331,112,93547,1,8,0:0:0:0:
286,106,93627,1,8,0:0:0:0:
241,114,93708,1,8,0:0:0:0:
203,137,93788,1,8,0:0:0:0:
172,170,93869,1,8,0:0:0:0:
130,186,93950,1,8,0:0:0:0:
85,183,94030,1,8,0:0:0:0:
47,157,94111,1,8,0:0:0:0:
30,115,94192,5,6,0:0:0:0:
272,203,94353,2,0,P|297:286|301:343,1,99.7499969558717,2|8,0:0|0:0,0:0:0:0:
115,98,94676,1,0,0:0:0:0:
187,274,94837,2,0,P|183:351|178:382,1,99.7499969558717,2|2,0:0|0:0,0:0:0:0:
199,81,95159,1,8,0:0:0:0:
87,314,95321,1,0,0:0:0:0:
87,314,95401,1,8,0:3:0:0:
87,314,95482,5,10,0:3:0:0:
0,214,95643,1,2,0:0:0:0:
210,151,95805,2,0,L|332:155,1,99.7499969558717,8|0,0:0|0:0,0:0:0:0:
309,154,96047,1,8,0:3:0:0:
309,154,96127,1,10,0:3:0:0:
235,47,96288,1,2,0:0:0:0:
284,264,96450,1,8,0:0:0:0:
373,77,96611,1,0,0:0:0:0:
387,73,96692,1,12,0:3:0:0:
398,70,96772,5,6,0:0:0:0:
198,137,96934,1,2,0:0:0:0:
457,291,97095,2,0,B|468:264|469:238|469:238|450:196|450:196|460:123,1,163.875003125668,12|8,0:2|0:3,0:0:0:0:
390,249,97418,2,0,P|336:272|274:268,1,99.7499969558717,10|2,0:3|0:0,0:0:0:0:
303,66,97740,2,0,B|321:105|321:105|317:177,1,99.7499969558717,8|0,0:0|0:0,0:0:0:0:
276,358,98063,5,2,0:0:0:0:
225,188,98224,1,2,0:0:0:0:
425,374,98385,2,0,P|479:373|534:344,1,99.7499969558717,8|0,0:0|0:0,0:0:0:0:
317,161,98708,1,2,0:0:0:0:
276,358,98869,1,8,0:0:0:0:
234,375,98950,1,8,0:0:0:0:
189,368,99030,1,8,0:0:0:0:
157,336,99111,1,8,0:0:0:0:
151,291,99192,1,8,0:0:0:0:
132,250,99272,1,8,0:0:0:0:
94,225,99353,6,0,B|50:222|50:222|-38:240,1,99.7499969558717,6|2,0:0|0:0,0:0:0:0:
226,298,99676,2,0,P|231:229|247:111,1,163.875003125668,12|8,0:2|0:3,0:0:0:0:
243,135,99998,1,10,0:3:0:0:
111,216,100159,1,2,0:0:0:0:
342,283,100321,2,0,B|389:279|389:279|465:260,1,99.7499969558717,8|0,0:0|0:0,0:0:0:0:
482,64,100643,5,2,0:0:0:0:
482,64,100805,1,2,0:0:0:0:
294,200,100966,2,0,L|172:193,1,99.7499969558717,8|0,0:0|0:0,0:0:0:0:
194,194,101208,1,8,0:3:0:0:
194,194,101288,1,10,0:3:0:0:
353,296,101450,1,2,0:0:0:0:
256,93,101611,2,0,P|193:81|68:74,1,149.624995433808,8|0,0:0|0:0,0:0:0:0:
28,130,101934,5,6,0:0:0:0:
28,130,102095,1,2,0:0:0:0:
250,9,102256,2,0,L|359:0,1,99.7499969558717,8|0,0:0|0:0,0:0:0:0:
48,223,102579,5,2,0:0:0:0:
48,223,102740,1,2,0:0:0:0:
271,100,102901,2,0,L|380:91,1,99.7499969558717,8|0,0:0|0:0,0:0:0:0:
72,317,103224,5,2,0:0:0:0:
72,317,103385,1,2,0:0:0:0:
166,123,103547,1,8,0:0:0:0:
180,117,103627,1,2,0:0:0:0:
194,110,103708,1,2,0:0:0:0:
253,325,103869,1,8,0:0:0:0:
267,281,103950,1,8,0:0:0:0:
253,239,104030,1,8,0:0:0:0:
216,211,104111,1,8,0:0:0:0:
171,204,104192,1,8,0:0:0:0:
128,193,104272,1,8,0:0:0:0:
95,160,104353,1,8,0:0:0:0:
87,115,104434,1,8,0:0:0:0:
101,75,104514,5,2,0:0:0:0:
442,209,114514,5,0,0:0:0:0:
442,209,114837,6,0,L|447:293,1,76,6|2,0:0|0:0,0:0:0:0:
350,131,115159,2,0,P|277:119|190:115,1,152,8|2,0:0|0:0,0:0:0:0:
103,147,115643,1,2,0:0:0:0:
223,26,115805,2,0,P|279:15|316:11,1,76,8|0,0:0|0:0,0:0:0:0:
437,103,116127,5,2,0:0:0:0:
437,103,116288,1,2,0:0:0:0:
271,148,116450,2,0,P|255:260|253:329,1,152,8|2,0:0|0:0,0:0:0:0:
351,263,116934,1,2,0:0:0:0:
165,208,117095,1,8,0:0:0:0:
165,208,117256,1,0,0:0:0:0:
165,208,117418,6,0,L|61:216,1,76,2|2,0:0|0:0,0:0:0:0:
216,72,117740,2,0,B|314:62|267:89|386:72,1,152,8|2,0:0|0:0,0:0:0:0:
451,16,118224,1,2,0:0:0:0:
393,180,118385,2,0,L|305:172,1,76,8|0,0:0|0:0,0:0:0:0:
427,286,118708,6,0,L|535:277,1,76,2|2,0:0|0:0,0:0:0:0:
269,252,119030,2,0,P|227:190|261:95,1,152,8|2,0:0|0:0,0:0:0:0:
317,173,119514,1,2,0:0:0:0:
140,221,119676,1,8,0:0:0:0:
140,221,119837,1,0,0:0:0:0:
140,221,119998,6,0,L|134:309,1,76,2|2,0:0|0:0,0:0:0:0:
32,163,120321,2,0,P|30:96|21:11,1,152,8|2,0:0|0:0,0:0:0:0:
22,11,120805,1,2,0:0:0:0:
131,112,120966,2,0,P|184:110|225:102,1,76,8|0,0:0|0:0,0:0:0:0:
316,48,121288,5,2,0:0:0:0:
316,48,121450,1,2,0:0:0:0:
292,193,121611,2,0,L|301:292,1,76,8|0,0:0|0:0,0:0:0:0:
206,106,121934,1,2,0:0:0:0:
206,106,122095,1,2,0:0:0:0:
358,127,122256,2,0,L|442:120,1,76,8|0,0:0|0:0,0:0:0:0:
172,3,122579,5,4,0:0:0:0:
136,183,126450,5,8,0:0:0:0:
130,46,126611,1,2,0:0:0:0:
161,269,126772,1,8,0:0:0:0:
186,112,126934,1,2,0:0:0:0:
127,348,127095,1,8,0:0:0:0:
52,162,127256,1,2,0:0:0:0:
206,341,127418,2,0,P|272:342|346:352,1,128.249996086121,8|0,0:0|0:0,0:0:0:0:
348,358,127740,6,0,L|451:351,1,95,6|2,0:0|0:0,0:0:0:0:
352,118,128063,2,0,P|284:126|228:151,1,95,8|0,0:0|0:0,0:0:0:0:
259,134,128305,1,0,0:3:0:0:
259,134,128385,1,2,0:3:0:0:
371,226,128547,1,2,0:0:0:0:
270,30,128708,1,8,0:0:0:0:
154,218,128869,1,0,0:0:0:0:
154,218,128950,1,0,0:3:0:0:
154,218,129030,6,0,L|142:329,1,95,2|2,0:3|0:0,0:0:0:0:
52,70,129353,2,0,B|90:58|90:58|172:54,1,95,8|0,0:0|0:0,0:0:0:0:
164,55,129595,1,0,0:3:0:0:
183,55,129676,1,2,0:3:0:0:
59,238,129837,1,8,0:0:0:0:
85,278,129918,1,8,0:0:0:0:
127,298,129998,1,8,0:0:0:0:
174,300,130079,1,8,0:0:0:0:
217,282,130159,1,8,0:0:0:0:
264,278,130240,1,8,0:0:0:0:
306,299,130321,6,0,B|344:308|344:308|441:309,1,95,6|2,0:0|0:0,0:0:0:0:
369,90,130643,2,0,P|338:144|333:205,1,95,8|0,0:0|0:0,0:0:0:0:
334,194,130885,1,0,0:3:0:0:
336,212,130966,1,2,0:3:0:0:
470,146,131127,1,2,0:0:0:0:
253,71,131288,1,8,0:0:0:0:
313,307,131450,1,0,0:0:0:0:
313,307,131530,1,0,0:3:0:0:
313,307,131611,6,0,B|270:318|270:318|200:309,1,95,2|2,0:3|0:0,0:0:0:0:
46,211,131934,1,8,0:0:0:0:
138,376,132095,1,0,0:0:0:0:
138,376,132176,1,0,0:3:0:0:
138,376,132256,1,2,0:3:0:0:
115,116,132418,1,2,0:0:0:0:
338,202,132579,1,8,0:0:0:0:
150,271,132740,1,0,0:0:0:0:
134,266,132821,1,0,0:3:0:0:
121,262,132901,5,6,0:0:0:0:
269,362,133063,1,2,0:0:0:0:
201,161,133224,2,0,B|191:128|195:104|195:104|225:67|225:67|230:29|246:4,1,156.750004783631,12|0,0:0|0:3,0:0:0:0:
282,137,133547,2,0,P|369:154|416:145,1,95,2|2,0:3|0:0,0:0:0:0:
140,31,133869,1,8,0:0:0:0:
165,244,134030,1,0,0:0:0:0:
165,244,134111,1,0,0:3:0:0:
165,244,134192,6,0,P|124:255|54:251,1,95,2|2,0:3|0:0,0:0:0:0:
217,79,134514,1,8,0:0:0:0:
259,273,134676,1,0,0:0:0:0:
259,273,134756,1,0,0:3:0:0:
259,273,134837,2,0,P|326:282|366:277,1,95,2|2,0:3|0:0,0:0:0:0:
143,155,135159,1,8,0:0:0:0:
190,333,135321,2,0,L|188:380,1,47.5,0|0,0:0|0:3,0:0:0:0:
316,201,135482,6,0,B|356:188|356:188|427:179,1,95,6|2,0:0|0:0,0:0:0:0:
217,79,135805,2,0,L|99:72,1,95,8|0,0:0|0:0,0:0:0:0:
110,88,136047,1,0,0:3:0:0:
96,101,136127,1,2,0:3:0:0:
252,185,136288,1,2,0:0:0:0:
166,0,136450,1,8,0:0:0:0:
48,177,136611,1,0,0:0:0:0:
48,177,136692,1,0,0:3:0:0:
48,177,136772,5,2,0:3:0:0:
227,67,136934,1,12,0:0:0:0:
230,271,137095,1,12,0:0:0:0:
230,271,137256,1,2,0:0:0:0:
405,162,137418,2,0,P|447:156|519:151,1,95,12|0,0:0|0:0,0:0:0:0:
244,63,137740,2,0,B|229:82|222:109|222:109|237:201,1,126.666666666667,8|0,0:0|0:0,0:0:0:0:
358,298,138063,6,0,L|425:293,2,63.3333333333333,2|0|0,0:0|0:0|0:0,0:0:0:0:
230,271,138385,2,0,L|146:262,2,63.3333333333333,8|0|0,0:0|0:0|0:0,0:0:0:0:
387,210,138708,6,0,L|454:205,2,63.3333333333333,2|0|0,0:0|0:0|0:0,0:0:0:0:
220,181,139030,2,0,L|136:172,2,63.3333333333333,8|0|0,0:0|0:0|0:0,0:0:0:0:
420,120,139353,5,2,0:0:0:0:
409,103,139461,2,0,P|378:93|347:90,1,63.3333333333333
179,82,139676,1,8,0:0:0:0:
192,67,139783,2,0,P|272:47|298:46,1,63.3333333333333
484,201,139998,5,2,0:0:0:0:
299,163,140159,1,8,0:0:0:0:
260,182,140240,1,8,0:0:0:0:
238,219,140321,1,8,0:0:0:0:
235,261,140401,1,8,0:0:0:0:
248,301,140482,1,8,0:0:0:0:
247,343,140563,1,8,0:0:0:0:
213,368,140643,6,0,L|105:377,1,95,2|0,0:0|0:0,0:0:0:0:
48,326,140885,1,0,0:0:0:0:
34,311,140966,2,0,P|29:283|26:244,2,47.5,8|0|0,0:0|0:0|0:0,0:0:0:0:
154,232,141288,2,0,P|159:204|162:165,2,47.5,2|0|2,0:0|0:0|0:0,0:0:0:0:
36,148,141611,1,8,0:0:0:0:
25,111,141692,1,0,0:0:0:0:
27,73,141772,1,0,0:0:0:0:
162,76,141934,5,2,0:0:0:0:
191,99,142014,1,0,0:0:0:0:
228,106,142095,1,2,0:0:0:0:
266,102,142176,1,0,0:0:0:0:
297,80,142256,1,8,0:0:0:0:
317,48,142337,1,0,0:0:0:0:
323,10,142418,1,0,0:0:0:0:
255,200,142579,2,0,B|297:215|297:215|380:222,1,95,2|0,0:0|0:0,0:0:0:0:
230,21,142901,1,8,0:0:0:0:
135,175,143063,1,0,0:0:0:0:
121,181,143143,1,4,0:3:0:0:
109,188,143224,5,6,0:0:0:0:
162,76,143385,1,2,0:0:0:0:
146,278,143547,1,8,0:0:0:0:
228,144,143708,1,0,0:0:0:0:
243,335,143869,5,2,0:0:0:0:
303,195,144030,1,2,0:0:0:0:
367,372,144192,1,8,0:0:0:0:
386,225,144353,1,0,0:0:0:0:
489,384,144514,5,2,0:0:0:0:
303,195,144676,1,2,0:0:0:0:
491,340,144837,1,8,0:0:0:0:
293,234,144998,1,0,0:0:0:0:
384,381,145159,5,2,0:0:0:0:
404,214,145321,1,2,0:0:0:0:
227,344,145482,2,0,P|180:348|125:350,1,95,8|0,0:0|0:0,0:0:0:0:
293,234,145805,5,2,0:0:0:0:
296,249,145885,1,0,0:0:0:0:
300,265,145966,1,2,0:0:0:0:
198,169,146127,2,0,L|190:229,2,47.5
336,211,146450,5,2,0:0:0:0:
339,235,146530,1,0,0:0:0:0:
345,259,146611,1,2,0:0:0:0:
161,143,146772,2,0,L|153:211,2,56.9999982604981
376,186,147095,5,2,0:0:0:0:
379,219,147175,1,0,0:0:0:0:
382,255,147256,1,2,0:0:0:0:
119,117,147418,2,0,L|111:201,2,66.4999979705811
467,296,147740,5,8,0:0:0:0:
429,324,147821,1,8,0:0:0:0:
383,334,147901,1,8,0:0:0:0:
336,327,147982,1,8,0:0:0:0:
296,302,148063,1,8,0:0:0:0:
248,297,148143,1,8,0:0:0:0:
204,309,148224,1,8,0:0:0:0:
168,341,148305,1,8,0:0:0:0:
152,384,148385,5,2,0:0:0:0:
214,113,150966,6,0,B|179:101|161:99|161:99|143:103|143:103|79:97,1,123.499994346619,6|2,0:0|0:0,0:0:0:0:
302,259,151288,2,0,L|413:244,1,99.7499969558717,8|0,0:0|0:0,0:0:0:0:
420,251,151530,1,8,0:3:0:0:
439,256,151611,1,10,0:3:0:0:
343,130,151772,1,2,0:0:0:0:
309,344,151934,1,8,0:0:0:0:
156,215,152095,1,0,0:0:0:0:
156,215,152176,1,8,0:3:0:0:
156,215,152256,6,0,L|42:225,1,99.7499969558717,10|2,0:3|0:0,0:0:0:0:
237,82,152579,2,0,P|315:105|348:127,1,99.7499969558717,8|0,0:0|0:0,0:0:0:0:
343,130,152821,1,8,0:3:0:0:
351,148,152901,1,10,0:3:0:0:
155,134,153063,1,2,0:0:0:0:
337,8,153224,1,8,0:0:0:0:
362,283,153385,1,0,0:0:0:0:
255,172,153547,5,2,0:0:0:0:
255,172,153708,1,2,0:0:0:0:
185,359,153869,2,0,P|181:306|168:235,1,121.125002310276,8|0,1:0|1:3,1:0:0:0:
157,251,154192,2,0,B|122:260|122:260|66:257,1,80.750001540184,2|2,0:0|0:0,0:0:0:0:
212,80,154514,2,0,L|364:88,1,121.125002310276,8|0,0:0|1:0,0:0:0:0:
406,131,154837,5,2,0:0:0:0:
406,131,154998,1,2,0:0:0:0:
159,145,155159,2,0,P|130:89|153:17,1,121.125002310276,8|0,0:0|1:3,0:0:0:0:
152,42,155482,2,0,L|57:52,1,80.750001540184,2|2,0:0|0:0,0:0:0:0:
300,30,155805,1,12,0:0:0:0:
300,30,156127,6,0,B|290:69|290:69|283:172,1,99.7499969558717,6|2,0:0|0:0,0:0:0:0:
391,346,156450,2,0,L|382:221,1,99.7499969558717,8|0,0:0|0:0,0:0:0:0:
392,228,156692,1,8,0:3:0:0:
403,211,156772,1,10,0:3:0:0:
488,313,156934,1,2,0:0:0:0:
249,234,157095,2,0,P|205:236|132:249,1,99.7499969558717,8|0,0:0|0:0,0:0:0:0:
150,244,157337,1,8,0:3:0:0:
150,244,157418,5,10,0:3:0:0:
198,93,157579,1,2,0:0:0:0:
291,338,157740,2,0,L|416:347,1,99.7499969558717,8|2,0:0|0:0,0:0:0:0:
134,209,158063,1,8,0:0:0:0:
134,234,158143,1,8,0:0:0:0:
158,252,158224,1,8,0:0:0:0:
191,243,158305,1,8,0:0:0:0:
208,209,158385,1,8,0:0:0:0:
192,165,158466,1,8,0:0:0:0:
156,138,158547,1,8,0:0:0:0:
112,132,158627,1,8,0:0:0:0:
73,157,158708,6,0,B|59:194|59:194|47:297,1,99.7499969558717,6|2,0:0|0:0,0:0:0:0:
295,172,159030,2,0,L|291:51,1,99.7499969558717,8|0,0:0|0:0,0:0:0:0:
276,59,159272,1,8,0:3:0:0:
256,53,159353,1,10,0:3:0:0:
208,209,159514,1,2,0:0:0:0:
395,90,159676,2,0,B|442:80|442:80|513:77,1,99.7499969558717,8|0,0:0|0:0,0:0:0:0:
203,127,159998,5,2,0:0:0:0:
203,127,160159,1,2,0:0:0:0:
373,294,160321,2,0,L|488:299,1,99.7499969558717,8|0,0:0|0:0,0:0:0:0:
472,298,160563,1,8,0:3:0:0:
472,298,160643,1,10,0:3:0:0:
398,205,160805,1,2,0:0:0:0:
310,370,160966,1,8,0:0:0:0:
293,149,161127,1,0,0:0:0:0:
298,136,161208,1,12,0:3:0:0:
304,122,161288,5,6,0:0:0:0:
174,180,161450,1,2,0:0:0:0:
409,212,161611,2,0,B|418:151|418:151|408:133|390:115|390:115|390:89|401:48,1,163.875003125668,12|8,0:2|0:3,0:0:0:0:
397,225,161934,2,0,P|326:240|270:224,1,99.7499969558717,10|2,0:3|0:0,0:0:0:0:
124,99,162256,1,8,0:0:0:0:
129,264,162418,1,0,0:0:0:0:
129,264,162498,1,8,0:3:0:0:
129,264,162579,5,10,0:3:0:0:
229,176,162740,1,2,0:0:0:0:
42,147,162901,2,0,B|29:106|29:106|36:33,1,99.7499969558717,8|0,0:0|0:0,0:0:0:0:
242,19,163224,1,2,0:0:0:0:
216,259,163385,1,8,0:0:0:0:
243,294,163466,1,8,0:0:0:0:
286,309,163547,1,8,0:0:0:0:
330,306,163627,1,8,0:0:0:0:
365,278,163708,1,8,0:0:0:0:
380,236,163788,1,8,0:0:0:0:
376,191,163869,6,0,P|379:132|404:67,1,99.7499969558717,6|2,0:0|0:0,0:0:0:0:
202,270,164192,2,0,P|163:278|69:264,1,99.7499969558717,8|0,0:0|0:0,0:0:0:0:
85,265,164434,1,8,0:3:0:0:
71,251,164514,1,10,0:3:0:0:
117,383,164676,1,2,0:0:0:0:
292,228,164837,2,0,L|284:124,1,99.7499969558717,8|0,0:0|0:0,0:0:0:0:
232,384,165159,5,2,0:0:0:0:
232,384,165321,1,2,0:0:0:0:
384,258,165482,2,0,P|432:244|496:238,1,99.7499969558717,8|0,0:0|0:0,0:0:0:0:
481,238,165724,1,8,0:3:0:0:
481,238,165805,1,10,0:3:0:0:
412,154,165966,1,2,0:0:0:0:
310,318,166127,2,0,P|205:314|164:251,1,149.624995433808,8|0,0:0|0:0,0:0:0:0:
193,182,166450,5,6,0:0:0:0:
193,182,166611,1,2,0:0:0:0:
398,349,166772,2,0,B|443:362|443:362|511:351,1,99.7499969558717,8|0,0:0|0:0,0:0:0:0:
329,156,167095,5,2,0:0:0:0:
329,156,167256,1,2,0:0:0:0:
192,303,167417,2,0,B|152:317|152:317|76:310,1,99.7499969558717,8|0,0:0|0:0,0:0:0:0:
249,97,167740,5,2,0:0:0:0:
249,97,167901,1,2,0:0:0:0:
310,318,168063,1,8,0:0:0:0:
193,182,168224,1,2,0:0:0:0:
412,218,168385,1,8,0:0:0:0:
455,207,168466,1,8,0:0:0:0:
483,171,168547,1,8,0:0:0:0:
484,126,168627,1,8,0:0:0:0:
457,89,168708,1,8,0:0:0:0:
413,78,168788,1,8,0:0:0:0:
369,89,168869,1,8,0:0:0:0:
324,84,168950,1,8,0:0:0:0:
285,60,169030,6,0,B|254:53|254:53|194:48,1,85.4999973907472,2|0,0:0|0:0,0:0:0:0:
247,291,169353,2,0,B|259:230|259:230|235:123,1,156.750004783631,12|0,0:2|0:0,0:0:0:0:
174,231,169676,6,0,L|57:236,1,85.4999973907472,2|0,0:0|0:0,0:0:0:0:
335,158,169998,2,0,P|400:173|487:213,1,156.750004783631,12|0,0:2|0:0,0:0:0:0:
321,169,170321,6,0,L|313:76,1,85.4999973907472,2|0,0:0|0:0,0:0:0:0:
399,282,170643,2,0,B|342:295|342:295|297:281|297:281|199:299,1,156.750004783631,12|0,0:2|0:0,0:0:0:0:
141,350,170966,6,0,L|41:337,1,85.4999973907472,2|0,0:0|0:0,0:0:0:0:
126,155,171288,2,0,P|185:144|263:208,1,156.750004783631,12|0,0:2|0:0,0:0:0:0:
319,312,171611,6,0,L|409:294,1,85.4999973907472,2|0,0:0|0:0,0:0:0:0:
177,229,171934,2,0,B|159:322|159:322|174:384,1,156.750004783631,12|0,0:2|0:0,0:0:0:0:
259,198,172256,6,0,L|262:89,1,85.4999973907472,2|0,0:0|0:0,0:0:0:0:
247,332,172579,2,0,P|356:342|443:358,1,156.750004783631,12|0,0:2|0:0,0:0:0:0:
512,384,172901,5,6,0:0:0:0:
