osu file format v14

[General]
AudioFilename: prison.mp3
AudioLeadIn: 0
PreviewTime: 42498
Countdown: 0
SampleSet: Normal
StackLeniency: 0.7
Mode: 0
LetterboxInBreaks: 0
WidescreenStoryboard: 0

[Editor]
Bookmarks: 11611,42579,53547,63116,137418
DistanceSpacing: 1
BeatDivisor: 4
GridSize: 4
TimelineZoom: 1.6

[Metadata]
Title:You Know What They Do To Guys Like Us In Prison
TitleUnicode:You Know What They Do To Guys Like Us In Prison
Artist:My Chemical Romance
ArtistUnicode:My Chemical Romance
Creator:pishifat
Version:Easy
Source:
Tags:three cheers for sweet revenge mcr metal alternative punk post hardcore
BeatmapID:743355
BeatmapSetID:333823

[Difficulty]
HPDrainRate:3
CircleSize:3.4
OverallDifficulty:2.5
ApproachRate:3
SliderMultiplier:0.89
SliderTickRate:1

[Events]
//Background and Video events
0,0,"e.jpg",0,0
//Break Periods
2,104714,113397
2,122779,125010
2,148585,149526
//Storyboard Layer 0 (Background)
//Storyboard Layer 1 (Fail)
//Storyboard Layer 2 (Pass)
//Storyboard Layer 3 (Foreground)
//Storyboard Sound Samples

[TimingPoints]
1289,322.58064516129,4,2,1,60,1,0
41934,-100,4,2,1,38,0,0
42256,-100,4,2,1,50,0,0
42579,-100,4,1,1,70,0,1
45079,-100,4,1,1,50,0,1
45159,-100,4,1,1,70,0,1
45482,-100,4,1,2,70,0,1
45563,-100,4,1,1,70,0,1
45805,-100,4,1,1,70,0,1
47256,-100,4,1,1,50,0,1
47740,-100,4,1,1,70,0,1
52256,-100,4,1,1,50,0,1
52579,-100,4,1,1,60,0,0
52901,-100,4,1,1,70,0,1
55401,-100,4,1,1,50,0,1
55482,-100,4,1,1,70,0,1
55805,-100,4,1,2,70,0,1
55885,-100,4,1,1,70,0,1
57579,-100,4,1,1,50,0,1
58063,-100,4,1,1,70,0,1
58385,-100,4,1,2,70,0,1
58466,-100,4,1,1,70,0,1
58708,-100,4,1,1,70,0,1
62579,-100,4,1,1,50,0,1
62901,-100,4,1,1,60,0,1
63224,-100,4,2,1,60,0,0
67418,-100,4,2,1,60,0,0
68385,-100,4,2,1,60,0,0
72256,-100,4,2,1,60,0,0
72901,-100,4,2,1,50,0,0
73547,-100,4,2,1,60,0,0
73869,-100,4,2,1,60,0,0
74192,-100,4,2,1,60,0,0
74514,-100,4,2,1,60,0,0
74837,-100,4,2,1,60,0,0
75159,-100,4,2,1,60,0,0
75482,-100,4,2,1,60,0,0
75805,-100,4,2,1,60,0,0
76127,-100,4,2,1,60,0,0
81288,-100,4,2,1,60,0,0
83224,-100,4,2,1,44,0,0
83385,-100,4,2,1,49,0,0
83547,-100,4,2,1,51,0,0
83708,-100,4,2,1,56,0,0
83869,-100,4,1,1,70,0,1
86369,-100,4,1,1,50,0,1
86450,-100,4,1,1,70,0,1
86772,-100,4,1,2,70,0,1
86853,-100,4,1,1,70,0,1
87095,-100,4,1,1,70,0,1
88063,-100,4,1,1,70,0,1
88547,-100,4,1,1,50,0,1
89030,-100,4,1,1,70,0,1
93547,-100,4,1,1,50,0,1
93869,-100,4,1,1,60,0,0
94192,-100,4,1,1,70,0,1
96692,-100,4,1,1,50,0,1
96772,-100,4,1,1,70,0,1
97095,-100,4,1,2,70,0,1
97176,-100,4,1,1,70,0,1
97418,-100,4,1,1,70,0,1
98869,-100,4,1,1,50,0,1
99353,-100,4,1,1,70,0,1
99676,-100,4,1,2,70,0,1
99756,-100,4,1,1,70,0,1
99998,-100,4,1,1,70,0,1
103869,-100,4,1,1,50,0,1
104192,-100,4,1,1,60,0,1
104514,-100,4,1,1,70,0,0
114837,-100,4,2,1,60,0,0
122579,-100,4,2,1,70,0,0
126450,-100,4,2,1,70,0,0
127418,-100,4,2,1,70,0,0
127659,-100,4,2,1,40,0,0
127740,-100,4,1,1,70,0,0
129837,-100,4,1,1,50,0,0
130321,-100,4,1,1,70,0,0
133224,-100,4,1,1,70,0,0
133547,-100,4,1,1,70,0,0
137095,-100,4,1,1,70,0,0
138063,-100,4,1,1,70,0,0
140159,-100,4,1,1,50,0,0
140643,-100,4,1,1,70,0,0
143143,-100,4,1,1,50,0,0
143224,-100,4,1,1,70,0,0
147740,-100,4,1,1,50,0,0
148385,-100,4,1,1,70,0,0
150966,-100,4,1,1,70,0,1
151288,-100,4,1,1,70,0,1
153547,-100,4,2,1,60,0,0
154111,-100,4,2,1,60,0,0
155805,-100,4,1,1,70,0,0
156127,-100,4,1,1,70,0,1
158063,-100,4,1,1,50,0,1
158385,-100,4,1,1,60,0,0
158708,-100,4,1,1,70,0,1
161208,-100,4,1,1,50,0,1
161288,-100,4,1,1,70,0,1
161611,-100,4,1,2,70,0,1
161692,-100,4,1,1,70,0,1
161934,-100,4,1,1,70,0,1
163385,-100,4,1,1,50,0,1
163869,-100,4,1,1,70,0,1
168385,-100,4,1,1,50,0,1
168708,-100,4,1,1,60,0,1
169030,-100,4,1,1,70,0,0
169353,-100,4,1,2,70,0,0
172901,-100,4,1,1,70,0,0

[Colours]
Combo1 : 194,205,220
Combo2 : 180,181,153
Combo3 : 147,163,183
Combo4 : 123,159,149

[HitObjects]
46,36,11611,6,0,P|125:38|234:51,1,178,2|2,0:0|0:0,0:0:0:0:
299,94,12579,1,8,0:0:0:0:
221,138,12901,2,0,L|128:153,2,89,2|8|2,0:0|0:0|0:0,0:0:0:0:
297,184,13869,1,8,0:0:0:0:
288,272,14192,6,0,P|333:316|456:302,1,178,2|2,0:0|0:0,0:0:0:0:
490,237,15159,1,8,0:0:0:0:
444,160,15482,2,0,L|435:66,1,89,2|8,0:0|0:0,0:0:0:0:
359,25,16127,2,0,P|333:77|326:117,1,89,2|2,0:0|0:0,0:0:0:0:
295,190,16772,6,0,L|105:181,1,178,2|2,0:0|0:0,0:0:0:0:
55,118,17740,1,8,0:0:0:0:
6,192,18063,2,0,B|-4:245|-4:245|10:371,1,178,2|2,0:0|0:0,0:0:0:0:
97,381,19030,1,8,0:0:0:0:
127,297,19353,6,0,P|202:251|298:271,1,178,2|2,0:0|0:0,0:0:0:0:
346,330,20321,1,8,0:0:0:0:
412,271,20643,2,0,B|426:209|426:209|412:165|412:165|427:92,1,178,2|2,0:0|0:0,0:0:0:0:
481,28,21611,1,2,0:0:0:0:
393,10,21934,6,0,P|280:22|217:43,1,178,2|2,0:0|0:0,0:0:0:0:
168,114,22901,1,8,0:0:0:0:
240,165,23224,2,0,P|253:201|261:261,1,89,2|8,0:0|0:0,0:0:0:0:
188,303,23869,2,0,L|84:296,1,89,2|8,0:0|0:0,0:0:0:0:
18,258,24514,6,0,P|22:212|39:167,2,89,2|8|2,0:0|0:0|0:0,0:0:0:0:
27,346,25482,1,8,0:0:0:0:
115,357,25805,2,0,B|172:336|172:336|294:324,1,178,2|2,0:0|0:0,0:0:0:0:
374,347,26772,1,2,0:0:0:0:
442,289,27095,6,0,P|456:224|379:140,1,178,2|2,0:0|0:0,0:0:0:0:
301,130,28063,1,8,0:0:0:0:
239,193,28385,2,0,L|142:199,1,89,2|8,0:0|0:0,0:0:0:0:
62,179,29030,2,0,P|46:121|50:82,1,89,2|8,0:0|0:0,0:0:0:0:
136,84,29676,6,0,P|171:102|229:113,2,89,2|8|2,0:0|0:0|0:0,0:0:0:0:
84,11,30643,1,8,0:0:0:0:
47,92,30966,1,2,0:0:0:0:
96,165,31288,2,0,B|99:212|99:212|81:270,1,89,8|2,0:0|0:0,0:0:0:0:
19,312,31934,1,8,0:0:0:0:
102,342,32256,6,0,P|169:351|264:300,1,178,2|2,0:0|0:0,0:0:0:0:
271,211,33224,2,0,P|315:203|368:212,1,89,8|2,0:0|0:0,0:0:0:0:
431,259,33869,2,0,L|523:254,1,89,8|2,0:0|0:0,0:0:0:0:
501,341,34514,6,0,L|404:345,1,89,8|2,0:0|0:0,0:0:0:0:
327,315,35159,2,0,P|284:306|224:309,1,89,8|2,0:0|0:0,0:0:0:0:
149,307,35805,2,0,P|132:263|131:220,1,89,8|2,0:0|0:0,0:0:0:0:
182,149,36450,2,0,L|284:143,2,89,8|2|8,0:0|0:0|0:0,0:0:0:0:
97,120,37418,6,0,P|67:159|52:286,1,178,2|2,0:0|0:0,0:0:0:0:
85,365,38385,1,8,0:0:0:0:
149,307,38708,1,2,0:0:0:0:
236,294,39030,2,0,L|330:299,2,89,8|2|8,0:0|0:0|0:0,0:0:0:0:
183,222,39998,6,0,P|234:178|346:193,1,178,2|2,0:0|0:0,0:0:0:0:
408,243,40966,1,8,0:0:0:0:
492,217,41288,2,0,L|499:35,1,178,2|8,0:0|0:0,0:0:0:0:
413,12,42256,1,8,0:0:0:0:
339,62,42579,6,0,B|300:52|300:52|249:44,2,89,6|8|10,0:0|0:0|0:3,0:0:0:0:
397,129,43547,1,8,0:0:0:0:
315,163,43869,2,0,L|131:180,1,178,2|10,0:0|0:3,0:0:0:0:
56,142,44837,1,8,0:0:0:0:
30,226,45159,5,6,0:0:0:0:
111,261,45482,2,0,P|126:301|132:351,1,89,12|10,0:2|0:3,0:0:0:0:
216,373,46127,1,8,0:0:0:0:
285,317,46450,2,0,L|297:133,1,178,2|2,0:0|0:0,0:0:0:0:
356,73,47418,1,8,0:0:0:0:
432,118,47740,6,0,B|470:107|470:107|528:101,2,89,6|8|10,0:0|0:0|0:3,0:0:0:0:
379,189,48708,1,8,0:0:0:0:
390,277,49030,2,0,B|333:292|333:292|208:279,1,178,2|10,0:0|0:3,0:0:0:0:
159,209,49998,1,8,0:0:0:0:
127,292,50321,6,0,L|121:383,1,89,6|8,0:0|0:0,0:0:0:0:
35,356,50966,2,0,L|41:256,1,89,2|8,0:0|0:0,0:0:0:0:
72,184,51611,2,0,P|37:158|-14:138,2,89,2|8|8,0:0|0:0|0:0,0:0:0:0:
159,209,52579,1,8,0:0:0:0:
235,164,52901,6,0,B|351:159|351:159|411:189,1,178,6|2,0:0|0:0,0:0:0:0:
456,260,53869,1,8,0:0:0:0:
496,180,54192,2,0,P|486:113|473:85,1,89,10|8,0:3|0:0,0:0:0:0:
394,61,54837,2,0,L|296:55,1,89,10|8,0:3|0:0,0:0:0:0:
218,78,55482,5,6,0:0:0:0:
131,58,55805,2,0,P|98:121|96:149,1,89,12|2,0:2|0:0,0:0:0:0:
122,222,56450,1,8,0:0:0:0:
206,193,56772,2,0,L|303:185,1,89,2|8,0:0|0:0,0:0:0:0:
378,215,57418,2,0,B|397:254|397:254|406:309,1,89,2|8,0:0|0:0,0:0:0:0:
367,379,58063,5,6,0:0:0:0:
315,306,58385,2,0,P|238:289|214:287,2,89,12|10|8,0:2|0:3|0:0,0:0:0:0:
404,299,59353,2,0,L|407:120,1,178,2|10,0:0|0:3,0:0:0:0:
429,34,60321,1,8,0:0:0:0:
342,53,60643,6,0,B|323:95|323:95|318:144,1,89,6|8,0:0|0:0,0:0:0:0:
315,226,61288,2,0,P|270:244|213:248,1,89,2|8,0:0|0:0,0:0:0:0:
154,200,61934,2,0,L|149:102,2,89,2|8|8,0:0|0:0|0:0,0:0:0:0:
127,284,62901,1,8,0:0:0:0:
55,231,63224,6,0,P|49:144|29:42,2,178,6|2|2,0:0|0:0|0:0,0:0:0:0:
45,319,64837,1,8,0:0:0:0:
116,371,65159,2,0,P|176:370|208:362,1,89,2|8,0:3|0:0,0:0:0:0:
273,306,65805,6,0,L|464:321,2,178,2|2|2,0:0|0:0|0:0,0:0:0:0:
189,273,67418,1,8,0:0:0:0:
147,194,67740,2,0,P|143:155|156:101,1,89,2|8,0:0|0:0,0:0:0:0:
228,58,68385,6,0,B|287:68|287:68|341:56|341:56|420:71,1,178,2|2,0:0|0:0,0:0:0:0:
457,138,69353,1,8,0:0:0:0:
369,157,69676,2,0,P|347:232|416:306,1,178,2|2,0:0|0:0,0:0:0:0:
494,296,70643,1,8,0:0:0:0:
455,375,70966,6,0,B|398:353|398:353|277:346,1,178,2|2,0:0|0:0,0:0:0:0:
193,362,71934,1,8,0:0:0:0:
111,325,72256,2,0,P|95:276|94:232,1,89,2|8,0:0|0:0,0:0:0:0:
166,188,72901,2,0,L|276:184,1,89,8|8,0:0|0:0,0:0:0:0:
341,208,73547,5,2,0:0:0:0:
325,120,73869,2,0,B|285:102|285:102|222:95,1,89,12|2,0:0|0:0,0:0:0:0:
263,11,74514,2,0,B|356:4,1,89,12|2,0:0|0:0,0:0:0:0:
420,61,75159,2,0,B|422:107|422:107|405:153,1,89,12|2,0:0|0:0,0:0:0:0:
341,208,75805,1,12,0:0:0:0:
327,295,76127,6,0,P|255:326|144:313,1,178,6|2,0:0|0:0,0:0:0:0:
76,283,77095,1,8,0:0:0:0:
147,229,77418,2,0,B|156:165|156:165|134:116|134:116|146:44,1,178,2|2,0:0|0:0,0:0:0:0:
223,16,78385,1,8,0:0:0:0:
300,59,78708,6,0,P|372:67|483:90,1,178,2|2,0:0|0:0,0:0:0:0:
509,170,79676,1,8,0:0:0:0:
423,194,79998,2,0,B|363:197|363:197|249:240,1,178,2|2,0:0|0:0,0:0:0:0:
172,275,80966,1,8,0:0:0:0:
86,251,81288,6,0,L|82:155,1,89,2|8,0:0|0:0,0:0:0:0:
2,201,81934,2,0,L|6:309,1,89,2|8,0:0|0:0,0:0:0:0:
77,341,82579,2,0,P|133:358|183:352,2,89,2|8|8,0:0|0:0|0:0,0:0:0:0:
86,251,83547,1,8,0:0:0:0:
153,193,83869,6,0,L|259:182,1,89,6|8,0:0|0:0,0:0:0:0:
319,227,84514,1,10,0:3:0:0:
397,184,84837,1,8,0:0:0:0:
386,95,85159,2,0,P|334:66|204:67,1,178,2|10,0:0|0:3,0:0:0:0:
142,110,86127,1,8,0:0:0:0:
216,158,86450,5,6,0:0:0:0:
138,200,86772,2,0,P|119:267|116:304,1,89,12|10,0:2|0:3,0:0:0:0:
158,365,87418,1,8,0:0:0:0:
205,290,87740,2,0,L|301:281,2,89,2|8|2,0:0|0:0|0:0,0:0:0:0:
116,286,88708,1,8,0:0:0:0:
36,245,89030,6,0,B|12:182|12:182|22:57,1,178,6|10,0:0|0:3,0:0:0:0:
93,20,89998,1,8,0:0:0:0:
178,44,90321,2,0,P|267:49|372:61,1,178,2|10,0:0|0:3,0:0:0:0:
439,87,91288,1,8,0:0:0:0:
373,147,91611,6,0,P|364:193|364:241,1,89,6|8,0:0|0:0,0:0:0:0:
377,323,92256,2,0,B|333:314|333:314|273:312,1,89,2|8,0:0|0:0,0:0:0:0:
213,265,92901,2,0,P|228:199|244:168,2,89,2|8|8,0:0|0:0|0:0,0:0:0:0:
210,354,93869,1,8,0:0:0:0:
131,311,94192,6,0,B|121:248|121:248|134:193|134:193|123:123,1,178,6|2,0:0|0:0,0:0:0:0:
62,72,95159,1,8,0:0:0:0:
148,48,95482,2,0,L|241:40,1,89,10|8,0:3|0:0,0:0:0:0:
313,85,96127,2,0,P|359:95|411:96,1,89,10|8,0:3|0:0,0:0:0:0:
485,69,96772,5,6,0:0:0:0:
463,155,97095,2,0,B|395:149|395:149|283:173,1,178,12|8,0:2|0:0,0:0:0:0:
214,222,98063,2,0,P|136:213|125:209,1,89,2|8,0:0|0:0,0:0:0:0:
99,124,98708,2,0,L|201:115,1,89,2|8,0:0|0:0,0:0:0:0:
266,75,99353,5,6,0:0:0:0:
188,31,99676,2,0,B|143:18|143:18|97:12,2,89,12|10|8,0:2|0:3|0:0,0:0:0:0:
187,116,100643,2,0,B|167:173|167:173|180:309,1,178,2|10,0:0|0:3,0:0:0:0:
232,360,101611,1,8,0:0:0:0:
307,313,101934,6,0,L|312:208,1,89,6|8,0:0|0:0,0:0:0:0:
372,159,102579,2,0,P|393:220|397:264,1,89,2|8,0:0|0:0,0:0:0:0:
394,333,103224,2,0,L|488:343,2,89,2|8|8,0:0|0:0|0:0,0:0:0:0:
307,313,104192,1,8,0:0:0:0:
232,360,104514,5,2,0:0:0:0:
110,76,114837,6,0,B|180:51|180:51|285:62,1,178,6|2,0:0|0:0,0:0:0:0:
318,236,116127,2,0,P|394:287|483:275,1,178,2|2,0:0|0:0,0:0:0:0:
378,144,117418,6,0,L|192:134,1,178,2|2,0:0|0:0,0:0:0:0:
64,249,118708,2,0,P|110:293|224:291,1,178,2|2,0:0|0:0,0:0:0:0:
358,182,119998,6,0,P|392:240|372:355,2,178,2|2|2,0:0|0:0|0:0,0:0:0:0:
278,142,121611,1,8,0:0:0:0:
205,193,121934,2,0,L|116:196,1,89,2|8,0:0|0:0,0:0:0:0:
27,199,122579,5,6,0:0:0:0:
145,154,126450,6,0,L|239:149,2,89,8|8|8,0:0|0:0|0:0,0:0:0:0:
65,194,127418,1,8,0:0:0:0:
87,279,127740,6,0,B|156:289|156:289|194:276|194:276|278:286,1,178,6|2,0:0|0:3,0:0:0:0:
342,322,128708,1,8,0:0:0:0:
422,284,129030,2,0,P|437:231|436:188,1,89,2|8,0:3|0:0,0:0:0:0:
352,169,129676,2,0,P|336:103|336:76,1,89,2|8,0:3|0:0,0:0:0:0:
408,31,130321,6,0,L|226:37,1,178,6|2,0:0|0:3,0:0:0:0:
142,21,131288,1,8,0:0:0:0:
69,72,131611,2,0,P|47:149|48:174,1,89,2|8,0:3|0:0,0:0:0:0:
86,236,132256,1,2,0:3:0:0:
171,211,132579,1,8,0:0:0:0:
155,298,132901,5,6,0:0:0:0:
239,270,133224,2,0,L|346:264,1,89,12|2,0:0|0:3,0:0:0:0:
407,304,133869,1,8,0:0:0:0:
470,240,134192,2,0,P|467:179|456:146,1,89,2|8,0:3|0:0,0:0:0:0:
373,127,134837,2,0,L|266:122,1,89,2|8,0:3|0:0,0:0:0:0:
213,176,135482,6,0,P|149:188|57:130,1,178,6|2,0:0|0:3,0:0:0:0:
76,43,136450,1,8,0:0:0:0:
157,77,136772,2,0,L|261:73,1,89,2|12,0:3|0:0,0:0:0:0:
325,33,137418,2,0,P|406:22|422:25,1,89,12|8,0:0|0:0,0:0:0:0:
469,91,138063,6,0,B|489:178|489:178|480:275,1,178,2|2,0:0|0:0,0:0:0:0:
421,335,139030,1,8,0:0:0:0:
390,251,139353,2,0,P|310:200|219:220,1,178,2|2,0:0|0:0,0:0:0:0:
175,281,140321,1,8,0:0:0:0:
90,253,140643,6,0,L|83:66,1,178,2|2,0:0|0:0,0:0:0:0:
149,14,141611,1,8,0:0:0:0:
222,64,141934,2,0,B|266:67|266:67|312:78,2,89,2|8|2,0:0|0:0|0:0,0:0:0:0:
160,127,142901,1,8,0:0:0:0:
231,180,143224,6,0,L|334:173,1,89,6|8,0:0|0:0,0:0:0:0:
303,261,143869,2,0,L|197:268,1,89,2|8,0:0|0:0,0:0:0:0:
127,286,144514,2,0,P|105:232|100:194,1,89,2|8,0:0|0:0,0:0:0:0:
31,145,145159,2,0,P|18:191|18:241,1,89,2|8,0:0|0:0,0:0:0:0:
32,320,145805,5,2,0:0:0:0:
105,374,146127,1,0,0:0:0:0:
127,286,146450,2,0,P|177:270|225:269,1,89,2|0,0:0|0:0,0:0:0:0:
291,311,147095,5,2,0:0:0:0:
331,231,147418,1,0,0:0:0:0:
275,161,147740,1,8,0:0:0:0:
316,82,148063,1,8,0:0:0:0:
256,15,148385,5,2,0:0:0:0:
322,120,150966,6,0,L|426:128,2,89,6|8|10,0:0|0:0|0:3,0:0:0:0:
237,148,151934,1,8,0:0:0:0:
193,225,152256,2,0,L|102:233,2,89,10|8|10,0:3|0:0|0:3,0:0:0:0:
274,260,153224,1,8,0:0:0:0:
325,333,153547,6,0,P|405:348|478:291,1,178,2|2,0:0|0:0,0:0:0:0:
360,157,154837,2,0,L|170:141,1,178,2|2,0:0|0:0,0:0:0:0:
113,85,155805,1,12,0:0:0:0:
58,154,156127,6,0,P|44:202|44:244,1,89,6|8,0:0|0:0,0:0:0:0:
110,300,156772,2,0,P|154:286|213:278,1,89,10|8,0:3|0:0,0:0:0:0:
279,312,157418,2,0,B|320:329|320:329|375:339,2,89,10|8|8,0:3|0:0|0:0,0:0:0:0:
269,223,158385,1,8,0:0:0:0:
310,143,158708,6,0,B|368:129|368:129|425:133|425:133|489:116,1,178,6|10,0:0|0:3,0:0:0:0:
510,32,159676,1,8,0:0:0:0:
422,46,159998,2,0,L|314:39,1,89,2|8,0:0|0:0,0:0:0:0:
246,20,160643,2,0,P|189:35|148:57,1,89,10|8,0:3|0:0,0:0:0:0:
117,125,161288,6,0,L|126:306,1,178,6|10,0:0|0:3,0:0:0:0:
184,370,162256,1,8,0:0:0:0:
239,300,162579,2,0,P|288:282|326:278,1,89,10|8,0:3|0:0,0:0:0:0:
359,196,163224,2,0,L|270:186,1,89,2|8,0:0|0:0,0:0:0:0:
303,102,163869,6,0,P|358:91|463:155,1,178,6|10,0:0|0:3,0:0:0:0:
464,237,164837,1,8,0:0:0:0:
392,289,165159,2,0,P|330:281|285:284,1,89,2|8,0:0|0:0,0:0:0:0:
229,331,165805,2,0,L|127:338,1,89,10|8,0:3|0:0,0:0:0:0:
60,297,166450,6,0,B|46:256|46:256|43:208,2,89,6|8|2,0:0|0:0|0:0,0:0:0:0:
140,337,167418,1,8,0:0:0:0:
142,248,167740,2,0,L|148:148,1,89,2|8,0:0|0:0,0:0:0:0:
231,130,168385,2,0,L|236:227,1,89,8|8,0:0|0:0,0:0:0:0:
225,307,169030,1,2,0:0:0:0:
291,366,169353,5,12,0:2:0:0:
418,240,169998,1,12,0:2:0:0:
247,190,170643,5,12,0:2:0:0:
369,318,171288,1,12,0:2:0:0:
326,145,171934,5,12,0:2:0:0:
190,260,172579,2,0,L|97:264,1,89,12|6,0:2|0:0,0:0:0:0:
