osu file format v5

[General]
AudioFilename: My Chemical Romance - Welcome to the Black Parade.mp3
AudioLeadIn: 0
PreviewTime: 106810
Countdown: 1
SampleSet: Normal
StackLeniency: 0.7
Mode: 0
LetterboxInBreaks: 1
EditorBookmarks: 25580,62380,92274,141758,181346,197555,223376,246773,251907

[Metadata]
Title:Welcome to the Black Parade
Artist:My Chemical Romance
Creator:MetalMario201
Version:The Patient
Source:
Tags:

[Difficulty]
HPDrainRate:4
CircleSize:5
OverallDifficulty:7
SliderMultiplier:1
SliderTickRate:2

[Events]
//Background and Video events
0,0,"tbp_desktop3_1024768.jpg"
//Break Periods
2,49769,61469
2,81334,91058
2,130973,140543
2,186717,196650
//Storyboard Layer 0 (Background)
//Storyboard Layer 1 (Failing)
//Storyboard Layer 2 (Passing)
//Storyboard Layer 3 (Foreground)
//Storyboard Sound Samples
//Background Colour Transformations
3,100,163,162,255

[TimingPoints]
3170,400,4,2,1,60,1
60770,-100,4,1,0,100,0
81134,309.278350515464,4,1,0,100,1
113724,-100,4,2,0,100,0
113840,-100,4,1,0,100,0
123621,-100,4,2,0,100,0
123737,-100,4,1,0,100,0
153311,-100,4,2,0,100,0
153427,-100,4,1,0,100,0
163208,-100,4,2,0,100,0
163324,-100,4,1,0,100,0
183832,335.195530726257,4,1,0,100,1
185172,340.909090909091,4,1,0,100,1
186565,348.837209302326,4,2,1,100,1
192065,342.857142857143,4,2,1,100,1
208494,346.820809248555,4,2,1,100,1
208667,-100,4,1,0,90,0
214044,335.195530726257,4,1,0,90,1
216762,324.324324324324,4,1,0,100,1
219344,315.789473684211,4,1,0,100,1
221540,309.278350515464,4,1,0,100,1
221825,309.278225396838,4,1,0,100,1
223487,-100,4,2,0,100,0
223603,-100,4,1,0,100,0
233384,-100,4,2,0,100,0
233500,-100,4,1,0,100,0
236940,-100,4,2,0,100,0
237056,-100,4,1,0,100,0
237404,-100,4,2,0,100,0
237520,-100,4,1,0,100,0
241628,320.855614973262,4,1,0,100,1
242269,-100,4,2,1,100,0

[Colours]
Combo1 : 147,30,0
Combo2 : 48,42,36
Combo3 : 182,147,73
Combo4 : 172,203,213

[HitObjects]
80,64,24770,5,0
120,64,24970,2,2,B|151:64|151:64|189:64|233:87|241:130,1,150,2|10
176,144,25970,1,0
176,144,26103,1,0
176,144,26236,1,0
176,144,26370,1,0
144,200,26770,1,0
112,168,26970,1,2
80,200,27170,1,10
80,264,27570,1,0
80,264,27703,1,0
80,264,27836,1,0
80,264,27970,1,0
144,264,28370,5,2
176,280,28570,2,2,B|224:305|273:279,1,100
304,264,29170,1,0
304,264,29303,1,0
304,264,29436,1,0
304,264,29570,1,0
360,232,29970,1,2
384,200,30170,2,0,B|488:200,2,100,2|0|0
360,168,31170,2,2,B|354:108|294:104,1,100
264,136,31770,1,2
232,104,31970,1,10
176,136,32370,5,0
176,136,32503,1,0
176,136,32636,1,0
176,136,32770,1,0
216,184,33170,5,2
184,216,33370,2,0,B|72:216,2,100,2|0|0
216,248,34370,2,0,B|230:274|258:272,1,50
288,248,34770,1,2
288,208,34970,1,2
320,176,35170,6,0,B|424:176,4,100,10|2|2|2|10
272,128,37170,1,0
272,128,37303,1,0
272,128,37436,1,0
272,128,37570,1,2
240,96,37770,6,2,B|209:96|209:96|171:96|127:119|119:162,1,150,2|14
168,208,38770,1,0
168,208,38903,1,0
168,208,39036,1,0
168,208,39170,1,0
120,256,39569,1,2
152,280,39769,2,0,B|200:305|249:279,1,100,2|0
280,256,40369,1,0
280,256,40503,1,0
280,256,40636,1,0
280,256,40769,1,0
328,208,41169,5,2
328,168,41369,2,2,B|280:143|231:169,1,100
192,168,41969,1,0
192,168,42103,1,0
192,168,42236,1,0
192,168,42369,1,0
144,120,42769,1,2
104,120,42969,2,0,B|104:224,2,100,2|0|0
128,80,43969,2,0,B|142:54|170:56,1,50
200,88,44369,1,0
232,56,44569,1,2
264,88,44769,1,14
312,136,45169,5,0
312,136,45303,1,0
312,136,45436,1,0
312,136,45569,1,0
376,136,45969,5,2
376,176,46169,2,2,B|304:248,1,100
264,248,46769,1,0
264,248,46903,1,0
264,248,47036,1,0
264,248,47169,2,0,B|208:248,3,50
192,208,47969,6,2,B|192:104,1,100,6|2
320,108,48769,2,2,B|320:212,1,100
256,160,49569,1,14
152,88,62369,5,0
176,88,62503,1,0
200,96,62636,1,0
216,112,62769,1,0
224,136,62903,1,0
224,160,63036,1,0
200,176,63169,1,0
176,176,63303,1,0
152,184,63436,1,0
136,200,63569,1,0
128,224,63703,1,0
128,248,63836,1,0
152,264,63969,1,4
200,304,64369,5,0
216,320,64503,1,0
240,328,64636,1,0
264,328,64769,1,0
288,320,64903,1,0
304,304,65036,1,0
328,280,65169,2,2,B|376:304|425:280,1,100,2|6
400,216,65969,5,0
392,192,66103,1,0
392,168,66236,1,0
400,144,66369,1,0
408,120,66503,1,0
408,96,66636,1,0
400,72,66769,1,2
344,104,67169,6,0,B|328:160|256:168,3,100,4|0|0|0
232,216,68769,5,0
232,240,68903,1,0
224,264,69036,1,0
208,288,69169,1,0
184,304,69303,1,0
160,312,69436,1,0
136,312,69569,1,0
112,304,69703,1,0
88,288,69836,1,0
72,264,69969,1,0
64,240,70103,1,0
64,216,70236,1,0
64,192,70369,1,4
96,136,70769,6,0,B|120:96|186:104,1,100
248,112,71569,1,0
272,120,71703,1,0
296,112,71836,1,0
320,120,71969,6,0,B|368:145|417:120,2,100,4|0|0
312,184,73169,1,0
296,208,73303,1,0
312,232,73436,1,0
296,256,73569,1,4
256,304,73969,5,0
232,304,74103,1,0
208,296,74236,1,0
184,280,74369,1,0
168,264,74503,1,0
152,240,74636,1,0
144,216,74769,1,0
144,192,74903,1,0
144,168,75036,1,0
152,144,75169,1,4
168,120,75303,1,0
184,104,75436,1,0
208,88,75569,1,0
232,80,75703,1,0
256,80,75836,1,0
280,80,75969,1,4
304,88,76103,1,0
328,104,76236,1,0
344,120,76369,1,0
360,144,76503,1,0
368,168,76636,1,0
368,200,76769,1,4
256,192,77170,12,0,81134
112,48,91958,5,2
112,176,92268,1,2
112,176,92422,2,0,B|42:199|48:115,2,100
176,112,93350,1,0
176,112,93659,1,2
448,48,94432,1,0
448,176,94742,1,2
448,176,94896,2,0,B|378:199|384:115,3,100,0|8|8|8
336,80,95979,5,0
320,144,96134,1,0
272,96,96288,1,2
256,160,96443,1,0
240,224,96597,1,0
192,176,96752,1,2
176,240,96907,1,0
128,192,97061,1,2
112,128,97216,5,8
112,128,97371,1,8
64,240,97680,2,0,B|128:272|192:246,1,100
288,272,98298,2,0,B|352:304|416:278,2,100,0|0|8
288,272,99226,1,8
288,272,99536,1,8
256,216,99690,5,0
224,272,99845,1,0
160,248,99999,1,8
160,248,100154,1,0
120,192,100309,1,0
136,128,100463,1,0
184,88,100618,1,8
184,88,100773,1,0
248,80,100927,1,0
312,80,101082,1,4
368,112,101237,2,0,B|304:160,1,50
336,208,101546,2,0,B|400:160,1,50,4|0
408,232,101855,2,0,B|344:280,1,50,4|0
312,296,102164,5,4
248,312,102319,1,0
120,296,102628,2,0,B|22:231|94:127,1,150
104,112,103247,2,0,B|151:52|222:106,1,100
312,136,103865,2,0,B|276:249|386:120|387:267,1,150
352,288,104484,1,2
224,288,104793,1,2
160,176,105103,1,2
288,176,105412,1,2
352,64,105721,1,2
408,96,105876,5,0
440,152,106030,1,0
376,152,106185,1,2
408,208,106340,1,0
432,264,106494,1,0
368,264,106649,1,2
336,320,106804,1,0
304,264,106958,1,2
240,264,107113,6,0,B|186:267|118:226,1,100
96,192,107577,2,0,B|49:149|58:87,1,100
184,80,108195,2,0,B|234:54|306:92,3,100,0|0|8|8
408,104,109432,2,0,B|478:263|324:349|201:247,1,350,8|0
128,248,110824,5,4
80,200,110979,1,0
136,168,111134,1,4
88,120,111288,1,0
144,88,111443,1,0
200,120,111597,1,0
256,88,111752,2,0,B|357:99|354:224|219:196,2,200,4|0|0
165,45,113298,6,0,B|116:24|37:76|26:106,1,150
80,136,113917,1,0
64,264,114226,1,8
96,320,114381,1,0
152,288,114536,2,0,B|220:361|440:326|416:230,1,300
416,136,115773,2,6,B|392:32|246:58,2,200
360,168,117164,5,0
424,256,117474,2,0,B|392:344|296:320,1,150
272,264,118092,2,0,B|209:343|151:311,1,100
136,288,118556,1,2
72,200,118865,1,2
128,168,119020,1,0
72,136,119175,2,0,B|112:82|172:119,1,100,0|8
216,144,119639,1,0
288,48,119948,2,0,B|355:58|352:123,1,100
384,168,120412,1,8
320,168,120566,1,0
384,280,120876,5,0
352,224,121030,1,8
320,280,121185,1,0
288,224,121340,1,4
240,176,121494,1,0
176,176,121649,2,0,B|75:187|78:312|213:284,2,200,4|0|0
88,136,123195,6,0,B|163:73|251:81,1,150
288,80,123814,1,0
384,32,124123,1,0
416,88,124278,1,0
480,88,124432,5,8
448,144,124587,1,0
416,200,124742,1,0
384,144,124896,1,8
352,200,125051,1,0
320,256,125206,1,0
288,200,125360,1,8
256,256,125515,1,0
224,312,125670,1,0
160,312,125824,1,12
128,256,125979,1,0
96,200,126134,1,0
128,144,126288,1,6
160,200,126443,1,0
192,144,126597,1,6
256,56,126907,5,10
256,56,127061,2,0,B|326:33|320:117,4,100,8|0|0|0|0
256,120,128453,1,2
256,232,128762,1,2
312,264,128917,1,0
256,296,129072,1,8
256,296,129226,2,0,B|186:319|192:235,3,100,10|0|0|0
191,249,130463,1,0
191,249,130773,1,0
256,192,141443,5,2
200,296,141752,1,4
264,312,141907,1,0
392,296,142216,2,0,B|490:231|418:127,1,150
408,112,142835,2,0,B|361:52|290:106,1,100
200,136,143453,2,0,B|209:232|134:171,1,100
120,240,143917,1,2
224,288,144226,1,2
288,288,144381,1,0
352,176,144690,1,2
224,176,144999,1,2
160,64,145309,1,2
104,96,145463,5,0
72,152,145618,1,0
136,152,145773,1,2
104,208,145927,1,0
80,264,146082,1,0
144,264,146237,1,2
176,320,146391,1,0
208,264,146546,1,2
272,272,146701,5,8
336,256,146855,1,8
416,192,147164,2,0,B|463:149|454:87,1,100
328,80,147783,2,0,B|278:54|206:92,3,100,0|0|8|8
104,104,149020,2,0,B|34:263|188:349|311:247,1,350,8|0
384,248,150412,5,4
432,200,150566,1,0
376,168,150721,1,4
424,120,150876,1,0
368,88,151030,1,0
312,120,151185,1,0
256,88,151340,2,0,B|155:99|158:224|293:196,2,200,4|0|0
347,45,152886,6,0,B|396:24|475:76|486:106,1,150
432,136,153505,1,0
448,264,153814,1,8
400,312,153969,1,0
352,264,154123,1,0
240,264,154432,1,8
208,320,154587,1,0
176,256,154742,1,0
144,312,154896,1,0
112,248,155051,1,8
56,136,155360,2,0,B|55:72|111:39,1,100,0|8
152,80,155824,2,0,B|106:113|122:176,1,100
184,136,156288,1,6
152,240,156597,5,8
208,200,156752,1,0
88,256,157061,2,0,B|120:344|216:320,1,150
240,264,157680,2,0,B|303:343|361:311,1,100
376,288,158144,1,2
440,200,158453,1,2
384,168,158608,1,0
440,136,158762,2,0,B|400:82|340:119,1,100,0|8
296,144,159226,1,0
224,48,159536,2,0,B|157:58|160:123,1,100
128,168,159999,1,8
192,168,160154,1,0
128,280,160463,5,0
160,224,160618,1,8
192,280,160773,1,0
224,224,160927,1,4
272,176,161082,1,0
336,176,161237,2,0,B|437:187|434:312|299:284,2,200,4|0|0
424,136,162783,6,0,B|349:73|261:81,1,150
224,80,163402,1,0
128,32,163711,1,0
96,88,163865,1,0
32,88,164020,5,8
64,144,164175,1,0
96,200,164329,1,0
128,144,164484,1,8
160,200,164639,1,0
192,256,164793,1,0
224,200,164948,1,8
256,256,165103,1,0
288,312,165257,1,0
352,312,165412,1,12
384,256,165566,1,0
416,200,165721,1,0
384,144,165876,1,6
352,200,166030,1,0
320,144,166185,1,6
256,56,166494,5,10
256,56,166649,2,0,B|186:33|192:117,2,100,8|0|0
256,120,167422,1,0
320,120,167577,2,0,B|343:190|259:184,1,100
208,184,168041,1,2
96,160,168350,1,2
104,224,168505,1,0
152,272,168659,1,0
256,328,168969,1,10
256,328,169123,2,0,B|326:351|320:267,2,100,8|0|0
256,264,169896,1,2
360,224,170206,2,4,B|412:102|285:72,2,200
296,224,171597,5,0
232,336,171907,1,0
168,224,172216,1,8
104,112,172525,2,0,B|151:70|239:111,2,100,0|0|8
104,112,173453,1,8
104,112,173762,1,8
72,168,173917,5,2
104,224,174072,1,0
136,280,174226,1,0
168,224,174381,1,0
200,280,174536,1,2
232,336,174690,1,8
264,280,174845,1,8
440,168,175154,5,2
408,224,175309,1,0
376,280,175463,1,0
344,224,175618,1,0
312,280,175773,1,2
280,336,175927,1,8
248,280,176082,1,8
296,160,176391,5,4
296,160,176546,1,0
232,48,176855,1,0
168,160,177164,1,8
104,272,177474,2,0,B|151:314|239:273,2,100,0|0|8
104,272,178402,1,8
104,272,178711,1,8
72,216,178865,5,2
104,160,179020,1,0
136,104,179175,1,0
168,160,179329,1,0
200,104,179484,1,2
232,48,179639,1,8
264,104,179793,1,8
448,216,180103,5,2
416,160,180257,1,0
416,96,180412,1,8
360,128,180566,1,0
320,80,180721,2,0,B|294:36,1,50,2|0
232,40,181030,2,0,B|206:84,1,50,2|0
208,144,181340,5,0
208,144,181494,2,0,B|256:117|304:144,3,100
368,160,182577,2,0,B|352:208,1,50
416,216,182886,2,0,B|400:264,1,50
352,320,183195,2,0,B|336:272,1,50
272,280,183505,2,0,B|256:232,1,50
256,192,183814,12,4,186517
48,168,197550,6,0,B|85:124,1,50,12|0
112,168,197893,2,0,B|149:124,1,50,2|0
176,168,198236,2,2,B|198:297|325:247,1,200,2|10
352,216,199093,1,0
384,248,199265,1,2
416,216,199436,1,0
456,216,199607,2,0,B|472:156|413:136,1,100,2|2
208,48,200465,5,0
176,80,200636,1,2
208,112,200807,1,0
176,144,200979,2,2,B|90:152|121:275|129:313,1,200,2|10
160,336,201836,1,0
192,304,202007,1,2
224,336,202179,1,0
256,304,202350,2,0,B|256:194,2,100,2|2|14
320,280,203379,5,0
344,312,203550,1,0
384,312,203722,2,2,B|391:275|425:152|333:144,1,200,2|10
304,176,204579,1,0
272,144,204750,1,2
240,176,204922,1,0
208,144,205093,2,0,B|174:144|162:192|206:242,1,100,2|2
400,168,206122,5,0
368,136,206293,1,0
336,168,206465,2,2,B|314:297|187:247,1,200,2|10
160,216,207322,1,0
128,248,207493,1,2
96,216,207665,1,0
56,216,207836,2,0,B|40:156|99:136,2,100,10|2|14
232,48,208840,5,2
280,48,209014,1,0
312,72,209187,2,2,B|351:128|196:115|284:245,1,200
312,264,210054,1,0
320,304,210228,1,2
288,328,210401,1,0
240,328,210574,2,0,B|244:260|182:264,1,100,2|2
432,168,211615,5,0
432,216,211788,1,0
408,248,211962,2,2,B|352:287|365:132|235:220,1,200
216,248,212829,1,0
176,256,213002,1,2
136,240,213176,1,0
120,200,213349,2,0,B|120:88,2,100,2|2|6
280,336,214379,5,2
232,336,214546,1,0
256,296,214714,2,2,B|306:235|253:97,1,200
224,72,215552,1,0
176,64,215719,1,2
136,88,215887,1,0
128,136,216055,2,0,B|196:132|192:194,1,100,2|2
448,96,216762,5,4
192,288,217086,1,4
320,96,217410,1,4
64,288,217734,1,4
64,96,218059,5,4
320,288,218383,1,4
192,96,218707,1,4
448,288,219032,1,4
376,144,219329,6,0,B|376:97|336:80,2,75
248,104,220128,1,0
248,104,220207,1,0
248,104,220286,1,0
184,128,220444,1,0
152,72,220602,1,2
192,264,221075,5,0
192,264,221154,1,0
192,264,221233,1,4
256,296,221391,1,0
256,296,221470,1,0
256,296,221554,2,0,B|357:285|354:160|219:188,2,200,4|0|0
165,339,223062,6,0,B|116:360|37:308|26:278,1,150
80,248,223680,1,0
64,120,223989,1,8
96,64,224144,1,0
152,96,224299,1,0
288,112,224608,1,10
312,48,224763,1,0
376,48,224917,1,0
400,112,225072,1,0
344,152,225227,1,10
400,264,225536,2,4,B|359:314|309:278,3,100
424,200,226773,5,4
360,216,226928,1,0
424,128,227237,2,0,B|392:40|296:64,1,150
272,120,227855,2,0,B|209:41|151:73,1,100
136,96,228319,1,2
72,184,228629,1,2
128,216,228783,1,0
72,248,228938,2,0,B|112:302|172:265,1,100,0|8
216,240,229402,1,0
288,336,229711,2,0,B|355:326|352:261,1,100
384,216,230175,1,8
320,216,230330,1,0
384,104,230639,5,0
352,160,230794,1,8
320,104,230948,1,0
288,160,231103,1,4
240,208,231257,1,0
176,208,231412,2,0,B|75:197|78:72|213:100,2,200,4|0|0
88,248,232959,6,0,B|163:311|251:303,1,150
256,248,233577,1,0
200,128,233886,1,0
256,88,234041,1,0
256,24,234196,5,8
192,32,234350,1,0
136,72,234505,1,0
96,128,234660,1,8
88,192,234814,1,0
96,256,234969,1,0
136,312,235123,1,8
192,352,235278,1,0
256,360,235433,1,0
320,352,235587,1,12
376,312,235742,1,0
416,256,235897,1,0
424,192,236051,1,6
416,128,236206,1,0
376,72,236361,1,6
248,96,236670,5,10
248,96,236824,2,0,B|224:109|199:95,1,50,8|0
144,64,237134,2,0,B|72:91|98:139,1,100
80,200,237598,1,0
120,248,237752,2,0,B|168:210|212:259,1,100
224,320,238216,1,2
344,272,238526,1,2
392,320,238680,1,0
408,256,238835,1,0
296,224,239144,6,4,B|280:258|231:258|215:222,3,100
336,168,240381,2,4,B|303:100|207:100|175:171,2,200
256,192,242276,12,12,251902
