osu file format v5

[General]
AudioFilename: My Chemical Romance - Welcome to the Black Parade.mp3
AudioLeadIn: 0
PreviewTime: 106810
Countdown: 2
SampleSet: Normal
StackLeniency: 0.7
Mode: 0
LetterboxInBreaks: 1
EditorBookmarks: 25580,62380,92274,141758,181346,197555,223376,246773,251907

[Metadata]
Title:Welcome to the Black Parade
Artist:My Chemical Romance
Creator:MetalMario201
Version:Skull Troop
Source:
Tags:

[Difficulty]
HPDrainRate:2
CircleSize:4
OverallDifficulty:3
SliderMultiplier:0.8
SliderTickRate:2

[Events]
//Background and Video events
0,0,"tbp_desktop3_1024768.jpg"
//Break Periods
2,49770,60930
2,81334,90518
2,130972,140003
2,186735,196110
//Storyboard Layer 0 (Background)
//Storyboard Layer 1 (Failing)
//Storyboard Layer 2 (Passing)
//Storyboard Layer 3 (Foreground)
//Storyboard Sound Samples
//Background Colour Transformations
3,100,163,162,255

[TimingPoints]
3170,400,4,2,1,60,1
60780,-100,4,1,0,100,0
81134,309.278350515464,4,1,0,100,1
183832,335.195530726257,4,1,0,100,1
185172,340.909090909091,4,1,0,100,1
186565,348.837209302326,4,2,1,100,1
192065,342.857142857143,4,2,1,100,1
208494,346.820809248555,4,2,1,100,1
208688,-100,4,1,0,90,0
214044,335.195530726257,4,1,0,90,1
216762,324.324324324324,4,1,0,100,1
219344,315.789473684211,4,1,0,100,1
221540,309.278350515464,4,1,0,100,1
221825,309.278225396838,4,1,0,100,1
234892,-100,4,1,1,100,0
235278,-100,4,1,0,100,0
241628,320.855614973262,4,1,0,100,1
242269,-100,4,2,1,100,0

[Colours]
Combo1 : 147,30,0
Combo2 : 48,42,36
Combo3 : 182,147,73
Combo4 : 172,203,213

[HitObjects]
112,48,25570,5,8
256,48,26370,1,0
400,48,27170,1,8
400,264,28370,5,0
400,336,28770,1,8
256,336,29570,1,0
112,336,30370,1,8
112,192,31170,5,0
112,120,31570,1,0
184,120,31970,1,8
328,120,32770,1,0
328,264,33570,1,8
184,264,34370,5,0
184,264,34770,1,0
176,192,35170,6,0,B|352:192,2,160,8|0|8
208,48,37570,5,0
280,48,37970,1,0
352,48,38370,1,12
352,192,39170,1,0
352,336,39970,1,8
136,336,41170,5,0
64,336,41570,1,12
64,192,42370,1,0
64,48,43170,1,8
208,48,43970,5,0
208,120,44370,1,0
208,192,44770,1,12
208,336,45570,1,0
280,336,45970,1,0
352,336,46370,1,8
448,228,47170,5,0
448,156,47570,1,0
384,192,47970,6,12,B|56:192,1,320
256,56,62370,6,2,B|256:224,2,160,2|2|6
144,240,65170,5,0
144,192,65370,1,0
144,144,65570,1,4
368,144,66770,5,2
368,192,66970,1,0
368,240,67170,1,4
232,192,67970,1,0
232,192,68770,1,4
400,352,70370,5,4
328,352,70770,1,0
256,352,71170,1,0
184,352,71570,1,0
112,352,71970,1,4
148,64,73570,5,4
220,64,73970,1,0
292,64,74370,1,0
364,64,74770,1,0
336,136,75170,6,4,B|168:136,2,160
256,192,77170,12,0,81134
104,88,91958,5,2
176,88,92268,1,2
128,184,92731,1,0
128,184,93041,1,0
128,184,93350,1,0
128,184,93659,1,2
408,88,94432,5,0
336,88,94742,1,2
384,184,95206,1,8
384,184,95515,1,8
312,184,95824,1,8
152,72,96907,5,0
120,136,97216,1,0
88,240,97680,2,0,B|136:272|168:272,1,80
232,280,98298,1,0
232,280,98608,1,0
232,280,98917,1,8
232,280,99226,1,8
232,280,99536,1,8
336,240,101855,5,0
296,304,102164,1,4
296,304,102319,1,0
224,280,102628,1,0
104,192,103247,1,0
144,128,103556,1,0
208,96,103865,1,0
336,104,104484,5,2
408,128,104793,1,2
424,200,105103,1,2
368,248,105412,1,2
296,224,105721,1,2
48,184,106804,5,0
96,128,107113,2,0,B|143:65|194:64,1,120
208,136,107886,1,8
256,192,108195,1,0
256,192,108505,1,0
256,192,108814,1,8
256,192,109123,1,8
280,120,109432,2,0,B|360:152|353:246|301:296|224:284|192:243|177:221,1,280,8|0
120,224,110824,6,4,B|102:143|183:82,1,160
248,64,111752,2,0,B|308:75|339:131|319:185,1,160,4|0
184,136,112989,5,0
136,80,113298,2,2,B|81:106|59:147|57:222,1,160
104,264,114226,2,0,B|180:306|258:263,1,160
392,296,115463,1,0
432,232,115773,2,6,B|476:146|391:95,2,160
336,184,117474,6,0,B|326:275|238:298,1,160
168,296,118402,1,2
120,120,119175,1,0
184,152,119484,2,0,B|281:146|292:93,2,120,8|0|0
200,224,120721,6,4,B|290:213|354:257,1,160
344,328,121649,2,0,B|419:335|443:260|414:222,1,160,4|0
352,96,122886,5,0
288,56,123195,2,2,B|220:16|151:106,1,160
80,96,124123,2,0,B|14:135|69:252,1,160
208,248,125360,1,0
272,280,125670,1,6
336,248,125979,1,0
336,176,126288,1,6
256,48,126907,5,10
256,48,127061,1,8
328,48,127371,2,0,B|418:70|446:184|406:242,1,240,0|2
256,336,129072,1,8
256,336,129226,1,10
184,336,129536,1,0
112,312,129845,2,0,B|22:290|-6:176|34:118,1,240
176,240,141443,5,0
216,304,141752,1,4
216,304,141907,1,0
288,280,142216,1,0
408,192,142835,1,0
368,128,143144,1,0
304,96,143453,2,2,B|231:135|190:103,1,120
120,128,144226,5,2
120,128,144381,1,0
88,200,144690,1,2
144,248,144999,1,2
216,224,145309,1,2
464,184,146391,5,0
416,128,146701,2,0,B|369:65|318:64,1,120
304,136,147474,1,8
256,192,147783,1,0
256,192,148092,1,0
256,192,148402,1,8
256,192,148711,1,8
232,120,149020,2,0,B|152:152|159:246|211:296|288:284|320:243|335:221,1,280,8|0
392,224,150412,6,4,B|410:143|329:82,1,160
264,64,151340,2,0,B|204:75|173:131|193:185,1,160,4|0
328,136,152577,5,0
376,80,152886,2,2,B|431:106|453:147|455:222,1,160
408,264,153814,2,0,B|332:306|254:263,1,160
120,296,155051,1,0
80,232,155360,2,6,B|63:190|97:159,1,80,6|2
152,112,155979,1,6
288,168,156597,5,4
176,184,157061,2,0,B|186:275|274:298,1,160
344,296,157989,1,2
392,120,158762,1,0
328,152,159072,2,0,B|231:146|220:93,2,120,8|0|0
312,224,160309,6,4,B|222:213|158:257,1,160
168,328,161237,2,0,B|93:335|69:260|98:222,1,160,4|0
160,96,162474,5,0
224,56,162783,2,2,B|292:16|361:106,1,160
416,152,163711,2,0,B|482:233|374:273,1,160,0|0
304,272,164639,2,0,B|304:360,2,80,0|0|6
232,256,165566,1,0
208,184,165876,1,6
256,48,166494,5,10
256,48,166649,1,8
184,48,166958,2,0,B|94:70|66:184|106:242,1,240,0|2
256,336,168659,1,0
328,336,168969,1,10
328,336,169123,1,8
400,312,169432,2,0,B|459:275|464:215,1,120
472,144,170206,1,4
328,144,170824,1,4
184,144,171443,5,4
136,240,171907,1,0
152,312,172216,1,8
216,344,172525,2,0,B|304:344,4,80,0|0|8|8|8
256,168,174536,5,4
256,168,175154,1,4
256,168,175773,1,4
368,256,176391,5,4
376,144,176855,1,0
360,72,177164,1,8
296,40,177474,2,0,B|208:40,4,80,0|0|8|8|8
256,216,179484,5,4
256,216,180103,1,4
256,216,180721,1,4
112,216,181340,5,4
112,216,181494,1,0
128,144,181804,2,2,B|141:72|248:72|248:72|258:72,1,160
392,192,183195,1,8
392,192,183350,1,8
304,248,183832,6,4,B|243:224|243:152|305:128,2,160
168,192,185853,1,4
168,192,186535,1,4
184,64,197550,5,12
256,64,197893,1,0
328,64,198236,1,2
256,264,199265,1,0
256,192,199607,1,2
256,192,199950,1,2
400,168,200636,5,0
400,240,200979,1,2
184,192,202007,1,0
120,154,202350,2,0,B|99:192|120:231,2,80,2|2|14
168,96,203379,5,0
240,80,203722,1,2
360,256,204750,1,0
296,296,205093,1,2
224,312,205436,1,2
96,248,206122,5,0
128,184,206465,1,2
320,80,207493,1,0
392,64,207836,1,2
448,112,208179,1,2
448,184,208515,5,12
376,184,208861,1,0
304,184,209208,2,2,B|136:184,1,160
72,184,210249,1,0
104,248,210595,1,2
168,280,210942,1,2
312,280,211636,5,0
312,208,211983,2,2,B|312:40,1,160
240,48,213023,1,0
240,120,213370,1,2
240,192,213717,1,2
176,156,214044,5,4
104,156,214379,1,0
48,208,214714,2,2,B|168:328,1,160
232,320,215719,1,0
304,320,216055,1,2
376,320,216390,1,2
448,320,216762,5,4
48,192,218059,5,4
448,64,219344,5,4
176,112,220291,5,0
120,160,220607,2,4,B|102:241|183:302,1,160
248,320,221540,2,0,B|307:308|338:253|320:198,1,160,4|0
184,248,222752,5,0
136,304,223062,2,2,B|81:278|59:237|57:162,1,160
104,120,223989,2,0,B|180:78|258:121,1,160
392,88,225227,1,0
440,144,225536,2,2,B|442:188|414:218,1,80,6|2
368,272,226154,2,2,B|337:305|295:296,1,80,6|2
240,248,226773,1,12
336,200,227237,6,0,B|326:109|238:86,1,160
168,88,228165,1,2
120,264,228938,1,0
184,232,229247,2,0,B|281:238|292:291,2,120,8|0|0
200,160,230484,6,4,B|290:171|354:127,1,160
344,56,231412,2,0,B|419:49|443:124|414:162,1,160,4|0
352,288,232649,5,0
288,328,232959,2,2,B|179:353|151:278,1,160
112,216,233886,2,0,B|107:171|138:143,1,80
208,144,234505,2,2,B|208:48,2,80,2|10|0
280,136,235433,1,6
288,208,235742,1,0
216,216,236051,1,14
184,280,236361,1,0
240,336,236670,5,12
240,336,236824,1,8
312,336,237134,2,0,B|379:325|401:262,1,120
400,264,237752,1,8
400,192,238062,1,8
400,192,238216,2,0,B|395:149|367:119,2,80,2|2|2
320,184,239144,2,4,B|288:128|224:128|191:185,4,160
256,192,242281,12,12,251907
