osu file format v5

[General]
AudioFilename: The Black Parade-My Chemical Romance-04-The Sharpest Live.mp3
AudioLeadIn: 0
PreviewTime: -1
Countdown: 1
SampleSet: Normal
StackLeniency: 0.7
Mode: 0
LetterboxInBreaks: 1

[Metadata]
Title:The Sharpest Lives
Artist:My Chemical Romance
Creator:antony11
Version:Hard
Source:
Tags:

[Difficulty]
HPDrainRate:8
CircleSize:6
OverallDifficulty:8
SliderMultiplier:1.4
SliderTickRate:2

[Events]
//Background and Video events
0,0,"My Chemical Romance.jpg"
//Break Periods
2,24880,30404
2,68235,76188
2,96686,97091
2,121351,134706
2,148558,151478
2,169074,180211
//Storyboard Layer 0 (Background)
//Storyboard Layer 1 (Failing)
//Storyboard Layer 2 (Passing)
//Storyboard Layer 3 (Foreground)
//Storyboard Sound Samples
//Background Colour Transformations
3,100,163,162,255

[TimingPoints]
3195,387.096774193548,4,1,0,31,1
18678,387.096774193548,4,1,0,100,0

[Colours]
Combo1 : 128,0,0
Combo2 : 0,0,160
Combo3 : 225,113,0
Combo4 : 0,159,0

[HitObjects]
64,64,5711,5,0
96,64,5904,1,0
128,64,6098,1,4
224,64,6485,5,0
256,64,6678,1,4
288,64,6872,1,4
384,64,7259,5,0
416,64,7453,1,0
448,64,7646,1,4
448,192,8033,5,0
416,192,8227,1,0
384,192,8420,1,4
288,192,8807,5,0
256,192,9001,1,0
224,192,9195,1,4
128,192,9582,5,0
96,192,9775,1,0
64,192,9969,1,4
64,320,10356,5,0
96,320,10549,1,0
128,320,10743,1,4
224,320,11130,5,0
256,320,11324,1,0
288,320,11517,1,4
384,320,11904,5,0
416,320,12098,1,0
448,320,12291,1,4
416,256,12678,6,0,B|416:160,2,70
320,256,13453,6,0,B|320:160,2,70
192,256,14227,6,0,B|192:128,2,70
96,256,15001,6,0,B|96:160,2,70
96,128,15775,6,0,B|96:224,2,70
192,128,16549,6,0,B|192:224,2,70
320,128,17324,6,0,B|320:224,2,70,0|0|0
416,128,18098,6,0,B|416:224,2,70,0|0|0
448,288,18871,5,0
416,288,19065,1,0
384,288,19258,1,4
352,224,19645,5,0
320,224,19839,1,0
288,224,20032,1,4
256,160,20419,5,0
224,160,20613,1,0
192,160,20807,1,4
160,96,21194,5,0
128,96,21387,1,0
96,96,21581,1,4
192,32,21968,5,0
224,32,22161,1,0
256,32,22355,1,4
288,96,22742,5,0
320,96,22936,1,0
352,96,23129,1,4
384,160,23516,5,0
416,160,23710,1,0
448,160,23903,1,4
352,224,24290,5,0
320,224,24484,1,0
288,224,24677,1,4
128,64,31452,6,8,B|256:64,1,70
256,64,31839,1,2
256,128,32032,2,8,B|384:128,1,70
384,128,32419,6,8,B|512:128|512:224|480:288|416:352,1,280
384,320,33581,1,0
352,320,33774,1,0
320,320,33968,1,0
224,320,34548,1,0
192,320,34742,1,0
128,320,35129,1,2
128,320,35516,6,0,B|64:288|32:192|64:128|64:96,1,210
160,96,36871,1,0
192,96,37065,2,0,B|192:224|256:224,1,140
288,224,37645,2,0,B|352:192|352:32,1,140
448,96,38419,1,0
480,96,38613,1,0
480,128,38807,2,0,B|480:288,2,140
256,352,39968,5,8
224,320,40161,1,0
256,288,40355,1,8
224,256,40548,1,0
256,224,40742,1,8
224,192,40936,1,0
256,160,41129,1,8
224,128,41323,1,0
256,96,41516,2,8,B|160:32|128:96,2,140,2|2|2
320,96,42484,5,0
352,96,42677,2,0,B|480:160,1,140
480,192,43258,1,0
480,224,43452,1,0
480,288,43839,2,0,B|384:352|256:352|192:256,1,280
96,288,45194,5,8
64,256,45387,1,0
96,224,45581,1,8
64,192,45774,1,0
96,160,45968,1,8
128,160,46161,1,0
160,160,46355,2,0,C|256:160,1,70
288,160,46936,1,0
288,192,47129,1,0
352,192,47516,1,2
352,128,47903,2,8,C|416:96|352:64,1,140
320,64,48484,5,0
288,64,48677,1,0
256,64,48871,1,0
224,64,49065,2,8,B|128:64,1,70
128,64,49452,1,0
96,64,49645,1,0
32,64,50032,2,8,B|32:288|224:320,1,350
256,256,51387,5,0
224,224,51581,1,0
256,192,51774,1,0
224,160,51968,1,0
256,96,52355,1,0
288,96,52548,2,0,C|352:64,1,70
384,64,52936,1,0
416,64,53129,2,0,C|480:96|480:192,1,140
448,160,53710,1,0
384,160,54097,1,0
416,224,54677,5,2
384,256,54871,1,8
416,288,55065,1,2
320,288,55452,1,0
288,256,55645,1,0
256,288,55839,2,8,B|160:288,1,70
186,288,56226,6,0,B|64:288|32:160|64:64,1,280
128,96,57387,1,2
160,96,57581,1,2
192,96,57774,1,2
224,96,57968,2,8,B|288:192|320:96,1,140
384,96,58742,1,2
416,96,58936,1,2
480,96,59323,1,4
480,96,59516,1,4
480,160,59903,1,0
480,224,60290,1,0
352,224,60871,6,8,B|224:224,7,70
288,224,62419,1,2
192,224,63581,6,8,B|96:224,7,70
128,224,65129,1,2
160,192,65323,5,0
192,160,65516,1,0
160,128,65710,1,0
192,96,65903,2,8,B|288:96,2,70
256,192,66484,12,2,68032
96,96,76936,5,0
128,128,77129,1,0
160,160,77323,1,0
256,160,77710,5,0
256,128,77903,1,0
256,96,78097,1,0
352,160,78484,5,0
384,128,78677,1,0
416,96,78871,1,0
416,288,79258,5,0
384,256,79452,1,0
352,224,79645,1,0
256,288,80032,5,0
256,256,80226,1,0
256,224,80419,1,0
160,224,80807,5,0
128,256,81000,1,0
96,288,81194,1,0
64,128,81581,5,0
96,128,81774,1,0
128,128,81968,1,0
224,128,82355,5,0
256,128,82548,1,0
288,128,82742,1,0
384,128,83129,5,0
416,128,83323,1,0
448,128,83516,1,0
160,64,84097,6,0,B|256:64,1,70
256,64,84484,1,0
288,64,84677,2,0,B|384:64,1,70
388,65,85065,2,2,B|473:124|476:274|474:338|436:358|400:262|373:202|368:120|316:122|305:190|328:339,1,560
160,288,87194,5,0
192,256,87387,2,8,B|160:192|96:288,1,70
136,241,87774,2,8,B|64:288|96:160,1,70
86,227,88161,2,0,B|88:92|74:47|199:27|344:52,1,350
416,96,89516,5,0
416,128,89710,2,0,B|416:320,1,140
384,288,90290,2,0,B|224:288,1,140
224,288,90871,1,2
192,288,91065,2,2,B|96:288,2,70
160,224,91645,5,0
192,192,91839,1,0
160,160,92032,1,0
192,128,92226,1,0
160,96,92419,1,0
192,64,92613,1,0
224,64,92807,1,2
256,64,93000,5,0
288,64,93194,1,0
320,96,93387,1,0
288,128,93581,1,0
320,160,93774,1,0
288,192,93968,1,0
320,224,94161,1,0
288,256,94355,1,0
320,288,94548,2,8,B|418:267|416:160,3,140,8|0|8|0
416,128,96097,1,4
352,128,96484,1,4
192,128,97839,5,0
160,128,98032,1,8
128,128,98226,1,0
96,128,98419,1,8
96,160,98613,2,0,C|96:256,1,70
96,256,99000,1,2
128,288,99194,1,2
192,288,99581,1,0
224,288,99774,1,0
256,288,99968,2,0,B|352:288,1,70
384,288,100548,1,0
448,288,101129,5,0
448,256,101323,1,0
448,224,101516,1,0
448,192,101710,1,0
448,128,102097,1,0
448,96,102290,1,0
448,32,102677,2,0,B|224:32,1,210
96,64,103839,5,0
96,96,104032,1,0
96,128,104226,1,0
96,160,104419,1,0
96,192,104613,1,0
96,256,105000,1,0
128,256,105194,1,0
160,256,105387,1,0
224,256,105774,1,0
256,256,105968,1,0
320,256,106355,1,0
320,256,106742,1,0
448,256,107323,5,0
448,224,107516,1,0
448,192,107710,1,0
448,160,107903,1,0
448,96,108290,1,0
448,64,108484,1,0
384,64,108871,2,2,B|384:256|384:256|320:256|320:256|320:64,1,420
320,64,110226,5,8
288,64,110419,1,0
256,64,110613,1,8
224,64,110807,1,0
192,64,111000,1,8
128,64,111387,1,0
96,64,111581,1,8
96,128,111968,1,0
96,160,112161,1,0
96,224,112548,1,2
96,224,112936,1,2
160,288,113323,6,8,B|256:288,7,70
224,288,115065,6,0,C|288:256|352:288,1,140
352,288,116419,6,8,B|448:288,6,70
384,96,118161,5,0
384,96,118355,1,0
320,96,118742,1,0
320,96,119129,2,0,B|224:32|128:64|64:160|64:256|128:320|288:352|352:352|384:288|384:96|288:96,1,700
64,32,135581,5,0
128,32,135968,1,0
96,96,136355,1,0
160,96,136742,1,0
128,160,137129,1,0
192,160,137516,1,0
160,224,137903,1,0
224,224,138290,1,0
192,288,138677,1,0
256,288,139065,1,0
320,288,139452,5,0
352,256,139645,1,8
320,224,139839,1,0
352,192,140032,1,8
320,160,140226,1,0
352,128,140419,1,8
320,96,140613,1,0
352,64,140807,1,8
416,64,141000,5,0
416,64,141129,1,2
416,64,141258,1,2
416,64,141387,1,2
416,64,141516,1,2
416,64,141645,1,2
416,64,141774,1,2
416,64,141903,5,2
416,64,142032,1,2
416,64,142161,1,2
416,64,142290,1,2
416,64,142419,1,2
416,64,142548,1,2
256,192,142677,12,0,145449
96,64,145839,5,0
128,64,146032,2,0,B|224:64,1,70
224,64,146419,1,0
256,64,146613,2,0,B|384:64,1,70
352,64,147000,1,0
384,64,147194,1,0
448,64,147581,1,0
448,96,147774,1,0
448,128,147968,1,0
448,192,148355,1,0
448,320,152226,5,8
416,320,152419,1,0
384,320,152613,1,8
352,320,152807,1,0
320,320,153000,2,0,B|224:320,3,70
224,320,153774,1,0
192,320,153968,1,0
128,320,154355,1,0
64,320,154742,1,0
32,192,155323,5,8
64,192,155516,1,0
96,192,155710,2,2,B|192:192,1,70
192,192,156097,1,0
224,192,156290,1,0
256,192,156484,1,0
320,192,156871,2,0,B|319:80|320:32|352:32|384:64|416:192,1,280
416,256,158032,5,0
416,224,158226,1,8
416,192,158419,1,0
448,192,158613,1,8
480,192,158807,2,2,B|480:96,1,70
480,32,159387,1,0
448,32,159581,1,0
384,32,159968,1,0
352,32,160161,1,0
288,32,160548,1,2
288,32,160936,1,2
64,96,161323,5,0
96,96,161516,1,8
128,96,161710,1,0
160,96,161903,1,8
192,96,162097,1,0
256,96,162484,2,8,B|256:288,1,140
256,236,163065,2,0,B|148:250|154:326|369:346,1,280
384,256,164613,5,0
352,224,164807,1,0
384,192,165000,1,8
352,160,165194,1,0
384,128,165387,1,8
352,96,165581,1,0
384,64,165774,1,8
448,32,166161,1,0
480,32,166355,1,8
480,96,166742,1,0
480,160,167129,2,2,B|480:320|426:352|384:352|288:256,1,280
320,224,168290,5,0
160,224,168871,5,0
32,128,181258,6,0,C|160:128,7,70
64,160,182807,1,2
96,192,183000,1,0
64,224,183194,1,2
96,256,183387,1,0
64,288,183581,1,2
96,320,183774,6,0,B|160:352|256:256,1,140,2|0
224,288,184355,1,0
224,288,184548,1,2
224,288,184742,1,0
224,288,184936,1,2
224,288,185129,1,0
224,288,185323,6,2,B|416:288|384:288,1,140
364,288,185903,1,0
364,288,186097,1,2
364,288,186290,1,0
364,288,186484,1,2
364,288,186678,1,0
364,288,186871,6,0,C|480:256|480:160,1,210
478,143,187645,2,8,B|440:43|368:36|356:60,2,140
432,153,188613,5,2
382,161,188807,2,0,B|381:291|270:277|206:216|228:154,1,280
224,128,189774,1,2
224,96,189968,1,0
224,64,190161,1,2
192,64,190355,1,0
160,64,190548,1,2
118,64,190742,2,0,B|120:191|224:211,1,140,2|0
202,190,191323,5,0
224,224,191516,1,2
256,224,191710,1,0
256,256,191903,1,2
288,256,192097,1,0
288,288,192290,1,2
320,288,192484,1,0
320,320,192678,2,2,B|384:352|448:224|384:160|288:128,1,280
256,128,193645,5,4
256,128,194419,5,4
256,128,195194,5,4
256,128,195968,5,0
