osu file format v5

[General]
AudioFilename: My Chemical Romance - Teenagers.mp3
AudioLeadIn: 0
PreviewTime: -1
Countdown: 3
SampleSet: Soft
StackLeniency: 0.7
Mode: 0
LetterboxInBreaks: 1

[Metadata]
Title:Teenagers
Artist:My Chemical Romance
Creator:jpzaoback
Version:CrazyNormal
Source:
Tags:

[Difficulty]
HPDrainRate:4
CircleSize:7
OverallDifficulty:10
SliderMultiplier:1.4
SliderTickRate:1

[Events]
//Background and Video events
//Break Periods
2,86175,91075
2,101480,103380
2,125175,136075
2,146175,149575
//Storyboard Layer 0 (Background)
//Storyboard Layer 1 (Failing)
//Storyboard Layer 2 (Passing)
//Storyboard Layer 3 (Foreground)
//Storyboard Sound Samples
//Background Colour Transformations
3,100,125,0,0

[TimingPoints]
30,750,4,2,0,100,1,0
15475,750,4,2,0,100,1,0

[HitObjects]
128,160,780,1,0
128,160,1530,1,0
352,160,2280,1,0
352,160,3030,1,0
256,64,4530,1,0
256,96,5280,1,0
256,128,6030,1,0
256,160,6780,1,0
256,192,7530,1,0
256,224,8280,1,0
256,224,9030,1,0
96,64,12030,5,0
256,64,12780,1,0
256,192,14280,1,0
384,192,15030,1,0
128,288,16975,1,0
192,288,18475,1,0
384,96,20725,1,0
128,96,22975,1,0
256,192,24475,5,0
320,192,25225,1,0
256,64,26725,1,0
256,192,28225,1,0
256,320,29725,1,0
64,96,31975,5,0
256,192,32725,1,0
448,320,34225,1,0
64,96,36475,1,0
64,32,37975,5,0
64,96,39475,1,0
64,128,40225,1,0
64,160,40975,1,0
64,192,41725,1,0
64,224,43225,1,0
384,32,44725,5,0
384,64,45475,1,0
384,96,46225,1,0
384,128,46975,1,0
384,160,47725,1,0
384,192,48475,1,0
384,224,49225,1,0
384,256,49975,1,0
192,192,50725,5,0
256,192,51475,1,0
320,192,52225,1,0
192,96,52975,5,0
192,160,53725,1,0
288,160,55225,1,0
256,32,57475,5,0
256,96,58225,1,0
256,160,58975,1,0
256,224,59725,1,0
256,256,60475,1,0
256,288,61225,1,0
160,160,61975,5,0
352,160,62725,1,0
256,224,64225,1,0
256,96,64975,1,0
128,32,66475,5,0
352,32,67225,1,0
256,128,67975,5,0
256,320,68725,1,0
96,64,70225,5,0
320,96,70975,1,0
320,192,71725,1,0
448,32,73225,5,0
448,224,73975,1,0
256,192,74725,1,0
448,96,75475,1,0
352,96,76975,1,0
96,128,78475,1,0
288,128,79225,1,0
256,64,81475,5,0
256,288,82225,1,0
288,128,83725,1,0
160,128,84475,1,0
224,224,85225,1,0
384,128,85975,1,0
256,192,91975,12,0,94975
64,192,100975,6,0,B|224:192,7,140
256,192,108475,6,0,B|416:192,5,140
256,32,115225,5,0
256,192,116725,1,0
256,384,118225,1,0
256,192,121225,12,0,124975
256,192,136975,5,12
256,192,137725,1,12
256,192,138475,1,12
256,192,139225,1,12
256,192,139975,1,12
256,192,141475,1,12
320,128,142975,1,14
128,128,144475,1,14
160,256,145225,1,14
448,256,145975,1,14
256,192,150475,12,14,154975
