osu file format v14

[General]
AudioFilename: S-C-A-R-E-C-R-O-W.mp3
AudioLeadIn: 0
PreviewTime: 18841
Countdown: 0
SampleSet: None
StackLeniency: 0.7
Mode: 0
LetterboxInBreaks: 0
WidescreenStoryboard: 1

[Editor]
DistanceSpacing: 1.2
BeatDivisor: 4
GridSize: 4
TimelineZoom: 1

[Metadata]
Title:S/C/A/R/E/C/R/O/W
TitleUnicode:S/C/A/R/E/C/R/O/W
Artist:My Chemical Romance
ArtistUnicode:My Chemical Romance
Creator:-Bakari-
Version:N/O/R/M/A/L
Source:
Tags:scarecrow danger days the true lives of the fabulous killjoys Gerard Way Matt Pelissier Ray Toro Mikey Frank Iero Bob Bryar James Dewees
BeatmapID:651334
BeatmapSetID:288851

[Difficulty]
HPDrainRate:4
CircleSize:3.5
OverallDifficulty:4
ApproachRate:5
SliderMultiplier:1.8
SliderTickRate:2

[Events]
//Background and Video events
0,0,"12Q1FI5FN0-JW5.jpg",0,0
//Break Periods
//Storyboard Layer 0 (Background)
//Storyboard Layer 1 (Fail)
//Storyboard Layer 2 (Pass)
//Storyboard Layer 3 (Foreground)
//Storyboard Sound Samples

[TimingPoints]
261,774.193548387097,4,3,0,55,1,0
18841,-100,4,3,0,55,0,1
31228,-100,4,3,0,55,0,0
71486,-100,4,3,0,55,0,1
83486,-100,4,3,0,55,0,0
83873,-100,4,3,0,55,0,1
96261,-100,4,3,0,55,0,0
136519,-100,4,3,0,55,0,1
148519,-100,4,3,0,55,0,0
148906,-100,4,3,0,55,0,1
161293,-100,4,2,0,55,0,0

[Colours]
Combo1 : 179,223,221
Combo2 : 199,191,177
Combo3 : 119,147,153
Combo4 : 156,135,120

[HitObjects]
220,216,6454,6,0,L|212:112,1,90,4|0,0:0|0:0,0:0:0:0:
264,32,7228,1,2,0:0:0:0:
360,224,8002,2,0,P|352:264|320:308,1,90,0|0,0:0|0:0,0:0:0:0:
220,328,8777,1,2,0:0:0:0:
12,268,9551,2,0,P|28:224|60:184,1,90,0|0,0:0|0:0,0:0:0:0:
160,172,10325,1,2,0:0:0:0:
292,340,11099,2,0,L|408:344,1,90,0|0,0:0|0:0,0:0:0:0:
472,284,11873,1,2,0:0:0:0:
316,136,12648,6,0,P|276:144|172:244,1,180,0|2,0:0|0:0,0:0:0:0:
372,324,14196,1,0,0:0:0:0:
480,136,14970,2,0,P|484:104|472:48,1,90,2|0,0:0|0:0,0:0:0:0:
380,104,15744,2,0,P|376:156|468:248,1,180,0|2,0:0|0:0,0:0:0:0:
272,356,17293,2,0,L|172:352,1,90,0|0,0:0|0:0,0:0:0:0:
108,272,18067,1,2,0:0:0:0:
164,180,18454,1,0,0:0:0:0:
236,100,18841,6,0,P|288:88|344:96,1,90,4|0,0:0|0:0,0:0:0:0:
416,148,19615,1,2,0:0:0:0:
360,240,20002,1,0,0:0:0:0:
312,336,20390,2,0,L|208:328,1,90,0|0,0:0|0:0,0:0:0:0:
124,368,21164,1,2,0:0:0:0:
20,180,21938,2,0,P|16:144|32:88,1,90,0|0,0:0|0:0,0:0:0:0:
124,144,22712,2,0,L|304:128,1,180,2|0,0:0|0:0,0:0:0:0:
400,320,24261,1,2,0:0:0:0:
492,264,24648,1,0,0:0:0:0:
400,204,25035,6,0,P|356:216|288:344,1,180,0|2,0:0|0:0,0:0:0:0:
72,348,26583,2,0,P|60:320|56:256,1,90,0|0,0:0|0:0,0:0:0:0:
116,172,27357,2,0,L|112:72,1,90,2|0,0:0|0:0,0:0:0:0:
196,12,28131,1,0,0:0:0:0:
284,212,28906,1,2,0:0:0:0:
496,264,29680,2,0,P|504:216|496:168,1,90,0|0,0:0|0:0,0:0:0:0:
412,108,30454,1,2,0:0:0:0:
392,216,30841,1,0,0:0:0:0:
372,320,31228,5,0,0:0:0:0:
160,352,32002,2,0,P|124:352|80:320,1,90,2|0,0:0|0:0,0:0:0:0:
96,216,32777,2,0,P|128:192|160:124,1,90,0|0,0:0|0:0,0:0:0:0:
140,44,33551,1,2,0:0:0:0:
352,8,34325,1,0,0:0:0:0:
488,176,35099,1,2,0:0:0:0:
384,156,35486,1,0,0:0:0:0:
280,132,35873,1,0,0:0:0:0:
156,308,36648,2,0,P|192:332|248:344,1,90,2|0,0:0|0:0,0:0:0:0:
244,236,37422,6,0,P|188:204|76:232,2,180,0|2|0,0:0|0:0|0:0,0:0:0:0:
432,344,39744,2,0,P|444:300|480:256,1,90,2|0,0:0|0:0,0:0:0:0:
444,160,40519,2,0,P|400:184|328:300,1,180,0|2,0:0|0:0,0:0:0:0:
120,336,42067,2,0,P|100:304|92:248,2,90,0|0|2,0:0|0:0|0:0,0:0:0:0:
228,352,43228,1,0,0:0:0:0:
280,256,43615,6,0,P|280:216|188:104,1,180,0|2,0:0|0:0,0:0:0:0:
96,136,44777,1,0,0:0:0:0:
160,224,45164,2,0,P|160:268|148:320,1,90,0|0,0:0|0:0,0:0:0:0:
244,368,45938,2,0,P|292:352|340:348,1,90,2|0,0:0|0:0,0:0:0:0:
436,364,46712,1,0,0:0:0:0:
500,156,47486,2,0,L|508:48,1,90,2|0,0:0|0:0,0:0:0:0:
408,16,48261,1,0,0:0:0:0:
276,184,49035,2,0,P|240:184|180:160,1,90,2|0,0:0|0:0,0:0:0:0:
88,204,49809,6,0,P|80:248|136:380,2,180,0|2|0,0:0|0:0|0:0,0:0:0:0:
236,48,52131,1,2,0:0:0:0:
392,200,52906,1,0,0:0:0:0:
216,324,53680,1,2,0:0:0:0:
64,168,54454,2,0,P|56:136|64:76,2,90,0|0|2,0:0|0:0|0:0,0:0:0:0:
160,212,55615,1,0,0:0:0:0:
256,164,56002,6,0,P|272:120|280:72,1,90,0|0,0:0|0:0,0:0:0:0:
380,32,56777,2,0,P|404:72|412:224,1,180,2|0,0:0|0:0,0:0:0:0:
336,272,57938,1,0,0:0:0:0:
240,228,58325,2,0,L|144:220,1,90,2|0,0:0|0:0,0:0:0:0:
72,144,59099,1,0,0:0:0:0:
156,76,59486,2,0,L|248:64,2,90,0|2|0,0:0|0:0|0:0,0:0:0:0:
224,160,60648,2,0,L|324:168,1,90,0|0,0:0|0:0,0:0:0:0:
400,232,61422,1,2,0:0:0:0:
216,344,62196,5,0,0:0:0:0:
44,216,62970,2,0,P|36:176|104:44,1,180,2|0,0:0|0:0,0:0:0:0:
304,8,64519,1,2,0:0:0:0:
396,64,64906,1,0,0:0:0:0:
440,164,65293,2,0,P|432:196|392:252,1,90,0|0,0:0|0:0,0:0:0:0:
300,276,66067,1,2,0:0:0:0:
208,220,66454,1,0,0:0:0:0:
116,164,66841,1,0,0:0:0:0:
56,256,67228,1,0,0:0:0:0:
148,316,67615,1,2,0:0:0:0:
256,192,68390,12,2,70712,0:0:0:0:
120,280,71486,6,0,P|112:232|124:180,1,90,4|0,0:0|0:0,0:0:0:0:
200,116,72261,1,2,0:0:0:0:
392,216,73035,2,0,P|420:176|432:120,1,90,0|0,0:0|0:0,0:0:0:0:
324,128,73809,2,0,P|296:168|284:224,1,90,2|0,0:0|0:0,0:0:0:0:
332,304,74583,5,0,0:0:0:0:
120,352,75357,2,0,P|56:316|32:200,1,180,2|0,0:0|0:0,0:0:0:0:
104,140,76519,1,0,0:0:0:0:
188,208,76906,1,2,0:0:0:0:
268,284,77293,1,0,0:0:0:0:
364,236,77680,6,0,P|396:204|364:64,2,180,0|2|0,0:0|0:0|0:0,0:0:0:0:
256,244,79615,2,0,P|224:216|232:72,1,180,0|0,0:0|0:0,0:0:0:0:
308,148,80777,6,0,L|128:136,1,180,0|2,0:0|0:0,0:0:0:0:
28,328,82325,2,0,L|212:344,1,180,0|2,0:0|0:0,0:0:0:0:
296,284,83486,1,0,0:0:0:0:
220,208,83873,6,0,L|216:104,1,90,0|0,0:0|0:0,0:0:0:0:
288,36,84648,2,0,P|312:72|320:128,1,90,2|0,0:0|0:0,0:0:0:0:
308,224,85422,1,0,0:0:0:0:
112,132,86196,2,0,L|120:232,1,90,2|0,0:0|0:0,0:0:0:0:
12,244,86970,6,0,P|0:200|32:68,1,180,0|2,0:0|0:0,0:0:0:0:
124,20,88131,1,0,0:0:0:0:
224,64,88519,2,0,L|336:60,1,90,0|0,0:0|0:0,0:0:0:0:
364,156,89293,2,0,L|268:148,1,90,2|0,0:0|0:0,0:0:0:0:
212,236,90067,6,0,P|260:260|400:256,1,180,0|2,0:0|0:0,0:0:0:0:
460,184,91228,1,0,0:0:0:0:
412,88,91615,1,0,0:0:0:0:
204,152,92390,2,0,P|161:153|104:144,1,90,2|0,0:0|0:0,0:0:0:0:
20,96,93164,6,0,L|36:280,1,180,0|2,0:0|0:0,0:0:0:0:
244,324,94712,2,0,P|248:292|320:200,2,135,0|0|0,0:0|0:0|0:0,0:0:0:0:
156,260,96261,6,0,L|144:144,1,90,4|0,0:0|0:0,0:0:0:0:
204,80,97035,1,2,0:0:0:0:
392,188,97809,2,0,P|408:144|416:100,1,90,0|0,0:0|0:0,0:0:0:0:
356,12,98583,1,2,0:0:0:0:
252,192,99357,6,0,L|264:296,1,90,0|0,0:0|0:0,0:0:0:0:
192,364,100131,1,2,0:0:0:0:
388,276,100906,1,0,0:0:0:0:
476,340,101293,1,0,0:0:0:0:
480,232,101680,2,0,L|472:132,1,90,2|0,0:0|0:0,0:0:0:0:
428,44,102454,6,0,L|316:52,1,90,0|0,0:0|0:0,0:0:0:0:
292,148,103228,2,0,P|252:144|200:128,1,90,2|0,0:0|0:0,0:0:0:0:
100,152,104002,2,0,P|84:228|92:352,1,180,0|2,0:0|0:0,0:0:0:0:
280,228,105551,6,0,L|264:136,1,90,0|0,0:0|0:0,0:0:0:0:
176,204,106325,2,0,L|168:304,1,90,2|0,0:0|0:0,0:0:0:0:
264,344,107099,2,0,P|324:328|376:328,1,90,0|0,0:0|0:0,0:0:0:0:
456,348,107873,1,2,0:0:0:0:
420,244,108261,1,0,0:0:0:0:
440,136,108648,6,0,L|432:28,2,90,0|0|2,0:0|0:0|0:0,0:0:0:0:
340,92,109809,1,0,0:0:0:0:
248,36,110196,2,0,L|240:160,1,90,0|0,0:0|0:0,0:0:0:0:
184,216,110970,2,0,P|164:232|96:252,1,90,2|0,0:0|0:0,0:0:0:0:
12,192,111744,5,0,0:0:0:0:
156,356,112519,2,0,L|200:352|256:356,1,90,2|0,0:0|0:0,0:0:0:0:
328,284,113293,2,0,P|312:244|360:112,1,180,0|2,0:0|0:0,0:0:0:0:
456,100,114454,1,0,0:0:0:0:
428,204,114841,6,0,L|448:300,1,90,0|0,0:0|0:0,0:0:0:0:
340,288,115615,2,0,L|288:368,1,90,2|0,0:0|0:0,0:0:0:0:
212,280,116390,2,0,L|116:272,1,90,0|0,0:0|0:0,0:0:0:0:
172,176,117164,2,0,L|112:92,1,90,2|0,0:0|0:0,0:0:0:0:
228,84,117938,5,0,0:0:0:0:
136,280,118712,1,2,0:0:0:0:
328,180,119486,2,0,P|376:176|464:204,2,135,0|0|0,0:0|0:0|0:0,0:0:0:0:
244,248,121035,6,0,L|144:236,1,90,0|0,0:0|0:0,0:0:0:0:
100,144,121809,2,0,P|160:124|284:128,1,180,2|0,0:0|0:0,0:0:0:0:
340,212,122970,1,0,0:0:0:0:
312,316,123357,1,2,0:0:0:0:
496,200,124131,6,0,L|488:96,1,90,0|0,0:0|0:0,0:0:0:0:
384,80,124906,2,0,L|392:176,1,90,2|0,0:0|0:0,0:0:0:0:
296,120,125680,1,0,0:0:0:0:
200,68,126067,1,0,0:0:0:0:
100,28,126454,2,0,L|112:128,1,90,2|0,0:0|0:0,0:0:0:0:
76,220,127228,6,0,P|128:220|216:316,2,180,0|2|0,0:0|0:0|0:0,0:0:0:0:
240,80,129551,2,0,L|352:68,1,90,2|0,0:0|0:0,0:0:0:0:
376,168,130325,2,0,P|316:184|192:164,1,180,0|2,0:0|0:0,0:0:0:0:
256,192,131486,12,0,134970,0:0:0:0:
68,184,136519,6,0,L|60:88,1,90,4|0,0:0|0:0,0:0:0:0:
148,28,137293,2,0,P|172:68|156:220,1,180,2|0,0:0|0:0,0:0:0:0:
104,284,138454,1,0,0:0:0:0:
188,352,138841,2,0,L|292:348,1,90,2|0,0:0|0:0,0:0:0:0:
356,276,139615,5,0,0:0:0:0:
200,128,140390,2,0,P|196:100|208:32,1,90,2|0,0:0|0:0,0:0:0:0:
300,92,141164,2,0,L|272:280,1,180,0|2,0:0|0:0,0:0:0:0:
340,356,142325,1,0,0:0:0:0:
432,296,142712,6,0,B|456:256|428:212|428:212|400:168|424:112,2,180,0|2|0,0:0|0:0|0:0,0:0:0:0:
224,240,145035,2,0,P|204:276|184:324,1,90,2|0,0:0|0:0,0:0:0:0:
80,336,145809,6,0,P|48:280|44:152,1,180,0|2,0:0|0:0,0:0:0:0:
192,12,147357,1,0,0:0:0:0:
368,136,148131,2,0,L|464:128,1,90,2|0,0:0|0:0,0:0:0:0:
416,228,148906,6,0,L|228:216,1,180,0|2,0:0|0:0,0:0:0:0:
140,268,150067,1,0,0:0:0:0:
48,208,150454,2,0,P|32:168|32:120,1,90,0|0,0:0|0:0,0:0:0:0:
100,40,151228,2,0,L|196:52,1,90,2|0,0:0|0:0,0:0:0:0:
276,116,152002,6,0,P|328:108|424:16,2,180,0|2|0,0:0|0:0|0:0,0:0:0:0:
184,60,153938,1,0,0:0:0:0:
112,140,154325,2,0,L|100:236,1,90,2|0,0:0|0:0,0:0:0:0:
200,272,155099,6,0,P|208:236|344:172,2,180,0|2|0,0:0|0:0|0:0,0:0:0:0:
260,360,157035,1,0,0:0:0:0:
340,288,157422,1,2,0:0:0:0:
448,300,157809,1,0,0:0:0:0:
508,208,158196,6,0,P|500:136|420:40,1,180,0|2,0:0|0:0,0:0:0:0:
332,64,159357,1,0,0:0:0:0:
280,156,159744,1,0,0:0:0:0:
172,148,160131,1,0,0:0:0:0:
96,224,160519,2,0,P|97:268|112:311,1,90,2|0,0:0|0:0,0:0:0:0:
208,364,161293,5,0,0:0:0:0:
