osu file format v14

[General]
AudioFilename: S-C-A-R-E-C-R-O-W.mp3
AudioLeadIn: 0
PreviewTime: 18841
Countdown: 0
SampleSet: None
StackLeniency: 0.7
Mode: 0
LetterboxInBreaks: 0
WidescreenStoryboard: 0

[Editor]
DistanceSpacing: 1.2
BeatDivisor: 4
GridSize: 4
TimelineZoom: 1

[Metadata]
Title:S/C/A/R/E/C/R/O/W
TitleUnicode:S/C/A/R/E/C/R/O/W
Artist:My Chemical Romance
ArtistUnicode:My Chemical Romance
Creator:-Bakari-
Version:H/A/R/D
Source:
Tags:scarecrow danger days the true lives of the fabulous killjoys Gerard Way Matt Pelissier Ray Toro Mikey Frank Iero Bob Bryar James Dewees
BeatmapID:651333
BeatmapSetID:288851

[Difficulty]
HPDrainRate:6.5
CircleSize:4
OverallDifficulty:6.5
ApproachRate:7.5
SliderMultiplier:2.6
SliderTickRate:2

[Events]
//Background and Video events
0,0,"12Q1FI5FN0-JW5.jpg",0,0
//Break Periods
//Storyboard Layer 0 (Background)
//Storyboard Layer 1 (Fail)
//Storyboard Layer 2 (Pass)
//Storyboard Layer 3 (Foreground)
//Storyboard Sound Samples

[TimingPoints]
261,774.193548387097,4,3,0,55,1,0
18841,-100,4,3,0,55,0,1
31228,-100,4,3,0,55,0,0
71486,-100,4,3,0,55,0,1
83486,-100,4,3,0,55,0,0
83873,-100,4,3,0,55,0,1
96261,-100,4,3,0,55,0,0
136519,-100,4,3,0,55,0,1
148519,-100,4,3,0,55,0,0
148906,-100,4,3,0,55,0,1
161293,-100,4,2,0,55,0,0

[Colours]
Combo1 : 179,223,221
Combo2 : 199,191,177
Combo3 : 119,147,153
Combo4 : 156,135,120

[HitObjects]
324,48,6454,6,0,P|368:52|448:236,1,260,4|2,0:0|0:0,0:0:0:0:
352,340,7615,2,0,L|284:336,1,65,0|0,0:0|0:0,0:0:0:0:
216,368,8002,1,0,0:0:0:0:
156,224,8390,1,0,0:0:0:0:
104,76,8777,2,0,P|140:68|172:72,1,65,2|0,0:0|0:0,0:0:0:0:
224,124,9164,1,0,0:0:0:0:
264,276,9551,6,0,P|196:328|36:268,1,260,0|2,0:0|0:0,0:0:0:0:
138,162,10712,2,0,P|154:202|154:246,1,65,0|0,0:0|0:0,0:0:0:0:
80,212,11099,2,0,P|60:168|100:92,1,130,0|0,0:0|0:0,0:0:0:0:
168,92,11680,1,0,0:0:0:0:
224,40,11873,1,2,0:0:0:0:
380,32,12261,1,0,0:0:0:0:
432,176,12648,6,0,P|384:192|292:172,1,130,0|0,0:0|0:0,0:0:0:0:
160,132,13422,2,0,B|152:188|152:188|184:256|184:256|176:328,1,195,2|0,0:0|0:0,0:0:0:0:
100,336,14196,2,0,L|108:268,2,65,0|0|0,0:0|0:0|0:0,0:0:0:0:
303,210,14970,2,0,P|271:170|271:82,1,130,2|0,0:0|0:0,0:0:0:0:
420,120,15744,6,0,P|448:168|368:352,1,260,0|2,0:0|0:0,0:0:0:0:
228,332,16906,2,0,L|164:328,1,65,0|0,0:0|0:0,0:0:0:0:
128,256,17293,2,0,L|264:240,1,130,0|0,0:0|0:0,0:0:0:0:
308,300,17873,1,0,0:0:0:0:
368,252,18067,1,2,0:0:0:0:
264,136,18454,1,0,0:0:0:0:
112,172,18841,6,0,P|88:176|40:172,1,65,4|0,0:0|0:0,0:0:0:0:
76,100,19228,2,0,P|100:96|148:100,1,65,0|0,0:0|0:0,0:0:0:0:
188,160,19615,2,0,P|184:200|108:252,1,130,2|0,0:0|0:0,0:0:0:0:
48,220,20196,1,0,0:0:0:0:
112,172,20390,1,0,0:0:0:0:
256,356,20777,1,0,0:0:0:0:
400,172,21164,2,0,P|333:103|238:88,1,195,2|0,0:0|0:0,0:0:0:0:
196,152,21938,5,0,0:0:0:0:
40,132,22325,1,0,0:0:0:0:
244,64,22712,1,2,0:0:0:0:
128,168,23099,2,0,L|120:240,1,65,0|0,0:0|0:0,0:0:0:0:
227,278,23486,2,0,P|231:246|227:214,1,65,0|0,0:0|0:0,0:0:0:0:
264,144,23873,2,0,P|296:132|340:132,1,65,0|0,0:0|0:0,0:0:0:0:
384,184,24261,1,2,0:0:0:0:
216,72,24648,1,0,0:0:0:0:
184,224,25035,6,0,L|196:360,1,130,0|0,0:0|0:0,0:0:0:0:
316,256,25809,2,0,P|320:228|312:188,1,65,2|0,0:0|0:0,0:0:0:0:
272,128,26196,1,0,0:0:0:0:
284,52,26390,1,0,0:0:0:0:
212,76,26583,2,0,P|184:80|140:72,1,65,0|0,0:0|0:0,0:0:0:0:
84,32,26970,1,0,0:0:0:0:
52,136,27164,1,0,0:0:0:0:
176,164,27357,2,0,L|196:304,1,130,2|0,0:0|0:0,0:0:0:0:
340,352,28131,5,0,0:0:0:0:
384,288,28325,2,0,P|392:256|352:144,1,130,0|0,0:0|0:0,0:0:0:0:
296,136,28906,2,0,L|160:140,1,130,2|0,0:0|0:0,0:0:0:0:
112,288,29680,2,0,P|156:300|244:268,1,130,0|0,0:0|0:0,0:0:0:0:
292,220,30261,1,0,0:0:0:0:
324,344,30454,1,2,0:0:0:0:
376,104,30841,1,0,0:0:0:0:
220,128,31228,6,0,P|176:124|112:52,1,130,0|0,0:0|0:0,0:0:0:0:
172,12,31809,1,0,0:0:0:0:
284,56,32002,2,0,L|432:48,1,130,2|0,0:0|0:0,0:0:0:0:
344,188,32777,2,0,P|332:164|324:120,1,65,0|0,0:0|0:0,0:0:0:0:
352,52,33164,1,0,0:0:0:0:
224,140,33551,2,0,L|84:132,1,130,2|0,0:0|0:0,0:0:0:0:
48,196,34131,1,0,0:0:0:0:
84,264,34325,5,0,0:0:0:0:
212,352,34712,2,0,P|240:344|272:320,1,65,0|0,0:0|0:0,0:0:0:0:
300,252,35099,1,2,0:0:0:0:
172,164,35486,1,0,0:0:0:0:
44,76,35873,1,0,0:0:0:0:
192,24,36261,2,0,P|224:32|260:60,1,65,0|0,0:0|0:0,0:0:0:0:
308,104,36648,2,0,L|448:96,1,130,2|0,0:0|0:0,0:0:0:0:
504,236,37422,6,0,P|444:252|320:180,1,195,0|0,0:0|0:0,0:0:0:0:
252,180,38196,2,0,P|224:220|208:300,1,130,2|0,0:0|0:0,0:0:0:0:
344,224,38970,2,0,P|352:200|352:160,1,65,0|0,0:0|0:0,0:0:0:0:
320,88,39357,1,0,0:0:0:0:
436,196,39744,1,2,0:0:0:0:
348,324,40131,1,0,0:0:0:0:
236,216,40519,6,0,P|176:212|108:232,2,130,0|0|2,0:0|0:0|0:0,0:0:0:0:
388,256,41680,2,0,L|384:180,1,65,0|0,0:0|0:0,0:0:0:0:
320,148,42067,2,0,L|304:292,1,130,0|0,0:0|0:0,0:0:0:0:
340,348,42648,1,0,0:0:0:0:
224,356,42841,2,0,P|192:352|160:336,1,65,2|0,0:0|0:0,0:0:0:0:
136,264,43228,1,0,0:0:0:0:
284,216,43615,6,0,P|304:172|300:92,1,130,0|0,0:0|0:0,0:0:0:0:
240,40,44196,1,0,0:0:0:0:
172,80,44390,2,0,L|32:72,1,130,2|0,0:0|0:0,0:0:0:0:
60,228,45164,2,0,L|124:224,1,65,0|0,0:0|0:0,0:0:0:0:
188,272,45551,1,0,0:0:0:0:
324,196,45938,2,0,P|336:176|500:184,1,195,2|0,0:0|0:0,0:0:0:0:
476,244,46712,6,0,P|437:233|406:213,2,65,0|0|0,0:0|0:0|0:0,0:0:0:0:
336,312,47486,2,0,P|280:320|208:360,2,130,2|0|0,0:0|0:0|0:0,0:0:0:0:
488,348,48648,2,0,L|484:280,1,65,0|0,0:0|0:0,0:0:0:0:
452,212,49035,1,2,0:0:0:0:
472,56,49422,1,0,0:0:0:0:
332,124,49809,6,0,P|260:132|148:56,1,195,0|0,0:0|0:0,0:0:0:0:
80,68,50583,2,0,P|56:120|52:200,1,130,2|0,0:0|0:0,0:0:0:0:
184,276,51357,2,0,P|188:252|180:200,2,65,0|0|0,0:0|0:0|0:0,0:0:0:0:
36,328,52131,2,0,L|52:188,1,130,2|0,0:0|0:0,0:0:0:0:
164,92,52906,5,0,0:0:0:0:
232,128,53099,2,0,L|368:116,1,130,0|0,0:0|0:0,0:0:0:0:
424,164,53680,2,0,P|436:204|420:296,1,130,2|0,0:0|0:0,0:0:0:0:
280,348,54454,2,0,L|300:208,1,130,0|0,0:0|0:0,0:0:0:0:
244,164,55035,1,0,0:0:0:0:
192,224,55228,2,0,L|196:300,1,65,2|0,0:0|0:0,0:0:0:0:
156,356,55615,2,0,P|124:364|92:360,1,65
0,260,56002,6,0,P|56:258|128:303,1,130
272,320,56777,2,0,P|292:288|296:112,1,195,2|0,0:0|0:0,0:0:0:0:
324,60,57551,2,0,P|360:32|448:24,1,130,0|0,0:0|0:0,0:0:0:0:
396,172,58325,2,0,L|248:168,1,130,2|0,0:0|0:0,0:0:0:0:
152,272,59099,6,0,P|192:308|280:312,1,130,0|0,0:0|0:0,0:0:0:0:
324,264,59680,1,0,0:0:0:0:
392,304,59873,2,0,L|456:312,1,65,2|0,0:0|0:0,0:0:0:0:
496,192,60261,2,0,L|428:200,1,65,0|0,0:0|0:0,0:0:0:0:
356,124,60648,2,0,P|384:88|472:48,1,130,0|0,0:0|0:0,0:0:0:0:
348,224,61422,2,0,L|216:212,1,130,2|0,0:0|0:0,0:0:0:0:
148,248,62002,1,0,0:0:0:0:
88,300,62196,6,0,P|80:312|64:368,1,65,0|0,0:0|0:0,0:0:0:0:
144,364,62583,1,0,0:0:0:0:
272,276,62970,2,0,L|276:144,1,130,2|0,0:0|0:0,0:0:0:0:
412,72,63744,2,0,P|424:124|408:204,1,130,0|0,0:0|0:0,0:0:0:0:
272,276,64519,2,0,L|208:272,1,65,2|0,0:0|0:0,0:0:0:0:
148,324,64906,2,0,L|72:336,1,65,0|0,0:0|0:0,0:0:0:0:
16,368,65293,5,0,0:0:0:0:
20,292,65486,2,0,L|14:162,1,130,0|0,0:0|0:0,0:0:0:0:
36,88,66067,2,0,P|88:60|164:56,1,130,2|0,0:0|0:0,0:0:0:0:
252,180,66841,1,0,0:0:0:0:
380,268,67228,1,0,0:0:0:0:
508,356,67615,1,2,0:0:0:0:
352,352,68002,2,0,L|288:356,1,65,0|0,0:0|0:0,0:0:0:0:
228,263,68390,6,0,P|264:255|304:259,2,65,0|0|0,0:0|0:0|0:0,0:0:0:0:
172,316,68970,1,0,0:0:0:0:
116,260,69164,2,0,L|120:128,1,130,2|0,0:0|0:0,0:0:0:0:
64,76,69744,1,0,0:0:0:0:
32,148,69938,2,0,L|36:216,1,65,0|0,0:0|0:0,0:0:0:0:
176,128,70325,2,0,L|172:64,1,65,0|0,0:0|0:0,0:0:0:0:
277,115,70712,1,2,0:0:0:0:
316,202,70906,1,0,0:0:0:0:
312,294,71099,1,0,0:0:0:0:
256,372,71293,1,0,0:0:0:0:
144,320,71486,6,0,P|159:295|251:246,1,130,4|0,0:0|0:0,0:0:0:0:
356,164,72261,2,0,P|332:148|296:136,1,65,2|0,0:0|0:0,0:0:0:0:
248,76,72648,2,0,P|252:56|272:8,1,65,0|0,0:0|0:0,0:0:0:0:
328,68,73035,2,0,L|220:160,1,130,0|0,0:0|0:0,0:0:0:0:
248,308,73809,2,0,L|356:216,1,130,2|0,0:0|0:0,0:0:0:0:
504,208,74583,6,0,P|508:252|468:332,1,130,0|0,0:0|0:0,0:0:0:0:
396,344,75164,1,0,0:0:0:0:
336,296,75357,2,0,L|196:304,1,130,2|0,0:0|0:0,0:0:0:0:
180,148,76131,2,0,L|260:152,1,65,0|0,0:0|0:0,0:0:0:0:
270,75,76519,2,0,L|198:79,1,65
136,40,76906,1,2,0:0:0:0:
64,180,77293,1,0,0:0:0:0:
160,304,77680,6,0,P|208:316|336:256,1,195,0|0,0:0|0:0,0:0:0:0:
292,192,78454,2,0,P|252:180|228:160,2,65,2|0|0,0:0|0:0|0:0,0:0:0:0:
398,69,79228,2,0,P|371:51|340:44,1,65,0|0,0:0|0:0,0:0:0:0:
264,60,79615,1,0,0:0:0:0:
108,84,80002,1,2,0:0:0:0:
204,208,80390,1,0,0:0:0:0:
340,136,80777,6,0,P|368:96|364:16,1,130,0|0,0:0|0:0,0:0:0:0:
268,140,81551,2,0,L|280:292,1,130,2|0,0:0|0:0,0:0:0:0:
228,332,82131,1,0,0:0:0:0:
168,280,82325,1,0,0:0:0:0:
360,176,82712,2,0,P|364:152|352:96,1,65,0|0,0:0|0:0,0:0:0:0:
308,56,83099,1,2,0:0:0:0:
164,112,83486,1,0,0:0:0:0:
248,244,83873,6,0,L|236:376,1,130,0|0,0:0|0:0,0:0:0:0:
124,264,84648,2,0,P|120:232|132:192,1,65,2|0,0:0|0:0,0:0:0:0:
184,144,85035,1,0,0:0:0:0:
256,176,85228,1,0,0:0:0:0:
328,148,85422,2,0,P|352:120|364:24,1,130,0|0,0:0|0:0,0:0:0:0:
212,52,86196,2,0,L|64:40,1,130,2|0,0:0|0:0,0:0:0:0:
28,188,86970,6,0,L|96:184,1,65,0|0,0:0|0:0,0:0:0:0:
152,236,87357,1,0,0:0:0:0:
292,168,87744,2,0,P|308:224|280:312,1,130,2|0,0:0|0:0,0:0:0:0:
232,344,88325,1,0,0:0:0:0:
304,372,88519,2,0,L|368:368,1,65,0|0,0:0|0:0,0:0:0:0:
449,285,88906,2,0,L|381:281,1,65,0|0,0:0|0:0,0:0:0:0:
356,208,89293,1,2,0:0:0:0:
472,100,89680,1,0,0:0:0:0:
320,64,90067,6,0,P|272:88|224:148,1,130,0|0,0:0|0:0,0:0:0:0:
272,296,90841,2,0,L|412:288,1,130,2|0,0:0|0:0,0:0:0:0:
452,228,91422,1,0,0:0:0:0:
412,160,91615,2,0,P|412:128|428:88,1,65,0|0,0:0|0:0,0:0:0:0:
380,32,92002,2,0,P|344:28|304:36,1,65,0|0,0:0|0:0,0:0:0:0:
244,60,92390,2,0,L|108:52,1,130,2|0,0:0|0:0,0:0:0:0:
56,196,93164,6,0,L|128:192,1,65,0|0,0:0|0:0,0:0:0:0:
176,248,93551,1,0,0:0:0:0:
220,100,93938,1,2,0:0:0:0:
352,184,94325,2,0,P|380:188|420:184,1,65,0|0,0:0|0:0,0:0:0:0:
484,228,94712,2,0,P|492:264|460:360,1,130,0|0,0:0|0:0,0:0:0:0:
392,376,95293,1,0,0:0:0:0:
320,344,95486,1,2,0:0:0:0:
164,360,95873,1,0,0:0:0:0:
236,220,96261,6,0,P|240:168|208:96,1,130,4|0,0:0|0:0,0:0:0:0:
80,188,97035,2,0,L|84:272,1,65,2|0,0:0|0:0,0:0:0:0:
148,300,97422,1,0,0:0:0:0:
288,232,97809,2,0,P|296:252|300:296,1,65,0|0,0:0|0:0,0:0:0:0:
360,348,98196,2,0,P|392:348|424:340,1,65,0|0,0:0|0:0,0:0:0:0:
448,264,98583,2,0,P|432:212|436:136,1,130,2|0,0:0|0:0,0:0:0:0:
304,52,99357,6,0,P|288:76|276:116,1,65,0|0,0:0|0:0,0:0:0:0:
300,184,99744,1,0,0:0:0:0:
204,308,100131,2,0,P|160:300|96:236,1,130,2|0,0:0|0:0,0:0:0:0:
116,168,100712,1,0,0:0:0:0:
180,120,100906,2,0,P|191:103|202:57,1,65,0|0,0:0|0:0,0:0:0:0:
276,36,101293,2,0,P|296:56|320:100,1,65,0|0,0:0|0:0,0:0:0:0:
300,164,101680,1,2,0:0:0:0:
452,132,102067,1,0,0:0:0:0:
412,288,102454,6,0,P|368:316|272:320,1,130,0|0,0:0|0:0,0:0:0:0:
188,208,103228,2,0,L|320:216,1,130,2|0,0:0|0:0,0:0:0:0:
416,96,104002,2,0,P|403:73|362:45,2,65,0|0|0,0:0|0:0|0:0,0:0:0:0:
264,128,104777,2,0,L|128:116,1,130,2|0,0:0|0:0,0:0:0:0:
32,236,105551,5,0,0:0:0:0:
100,272,105744,2,0,L|232:260,1,130,0|0,0:0|0:0,0:0:0:0:
300,228,106325,2,0,P|320:188|320:100,1,130,2|0,0:0|0:0,0:0:0:0:
200,4,107099,2,0,P|180:44|180:132,1,130,0|0,0:0|0:0,0:0:0:0:
216,196,107680,1,0,0:0:0:0:
104,176,107873,1,2,0:0:0:0:
320,128,108261,2,0,L|384:132,1,65,0|0,0:0|0:0,0:0:0:0:
448,176,108648,6,0,P|460:144|408:56,1,130,0|0,0:0|0:0,0:0:0:0:
372,212,109422,2,0,L|380:344,1,130,2|0,0:0|0:0,0:0:0:0:
448,380,110002,1,0,0:0:0:0:
488,312,110196,2,0,P|488:280|476:240,2,65,0|0|0,0:0|0:0|0:0,0:0:0:0:
336,344,110970,2,0,L|204:332,1,130,2|0,0:0|0:0,0:0:0:0:
160,184,111744,6,0,P|192:180|236:188,1,65,0|0,0:0|0:0,0:0:0:0:
268,120,112131,2,0,P|260:100|236:60,1,65,0|0,0:0|0:0,0:0:0:0:
168,28,112519,1,2,0:0:0:0:
56,136,112906,2,0,L|60:212,1,65,0|0,0:0|0:0,0:0:0:0:
32,272,113293,2,0,P|32:316|96:364,1,130,0|0,0:0|0:0,0:0:0:0:
160,324,113873,1,0,0:0:0:0:
232,356,114067,1,2,0:0:0:0:
312,224,114454,1,0,0:0:0:0:
396,92,114841,6,0,P|340:72|256:88,1,130,0|0,0:0|0:0,0:0:0:0:
132,152,115615,2,0,L|124:12,1,130,2|0,0:0|0:0,0:0:0:0:
8,128,116390,1,0,0:0:0:0:
56,188,116583,2,0,L|48:320,1,130,0|0,0:0|0:0,0:0:0:0:
116,356,117164,2,0,P|176:344|228:280,1,130,2|0,0:0|0:0,0:0:0:0:
204,140,117938,5,0,0:0:0:0:
256,84,118131,2,0,P|312:68|384:88,1,130,0|0,0:0|0:0,0:0:0:0:
420,152,118712,1,2,0:0:0:0:
328,276,119099,1,0,0:0:0:0:
188,204,119486,2,0,L|48:196,1,130,0|0,0:0|0:0,0:0:0:0:
16,128,120067,1,0,0:0:0:0:
92,82,120261,2,0,P|100:54|100:14,1,65,2|0,0:0|0:0,0:0:0:0:
191,62,120648,2,0,P|219:62|255:70,1,65,0|0,0:0|0:0,0:0:0:0:
344,124,121035,6,0,L|480:116,1,130,0|0,0:0|0:0,0:0:0:0:
364,228,121809,2,0,P|320:228|240:116,1,195,2|0,0:0|0:0,0:0:0:0:
188,60,122583,2,0,P|152:48|60:64,1,130,0|0,0:0|0:0,0:0:0:0:
44,216,123357,2,0,P|88:204|116:188,1,65,2|0,0:0|0:0,0:0:0:0:
172,236,123744,2,0,P|180:268|180:316,1,65,0|0,0:0|0:0,0:0:0:0:
152,372,124131,5,0,0:0:0:0:
300,316,124519,2,0,L|376:320,1,65,0|0,0:0|0:0,0:0:0:0:
435,218,124906,2,0,L|355:226,1,65,2|0,0:0|0:0,0:0:0:0:
304,116,125293,2,0,L|376:120,1,65,0|0,0:0|0:0,0:0:0:0:
446,56,125680,2,0,P|400:28|314:28,1,130,0|0,0:0|0:0,0:0:0:0:
184,96,126454,1,2,0:0:0:0:
292,208,126841,1,0,0:0:0:0:
152,280,127228,6,0,P|112:268|48:188,1,130,0|0,0:0|0:0,0:0:0:0:
76,52,128002,1,2,0:0:0:0:
196,148,128390,1,0,0:0:0:0:
348,184,128777,2,0,P|380:216|408:320,1,130,0|0,0:0|0:0,0:0:0:0:
252,300,129551,2,0,L|268:96,1,195,2|0,0:0|0:0,0:0:0:0:
200,64,130325,5,0,0:0:0:0:
204,144,130519,2,0,P|256:176|328:148,1,130,0|0,0:0|0:0,0:0:0:0:
396,168,131099,2,0,P|416:212|416:296,1,130,2|0,0:0|0:0,0:0:0:0:
280,368,131873,1,0,0:0:0:0:
132,316,132261,1,0,0:0:0:0:
64,176,132648,1,2,0:0:0:0:
56,20,133035,1,0,0:0:0:0:
256,192,133422,12,0,135744,0:0:0:0:
136,284,136519,5,4,0:0:0:0:
272,204,136906,2,0,L|340:208,1,65,0|0,0:0|0:0,0:0:0:0:
300,276,137293,2,0,P|256:280|200:192,1,130,2|0,0:0|0:0,0:0:0:0:
316,120,138067,1,0,0:0:0:0:
368,268,138454,1,0,0:0:0:0:
452,136,138841,2,0,P|452:92|400:20,1,130,2|0,0:0|0:0,0:0:0:0:
248,12,139615,5,0,0:0:0:0:
160,140,140002,2,0,P|136:144|92:144,1,65,0|0,0:0|0:0,0:0:0:0:
36,196,140390,2,0,P|48:228|124:312,1,130,2|0,0:0|0:0,0:0:0:0:
256,356,141164,1,0,0:0:0:0:
396,288,141551,2,0,L|392:224,1,65,0|0,0:0|0:0,0:0:0:0:
440,164,141938,1,2,0:0:0:0:
328,56,142325,1,0,0:0:0:0:
220,168,142712,6,0,P|176:192|24:168,1,195,0|0,0:0|0:0,0:0:0:0:
0,112,143486,1,2,0:0:0:0:
28,264,143873,1,0,0:0:0:0:
117,76,144261,2,0,P|109:52|77:8,1,65,0|0,0:0|0:0,0:0:0:0:
198,138,144648,2,0,P|208:120|216:64,1,65,0|0,0:0|0:0,0:0:0:0:
259,223,145035,2,0,P|316:216|384:168,1,130,2|0,0:0|0:0,0:0:0:0:
316,320,145809,6,0,L|116:308,1,195,0|0,0:0|0:0,0:0:0:0:
52,344,146583,1,2,0:0:0:0:
4,196,146970,1,0,0:0:0:0:
76,56,147357,2,0,P|116:60|200:104,1,130,0|0,0:0|0:0,0:0:0:0:
220,176,147938,1,0,0:0:0:0:
292,208,148131,1,2,0:0:0:0:
432,140,148519,1,0,0:0:0:0:
424,296,148906,6,0,P|380:336|300:356,1,130,0|0,0:0|0:0,0:0:0:0:
231,225,149680,2,0,P|247:217|303:209,1,65,2|0,0:0|0:0,0:0:0:0:
356,164,150067,2,0,P|364:132|360:100,1,65,0|0,0:0|0:0,0:0:0:0:
312,40,150454,1,0,0:0:0:0:
432,140,150841,1,0,0:0:0:0:
312,240,151228,2,0,L|308:371,1,130,2|0,0:0|0:0,0:0:0:0:
160,328,152002,5,0,0:0:0:0:
220,184,152390,1,0,0:0:0:0:
68,144,152777,1,2,0:0:0:0:
168,24,153164,2,0,P|192:16|232:12,1,65,0|0,0:0|0:0,0:0:0:0:
280,72,153551,2,0,L|144:104,1,130,0|0,0:0|0:0,0:0:0:0:
140,180,154131,1,0,0:0:0:0:
220,184,154325,2,0,L|288:168,1,65,2|0,0:0|0:0,0:0:0:0:
352,204,154712,1,0,0:0:0:0:
244,316,155099,6,0,P|200:320|124:268,1,130,0|0,0:0|0:0,0:0:0:0:
144,120,155873,2,0,P|160:92|164:40,2,65,2|0|0,0:0|0:0|0:0,0:0:0:0:
72,152,156454,1,0,0:0:0:0:
128,208,156648,2,0,L|264:196,1,130,0|0,0:0|0:0,0:0:0:0:
320,340,157422,2,0,L|248:332,1,65,2|0,0:0|0:0,0:0:0:0:
188,368,157809,1,0,0:0:0:0:
64,276,158196,6,0,P|44:248|36:204,2,65,0|0|0,0:0|0:0|0:0,0:0:0:0:
136,304,158777,1,0,0:0:0:0:
188,244,158970,2,0,L|180:104,1,130,2|0,0:0|0:0,0:0:0:0:
304,16,159744,1,0,0:0:0:0:
420,120,160131,2,0,P|416:144|396:184,1,65,0|0,0:0|0:0,0:0:0:0:
332,224,160519,2,0,L|336:300,1,65,2|0,0:0|0:0,0:0:0:0:
232,212,160906,2,0,L|236:144,1,65,0|0,0:0|0:0,0:0:0:0:
146,194,161293,5,0,0:0:0:0:
